osu file format v14

[General]
AudioFilename: audio.mp3
AudioLeadIn: 0
PreviewTime: 66554
Countdown: 0
SampleSet: Soft
StackLeniency: 0.7
Mode: 0
LetterboxInBreaks: 0
WidescreenStoryboard: 0

[Editor]
DistanceSpacing: 2
BeatDivisor: 4
GridSize: 4
TimelineZoom: 1.7

[Metadata]
Title:Quintuple*Smile
TitleUnicode:Quintuple*Smile
Artist:Kasumi x Ran x Aya x Yukina x Kokoro
ArtistUnicode:Kasumi x Ran x Aya x Yukina x Kokoro
Creator:SleepingD
Version:Enjoy!
Source:BanG Dream!
Tags:girls band party bandori Poppin'Party
BeatmapID:1778528
BeatmapSetID:850701

[Difficulty]
HPDrainRate:5
CircleSize:4
OverallDifficulty:5.1
ApproachRate:9
SliderMultiplier:1.86
SliderTickRate:1

[Events]
//Background and Video events
0,0,"DTYD8CmWkAIOA01.jpg",0,0
//Break Periods
//Storyboard Layer 0 (Background)
//Storyboard Layer 1 (Fail)
//Storyboard Layer 2 (Pass)
//Storyboard Layer 3 (Foreground)
//Storyboard Sound Samples

[TimingPoints]
2739,346.820809248555,4,2,1,40,1,0
2739,-133.333333333333,4,2,1,40,0,0
12363,-133.333333333333,4,2,1,5,0,0
12449,-100,4,2,1,60,0,0
27710,-117.647058823529,4,2,1,60,0,0
38808,-105.263157894737,4,2,1,60,0,0
62392,-83.3333333333333,4,2,1,60,0,0
63779,-100,4,2,1,60,0,0
64993,-100,4,2,1,70,0,0
65253,-100,4,2,1,5,0,0
65340,-100,4,2,1,70,0,0
65600,-100,4,2,1,5,0,0
65686,-100,4,2,1,70,0,0
65947,-100,4,2,1,5,0,0
66033,-200,4,2,1,70,0,0
66467,-200,4,2,1,5,0,0
66554,-90.9090909090909,4,2,1,80,0,1
77912,-90.9090909090909,4,2,1,5,0,1
77999,-80,4,2,1,80,0,1
78345,-90.9090909090909,4,2,1,80,0,1
78606,-90.9090909090909,4,2,1,5,0,1
78692,-80,4,2,1,80,0,1
79039,-90.9090909090909,4,2,1,80,0,1
79299,-90.9090909090909,4,2,1,5,0,1
79386,-80,4,2,1,80,0,1
79733,-90.9090909090909,4,2,1,80,0,1
79906,-80,4,2,1,80,0,1
80253,-90.9090909090909,4,2,1,80,0,1
81814,-71.4285714285714,4,2,1,80,0,1
82334,-76.9230769230769,4,2,1,80,0,1
83201,-90.9090909090909,4,2,1,80,0,1
83548,-90.9090909090909,4,2,1,80,0,1
94299,-100,4,2,1,70,0,0
108345,-125,4,2,1,70,0,0
108866,-100,4,2,1,5,0,0

[HitObjects]
80,125,2739,6,0,B|116:141|148:125|148:125|180:109|224:125,1,139.500005321503,0|0,0:0|0:0,0:0:0:0:
302,181,3259,1,0,0:0:0:0:
313,193,3779,1,0,0:0:0:0:
323,203,4126,5,0,0:0:0:0:
382,259,4299,1,0,0:0:0:0:
458,228,4473,1,0,0:0:0:0:
338,123,4646,1,0,0:0:0:0:
414,92,4819,1,0,0:0:0:0:
473,148,4993,1,0,0:0:0:0:
458,228,5166,1,0,0:0:0:0:
382,259,5340,1,0,0:0:0:0:
323,203,5513,6,0,L|171:194,1,139.500005321503,0|0,0:0|0:0,0:0:0:0:
94,249,6033,1,0,0:0:0:0:
81,266,6554,1,0,0:0:0:0:
72,277,6900,5,0,0:0:0:0:
25,209,7074,1,0,0:0:0:0:
73,85,7247,1,0,0:0:0:0:
195,230,7421,1,0,0:0:0:0:
100,154,7594,1,0,0:0:0:0:
73,60,7767,5,0,0:0:0:0:
154,49,7941,1,0,0:0:0:0:
209,113,8114,1,0,0:0:0:0:
177,188,8288,6,0,P|168:221|176:265,1,69.7500026607514,0|0,0:0|0:0,0:0:0:0:
238,309,8634,1,0,0:0:0:0:
355,269,8808,2,0,P|320:220|233:236,1,139.500005321503,0|0,0:0|0:0,0:0:0:0:
238,309,9328,1,0,0:0:0:0:
246,321,9675,6,0,L|385:313,1,139.500005321503,0|0,0:0|0:0,0:0:0:0:
467,310,10195,1,0,0:0:0:0:
476,321,10542,1,0,0:0:0:0:
500,155,10715,1,0,0:0:0:0:
361,134,10889,6,0,L|334:128,4,17.4375006651879
487,238,11409,1,0,0:0:0:0:
487,238,11756,1,0,0:0:0:0:
389,286,11929,1,0,0:0:0:0:
416,153,12103,2,0,P|391:133|406:177,1,104.625003991127,0|0,0:0|0:0,0:0:0:0:
431,69,12449,6,0,P|385:60|341:75,1,93,0|0,0:0|0:0,0:0:0:0:
224,199,12796,5,0,0:0:0:0:
206,31,12970,1,0,0:0:0:0:
228,224,13143,5,0,0:0:0:0:
332,89,13317,1,0,0:0:0:0:
94,104,13490,1,0,0:0:0:0:
96,136,13576,1,0,0:0:0:0:
98,168,13663,1,0,0:0:0:0:
100,201,13750,1,0,0:0:0:0:
102,233,13837,6,0,P|133:185|263:192,1,186,0|0,0:0|0:0,0:0:0:0:
396,291,14357,1,0,0:0:0:0:
411,118,14530,1,0,0:0:0:0:
252,203,14704,1,0,0:0:0:0:
406,316,14877,2,0,L|511:302,1,93,0|0,0:0|0:0,0:0:0:0:
411,96,15224,6,0,B|276:78|276:78|319:123,1,186,0|0,0:0|0:0,0:0:0:0:
462,207,15744,1,0,0:0:0:0:
480,31,15918,2,0,L|376:17,1,93,0|0,0:0|0:0,0:0:0:0:
218,126,16265,2,0,L|322:112,1,93,0|0,0:0|0:0,0:0:0:0:
469,252,16611,6,0,P|443:205|315:195,1,186,0|0,0:0|0:0,0:0:0:0:
153,271,17132,1,0,0:0:0:0:
308,359,17305,1,0,0:0:0:0:
254,159,17478,1,0,0:0:0:0:
126,287,17652,2,0,L|133:392,1,93,0|0,0:0|0:0,0:0:0:0:
315,283,17999,6,0,L|321:190,1,93,0|0,0:0|0:0,0:0:0:0:
429,35,18345,1,0,0:0:0:0:
458,208,18519,1,0,0:0:0:0:
318,79,18692,1,0,0:0:0:0:
450,199,18866,1,0,0:0:0:0:
495,23,19039,1,0,0:0:0:0:
332,193,19212,1,0,0:0:0:0:
332,193,19299,1,0,0:0:0:0:
332,193,19386,6,0,B|263:181|263:181|218:194|218:194|148:178,1,186,0|0,0:0|0:0,0:0:0:0:
14,296,19906,1,0,0:0:0:0:
35,118,20080,1,0,0:0:0:0:
141,282,20253,1,0,0:0:0:0:
174,97,20426,2,0,L|190:-4,1,93,0|0,0:0|0:0,0:0:0:0:
387,110,20773,6,0,B|408:239|408:239|388:303,1,186,0|0,0:0|0:0,0:0:0:0:
207,346,21293,1,0,0:0:0:0:
396,313,21467,1,0,0:0:0:0:
262,160,21640,1,0,0:0:0:0:
304,354,21814,1,0,0:0:0:0:
440,215,21987,1,0,0:0:0:0:
221,254,22160,5,0,0:0:0:0:
164,83,22334,1,0,0:0:0:0:
104,297,22507,5,0,0:0:0:0:
211,150,22681,1,0,0:0:0:0:
200,372,22854,5,0,0:0:0:0:
140,205,23028,1,0,0:0:0:0:
346,292,23201,2,0,L|446:269,1,93,0|0,0:0|0:0,0:0:0:0:
213,259,23548,6,0,L|113:236,1,93,0|0,0:0|0:0,0:0:0:0:
254,358,23895,1,0,0:0:0:0:
336,200,24068,1,0,0:0:0:0:
207,79,24241,1,0,0:0:0:0:
178,44,24327,1,0,0:0:0:0:
135,51,24414,1,0,0:0:0:0:
118,92,24501,1,0,0:0:0:0:
145,127,24587,1,0,0:0:0:0:
294,29,24762,1,0,0:0:0:0:
272,254,24935,5,0,0:0:0:0:
222,186,25108,1,0,0:0:0:0:
257,109,25282,1,0,0:0:0:0:
247,276,25455,5,0,0:0:0:0:
180,186,25628,1,0,0:0:0:0:
228,85,25802,1,0,0:0:0:0:
224,299,25975,5,0,0:0:0:0:
157,187,26148,1,0,0:0:0:0:
199,63,26322,1,0,0:0:0:0:
201,322,26496,5,0,0:0:0:0:
138,187,26669,1,0,0:0:0:0:
166,40,26843,1,0,0:0:0:0:
327,158,27016,1,0,0:0:0:0:
359,188,27102,1,0,0:0:0:0:
349,231,27189,1,0,0:0:0:0:
307,244,27276,1,0,0:0:0:0:
274,213,27362,1,0,0:0:0:0:
256,192,27710,6,0,L|97:187,1,158.100003015518,0|0,0:0|0:0,0:0:0:0:
97,187,28403,2,0,B|87:227|87:227|93:284,1,79.0500015077591,0|0,0:0|0:0,0:0:0:0:
187,343,28750,1,0,0:0:0:0:
290,191,28923,6,0,P|231:169|165:230,1,158.100003015518,0|0,0:0|0:0,0:0:0:0:
289,334,29444,1,0,0:0:0:0:
384,209,29617,1,0,0:0:0:0:
239,241,29791,2,0,L|254:327,1,79.0500015077591,0|0,0:0|0:0,0:0:0:0:
152,193,30137,1,0,0:0:0:0:
144,339,30311,1,0,0:0:0:0:
248,224,30484,6,0,B|284:240|324:220|324:220|364:204|408:224,1,158.100003015518,0|0,0:0|0:0,0:0:0:0:
473,337,31004,1,0,0:0:0:0:
470,183,31178,1,0,0:0:0:0:
357,288,31351,1,0,0:0:0:0:
493,205,31525,1,0,0:0:0:0:
323,95,31698,6,0,P|295:92|239:89,1,79.0500015077591,0|0,0:0|0:0,0:0:0:0:
448,154,32045,1,0,0:0:0:0:
370,160,32218,1,0,0:0:0:0:
341,235,32392,2,0,P|344:272|354:314,1,79.0500015077591,0|0,0:0|0:0,0:0:0:0:
370,160,32739,1,0,0:0:0:0:
262,264,32912,1,0,0:0:0:0:
420,259,33085,1,0,0:0:0:0:
250,187,33259,6,0,P|193:230|200:312,1,158.100003015518,0|0,0:0|0:0,0:0:0:0:
333,199,33779,1,0,0:0:0:0:
246,112,33952,1,0,0:0:0:0:
262,264,34126,1,0,0:0:0:0:
396,143,34299,2,0,P|362:122|309:117,1,79.0500015077591,0|0,0:0|0:0,0:0:0:0:
353,310,34646,6,0,P|431:274|435:197,1,158.100003015518,0|0,0:0|0:0,0:0:0:0:
286,249,35166,1,0,0:0:0:0:
316,380,35340,1,0,0:0:0:0:
367,232,35513,1,0,0:0:0:0:
244,326,35686,2,0,L|162:315,1,79.0500015077591,0|0,0:0|0:0,0:0:0:0:
341,195,36033,6,0,L|505:173,1,158.100003015518,0|0,0:0|0:0,0:0:0:0:
497,173,36727,2,0,B|510:210|510:210|507:262,1,79.0500015077591,0|0,0:0|0:0,0:0:0:0:
409,118,37074,1,0,0:0:0:0:
352,290,37247,6,0,P|287:275|259:179,1,158.100003015518
349,68,37767,1,0,0:0:0:0:
428,215,37941,1,0,0:0:0:0:
428,215,38028,1,0,0:0:0:0:
428,215,38114,1,0,0:0:0:0:
454,58,38288,1,0,0:0:0:0:
454,58,38375,1,0,0:0:0:0:
454,58,38461,1,0,0:0:0:0:
306,170,38634,1,0,0:0:0:0:
412,325,38808,6,0,B|349:309|349:309|305:318|305:318|229:297,1,176.699995281601,0|0,0:0|0:0,0:0:0:0:
240,300,39502,2,0,P|252:253|240:211,1,88.3499976408005,0|0,0:0|0:0,0:0:0:0:
126,107,39848,1,0,0:0:0:0:
110,259,40022,1,0,0:0:0:0:
215,117,40195,6,0,B|87:101|87:101|133:146,1,176.699995281601,0|0,0:0|0:0,0:0:0:0:
311,177,40715,2,0,L|293:83,1,88.3499976408005,0|0,0:0|0:0,0:0:0:0:
203,206,41062,1,0,0:0:0:0:
150,55,41236,1,0,0:0:0:0:
294,90,41409,1,0,0:0:0:0:
198,239,41582,6,0,L|103:225,1,88.3499976408005,0|0,0:0|0:0,0:0:0:0:
274,313,41929,2,0,L|369:299,1,88.3499976408005,0|0,0:0|0:0,0:0:0:0:
475,189,42276,1,0,0:0:0:0:
334,143,42449,1,0,0:0:0:0:
437,275,42623,1,0,0:0:0:0:
456,75,42796,6,0,B|391:63|391:63|343:72|343:72|273:55,1,176.699995281601,0|0,0:0|0:0,0:0:0:0:
190,222,43317,2,0,P|243:155|333:171,1,176.699995281601,0|0,0:0|0:0,0:0:0:0:
435,283,43837,1,0,0:0:0:0:
468,129,44010,1,0,0:0:0:0:
273,226,44184,6,0,L|285:320,1,88.3499976408005,0|0,0:0|0:0,0:0:0:0:
422,222,44530,1,0,0:0:0:0:
295,136,44704,1,0,0:0:0:0:
387,308,44877,2,0,L|482:290,1,88.3499976408005,0|0,0:0|0:0,0:0:0:0:
396,112,45224,1,0,0:0:0:0:
320,245,45397,1,0,0:0:0:0:
473,139,45571,6,0,P|460:59|348:42,1,176.699995281601,0|0,0:0|0:0,0:0:0:0:
262,147,46091,1,0,0:0:0:0:
269,0,46265,1,0,0:0:0:0:
397,103,46438,2,0,L|390:192,1,88.3499976408005,0|0,0:0|0:0,0:0:0:0:
237,266,46785,2,0,L|229:177,1,88.3499976408005,0|0,0:0|0:0,0:0:0:0:
297,41,47132,6,0,P|345:38|395:32,1,88.3499976408005,0|0,0:0|0:0,0:0:0:0:
201,59,47478,2,0,P|157:54|113:51,1,88.3499976408005,0|0,0:0|0:0,0:0:0:0:
40,184,47825,1,0,0:0:0:0:
17,37,47999,1,0,0:0:0:0:
201,59,48172,1,0,0:0:0:0:
48,209,48345,6,0,B|117:197|117:197|156:206|156:206|228:194,1,176.699995281601,0|0,0:0|0:0,0:0:0:0:
390,263,48866,1,0,0:0:0:0:
328,96,49039,1,0,0:0:0:0:
267,291,49212,1,0,0:0:0:0:
202,118,49386,1,0,0:0:0:0:
371,175,49559,1,0,0:0:0:0:
168,225,49733,6,0,B|41:203|41:203|88:178,1,176.699995281601,0|0,0:0|0:0,0:0:0:0:
226,79,50253,2,0,B|236:120|236:120|230:176,1,88.3499976408005,0|0,0:0|0:0,0:0:0:0:
231,165,50513,1,0,0:0:0:0:
231,165,50600,1,0,0:0:0:0:
127,305,50773,1,0,0:0:0:0:
82,157,50947,1,0,0:0:0:0:
82,157,51033,1,0,0:0:0:0:
82,157,51120,1,0,0:0:0:0:
244,272,51293,6,0,L|336:280,1,88.3499976408005,0|0,0:0|0:0,0:0:0:0:
360,280,51554,1,0,0:0:0:0:
401,267,51640,1,0,0:0:0:0:
418,228,51727,1,0,0:0:0:0:
401,189,51814,1,0,0:0:0:0:
360,176,51900,1,0,0:0:0:0:
324,198,51987,1,0,0:0:0:0:
163,334,52160,1,0,0:0:0:0:
118,183,52334,1,0,0:0:0:0:
244,272,52507,1,0,0:0:0:0:
38,253,52681,6,0,P|34:215|30:160,1,88.3499976408005,0|0,0:0|0:0,0:0:0:0:
196,99,53028,1,0,0:0:0:0:
136,245,53201,1,0,0:0:0:0:
97,71,53374,2,0,P|66:66|3:63,1,88.3499976408005,0|0,0:0|0:0,0:0:0:0:
185,178,53721,1,0,0:0:0:0:
218,9,53895,1,0,0:0:0:0:
93,172,54068,6,0,P|49:177|5:179,1,88.3499976408005,0|0,0:0|0:0,0:0:0:0:
220,148,54415,2,0,P|263:153|307:155,1,88.3499976408005,0|0,0:0|0:0,0:0:0:0:
459,266,54762,1,0,0:0:0:0:
485,101,54935,1,0,0:0:0:0:
325,242,55108,1,0,0:0:0:0:
351,78,55282,1,0,0:0:0:0:
433,280,55455,6,0,P|431:319|428:383,1,88.3499976408005,0|0,0:0|0:0,0:0:0:0:
345,177,55802,1,0,0:0:0:0:
294,348,55975,1,0,0:0:0:0:
435,245,56149,1,0,0:0:0:0:
267,251,56322,1,0,0:0:0:0:
405,131,56496,1,0,0:0:0:0:
377,315,56669,1,0,0:0:0:0:
248,139,56843,6,0,P|224:135|156:130,1,88.3499976408005,0|0,0:0|0:0,0:0:0:0:
13,241,57189,1,0,0:0:0:0:
15,76,57363,1,0,0:0:0:0:
160,253,57536,2,0,P|204:250|248:245,1,88.3499976408005,0|0,0:0|0:0,0:0:0:0:
376,239,57883,1,0,0:0:0:0:
394,208,57970,1,0,0:0:0:0:
392,174,58056,1,0,0:0:0:0:
372,157,58143,1,0,0:0:0:0:
345,146,58230,5,0,0:0:0:0:
245,228,58403,1,0,0:0:0:0:
392,138,58577,1,0,0:0:0:0:
212,106,58750,1,0,0:0:0:0:
350,282,58923,1,0,0:0:0:0:
163,257,59097,2,0,P|123:260|70:266,1,88.3499976408005,0|0,0:0|0:0,0:0:0:0:
249,348,59444,1,0,0:0:0:0:
249,348,59617,6,0,P|255:302|260:253,1,88.3499976408005,0|0,0:0|0:0,0:0:0:0:
165,91,59964,1,0,0:0:0:0:
115,262,60137,1,0,0:0:0:0:
25,96,60311,1,0,0:0:0:0:
221,172,60484,2,0,L|312:161,1,88.3499976408005,0|0,0:0|0:0,0:0:0:0:
464,247,60831,1,0,0:0:0:0:
435,55,61004,6,0,P|362:58|309:151,1,176.699995281601,0|0,0:0|0:0,0:0:0:0:
358,300,61525,1,0,0:0:0:0:
486,157,61698,2,0,P|445:146|394:138,1,88.3499976408005,0|0,0:0|0:0,0:0:0:0:
215,245,62045,2,0,P|258:237|301:226,1,88.3499976408005,0|0,0:0|0:0,0:0:0:0:
159,33,62392,6,0,P|133:84|145:144,1,111.599996594238,0|0,0:0|0:0,0:0:0:0:
240,369,62739,2,0,P|251:326|217:252,1,111.599996594238,0|0,0:0|0:0,0:0:0:0:
59,212,63085,1,0,0:0:0:0:
115,285,63259,1,0,0:0:0:0:
115,285,63345,1,0,0:0:0:0:
115,285,63432,5,0,0:0:0:0:
243,165,63606,1,0,0:0:0:0:
243,165,63692,1,0,0:0:0:0:
243,165,63779,5,0,0:0:0:0:
90,80,63952,1,0,0:0:0:0:
58,257,64126,2,0,L|160:245,1,93,0|0,0:0|0:0,0:0:0:0:
299,99,64473,1,0,0:0:0:0:
320,286,64646,1,0,0:0:0:0:
145,163,64819,1,0,0:0:0:0:
330,82,64993,6,0,P|314:52|191:65,1,139.5,0|0,0:0|0:0,0:0:0:0:
374,158,65340,2,0,P|416:101|403:35,1,139.5,0|0,0:0|0:0,0:0:0:0:
280,153,65686,2,0,P|305:226|359:254,1,139.5,0|0,0:0|0:0,0:0:0:0:
330,82,66033,6,0,B|277:77|277:77|266:82|266:82|205:75,1,116.25,0|0,0:0|0:0,0:0:0:0:
82,94,66554,6,0,P|176:87|201:192,1,204.600006243897,0|0,0:0|0:0,0:0:0:0:
96,323,67074,1,0,0:0:0:0:
33,151,67247,2,0,L|27:40,1,102.300003121948,0|0,0:0|0:0,0:0:0:0:
246,106,67594,1,0,0:0:0:0:
79,220,67767,1,0,0:0:0:0:
155,50,67941,5,0,0:0:0:0:
166,252,68114,1,0,0:0:0:0:
312,170,68288,1,0,0:0:0:0:
106,131,68461,1,0,0:0:0:0:
287,259,68634,2,0,L|388:245,1,102.300003121948,0|0,0:0|0:0,0:0:0:0:
200,146,68981,1,0,0:0:0:0:
222,344,69155,1,0,0:0:0:0:
403,135,69328,6,0,B|331:123|331:123|279:137|279:137|185:122,1,204.600006243897,0|0,0:0|0:0,0:0:0:0:
57,256,69848,1,0,0:0:0:0:
14,54,70022,1,0,0:0:0:0:
213,94,70195,1,0,0:0:0:0:
5,195,70369,1,0,0:0:0:0:
205,235,70542,6,0,L|314:227,1,102.300003121948,0|0,0:0|0:0,0:0:0:0:
208,52,70889,1,0,0:0:0:0:
102,218,71062,1,0,0:0:0:0:
353,289,71236,2,0,P|379:213|282:158,1,204.600006243897,0|0,0:0|0:0,0:0:0:0:
175,316,71756,1,0,0:0:0:0:
99,99,71929,1,0,0:0:0:0:
99,99,72016,1,0,0:0:0:0:
99,99,72103,6,0,B|144:100|170:84|170:84|196:68|238:73|238:73|210:88|192:127,1,204.600006243897,0|0,0:0|0:0,0:0:0:0:
139,303,72623,1,0,0:0:0:0:
24,145,72796,2,0,P|11:96|32:40,1,102.300003121948,0|0,0:0|0:0,0:0:0:0:
138,194,73143,1,0,0:0:0:0:
169,3,73317,1,0,0:0:0:0:
298,176,73490,5,0,0:0:0:0:
99,99,73663,1,0,0:0:0:0:
278,58,73837,1,0,0:0:0:0:
123,221,74010,1,0,0:0:0:0:
184,22,74184,2,0,L|196:136,1,102.300003121948,0|0,0:0|0:0,0:0:0:0:
107,307,74530,1,0,0:0:0:0:
56,125,74704,1,0,0:0:0:0:
301,229,74877,5,0,0:0:0:0:
99,213,75051,1,0,0:0:0:0:
99,213,75137,1,0,0:0:0:0:
99,213,75224,1,0,0:0:0:0:
278,66,75397,1,0,0:0:0:0:
210,312,75571,1,0,0:0:0:0:
218,327,75918,6,0,B|425:307,1,204.600006243897
366,101,76438,1,0,0:0:0:0:
366,101,76525,1,0,0:0:0:0:
366,101,76611,1,0,0:0:0:0:
232,237,76785,1,0,0:0:0:0:
232,237,76871,1,0,0:0:0:0:
232,237,76958,1,0,0:0:0:0:
436,190,77132,1,0,0:0:0:0:
244,52,77305,1,0,0:0:0:0:
313,257,77478,1,0,0:0:0:0:
417,88,77652,6,0,L|242:73,1,153.450004682922,0|0,0:0|0:0,0:0:0:0:
207,10,77999,6,0,P|181:58|196:128,1,116.25,0|0,0:0|0:0,0:0:0:0:
272,296,78345,6,0,L|447:281,1,153.450004682922,0|0,0:0|0:0,0:0:0:0:
482,218,78692,6,0,P|508:266|493:336,1,116.25,0|0,0:0|0:0,0:0:0:0:
342,202,79039,6,0,B|275:193|275:193|247:202|247:202|185:192,1,153.450004682922,0|0,0:0|0:0,0:0:0:0:
119,291,79386,6,0,L|246:283,1,116.25,0|0,0:0|0:0,0:0:0:0:
321,119,79733,1,0,0:0:0:0:
450,292,79906,6,0,L|323:284,1,116.25,0|0,0:0|0:0,0:0:0:0:
117,120,80253,6,0,B|188:135|188:135|236:120|236:120|325:139,1,204.600006243897,0|0,0:0|0:0,0:0:0:0:
471,18,80773,1,0,0:0:0:0:
480,215,80947,1,0,0:0:0:0:
330,46,81120,1,0,0:0:0:0:
339,243,81294,1,0,0:0:0:0:
492,111,81467,1,0,0:0:0:0:
301,162,81640,1,0,0:0:0:0:
301,162,81727,1,0,0:0:0:0:
301,162,81814,6,0,L|165:146,1,130.199996026611,0|0,0:0|0:0,0:0:0:0:
171,146,82334,2,0,L|292:161,1,120.899994465637,0|0,0:0|0:0,0:0:0:0:
512,239,82681,2,0,L|391:254,1,120.899994465637,0|0,0:0|0:0,0:0:0:0:
201,337,83028,1,0,0:0:0:0:
159,330,83114,1,0,0:0:0:0:
117,324,83201,1,0,0:0:0:0:
130,339,83548,6,0,P|182:334|229:298,1,102.300003121948,0|0,0:0|0:0,0:0:0:0:
142,109,83895,2,0,P|120:158|133:208,1,102.300003121948,0|0,0:0|0:0,0:0:0:0:
139,228,84155,1,0,0:0:0:0:
150,251,84241,1,0,0:0:0:0:
280,35,84415,6,0,B|215:24|149:30|149:30|190:37|212:71,1,204.600006243897,0|0,0:0|0:0,0:0:0:0:
337,243,84935,1,0,0:0:0:0:
464,90,85108,2,0,P|410:66|334:172,1,204.600006243897,0|0,0:0|0:0,0:0:0:0:
431,338,85629,1,0,0:0:0:0:
407,146,85802,1,0,0:0:0:0:
263,280,85975,6,0,L|162:267,1,102.300003121948,0|0,0:0|0:0,0:0:0:0:
60,88,86322,1,0,0:0:0:0:
1,274,86496,1,0,0:0:0:0:
202,174,86669,1,0,0:0:0:0:
1,153,86843,1,0,0:0:0:0:
156,24,87016,1,0,0:0:0:0:
93,208,87189,1,0,0:0:0:0:
28,31,87363,5,0,0:0:0:0:
202,83,87536,1,0,0:0:0:0:
10,184,87710,2,0,L|20:287,1,102.300003121948,0|0,0:0|0:0,0:0:0:0:
225,348,88056,1,0,0:0:0:0:
153,154,88230,1,0,0:0:0:0:
99,365,88403,1,0,0:0:0:0:
24,165,88577,1,0,0:0:0:0:
233,229,88750,5,0,0:0:0:0:
44,184,88923,1,0,0:0:0:0:
221,263,89097,5,0,0:0:0:0:
91,109,89270,1,0,0:0:0:0:
209,301,89444,5,0,0:0:0:0:
157,52,89617,1,0,0:0:0:0:
197,340,89791,5,0,0:0:0:0:
241,20,89964,1,0,0:0:0:0:
187,379,90137,5,0,0:0:0:0:
165,190,90311,1,0,0:0:0:0:
326,277,90484,2,0,P|368:276|433:267,1,102.300003121948,0|0,0:0|0:0,0:0:0:0:
177,217,90831,2,0,P|126:209|75:208,1,102.300003121948,0|0,0:0|0:0,0:0:0:0:
51,215,91091,1,0,0:0:0:0:
27,223,91178,1,0,0:0:0:0:
146,353,91351,1,0,0:0:0:0:
235,121,91525,5,0,0:0:0:0:
55,138,91698,1,0,0:0:0:0:
213,287,91871,1,0,0:0:0:0:
137,69,92045,2,0,L|137:182,1,102.300003121948,0|0,0:0|0:0,0:0:0:0:
295,326,92392,1,0,0:0:0:0:
312,154,92565,1,0,0:0:0:0:
176,278,92739,6,0,P|143:272|72:268,1,102.300003121948,0|0,0:0|0:0,0:0:0:0:
295,294,93085,2,0,P|346:292|396:283,1,102.300003121948,0|0,0:0|0:0,0:0:0:0:
234,94,93432,2,0,B|213:162|213:162|227:214|227:214|205:306,1,204.600006243897,0|0,0:0|0:0,0:0:0:0:
16,355,93952,1,0,0:0:0:0:
4,306,94038,1,0,0:0:0:0:
32,266,94125,1,0,0:0:0:0:
82,262,94212,1,0,0:0:0:0:
117,297,94299,6,0,P|186:306|229:207,1,186,0|0,0:0|0:0,0:0:0:0:
143,42,94819,1,0,0:0:0:0:
39,200,94993,1,0,0:0:0:0:
231,212,95166,1,0,0:0:0:0:
108,60,95340,2,0,L|-13:46,1,93,0|0,0:0|0:0,0:0:0:0:
204,180,95686,6,0,B|276:165|276:165|323:182|323:182|393:167,1,186,0|0,0:0|0:0,0:0:0:0:
491,298,96207,1,0,0:0:0:0:
486,96,96380,2,0,L|384:85,1,93,0|0,0:0|0:0,0:0:0:0:
282,267,96727,2,0,L|384:256,1,93,0|0,0:0|0:0,0:0:0:0:
214,196,97074,6,0,P|254:258|203:346,1,186,0|0,0:0|0:0,0:0:0:0:
30,380,97594,1,0,0:0:0:0:
26,188,97767,1,0,0:0:0:0:
177,268,97941,1,0,0:0:0:0:
23,344,98114,2,0,L|122:333,1,93,0|0,0:0|0:0,0:0:0:0:
277,237,98461,6,0,L|178:226,1,93,0|0,0:0|0:0,0:0:0:0:
70,71,98808,1,0,0:0:0:0:
18,237,98981,1,0,0:0:0:0:
201,127,99155,2,0,P|197:85|191:32,1,93,0|0,0:0|0:0,0:0:0:0:
47,157,99502,1,0,0:0:0:0:
183,254,99675,1,0,0:0:0:0:
183,254,99762,1,0,0:0:0:0:
183,254,99848,6,0,B|313:227|313:227|258:211,1,186,0|0,0:0|0:0,0:0:0:0:
76,152,100369,1,0,0:0:0:0:
112,323,100542,1,0,0:0:0:0:
190,148,100715,1,0,0:0:0:0:
233,320,100889,2,0,L|324:301,1,93,0|0,0:0|0:0,0:0:0:0:
182,179,101236,6,0,B|110:157|110:157|72:170|72:170|3:147,1,186,0|0,0:0|0:0,0:0:0:0:
190,55,101756,1,0,0:0:0:0:
114,242,101929,1,0,0:0:0:0:
63,83,102103,1,0,0:0:0:0:
268,33,102276,2,0,L|277:131,1,93,0|0,0:0|0:0,0:0:0:0:
291,254,102623,5,0,0:0:0:0:
348,83,102797,1,0,0:0:0:0:
408,297,102970,5,0,0:0:0:0:
301,150,103144,1,0,0:0:0:0:
312,372,103317,5,0,0:0:0:0:
372,205,103491,1,0,0:0:0:0:
166,292,103664,2,0,L|66:269,1,93,0|0,0:0|0:0,0:0:0:0:
282,187,104010,6,0,L|382:164,1,93
227,45,104357,1,0,0:0:0:0:
151,201,104530,1,0,0:0:0:0:
346,223,104704,1,0,0:0:0:0:
386,202,104790,1,0,0:0:0:0:
402,159,104877,1,0,0:0:0:0:
384,118,104964,1,0,0:0:0:0:
342,99,105050,1,0,0:0:0:0:
296,102,105137,1,0,0:0:0:0:
252,118,105224,1,0,0:0:0:0:
206,121,105310,1,0,0:0:0:0:
162,107,105397,5,0,0:0:0:0:
212,175,105570,1,0,0:0:0:0:
177,252,105744,1,0,0:0:0:0:
187,85,105917,5,0,0:0:0:0:
254,175,106090,1,0,0:0:0:0:
206,276,106264,1,0,0:0:0:0:
210,62,106437,5,0,0:0:0:0:
277,174,106610,1,0,0:0:0:0:
235,298,106784,1,0,0:0:0:0:
236,50,106958,5,0,0:0:0:0:
307,173,107131,1,0,0:0:0:0:
267,324,107305,1,0,0:0:0:0:
153,189,107478,1,0,0:0:0:0:
118,160,107564,1,0,0:0:0:0:
125,117,107651,1,0,0:0:0:0:
166,100,107738,1,0,0:0:0:0:
201,127,107824,1,0,0:0:0:0:
223,145,108172,5,0,0:0:0:0:
8,139,108345,2,0,B|92:155|92:155|140:131|140:131|236:147,1,223.2
