osu file format v14

[General]
AudioFilename: audio.mp3
AudioLeadIn: 0
PreviewTime: 157
Countdown: 0
SampleSet: Soft
StackLeniency: 0.7
Mode: 0
LetterboxInBreaks: 0
WidescreenStoryboard: 0

[Editor]
Bookmarks: 30155
DistanceSpacing: 1
BeatDivisor: 4
GridSize: 16
TimelineZoom: 2

[Metadata]
Title:Picotto! Papitto!! GARUPA*PICO!!! (TV Size)
TitleUnicode:ピコっと!パピっと!!ガルパ☆ピコ!!!(TV Size)
Artist:Kasumi x Ran x Aya x Yukina x Kokoro
ArtistUnicode:Kasumi x Ran x Aya x Yukina x Kokoro
Creator:Nitrous
Version:SPECIAL
Source:BanG Dream! ガルパ☆ピコ
Tags:BanG Dream! ガールズバンドパーティ!bandori garupa pico garupico Girls Band Party! garupa Poppin'Party Afterglow Roselia Pastel*Palettes ハロー、ハッピーワールド! Hello, Happy World! -Nitrous LeNitrous lit120 Underdogs Hinsvar
BeatmapID:1697572
BeatmapSetID:808984

[Difficulty]
HPDrainRate:5
CircleSize:3.6
OverallDifficulty:8.6
ApproachRate:9
SliderMultiplier:1.68
SliderTickRate:1

[Events]
//Background and Video events
0,0,"bg.png",0,0
Video,0,"popipa_pipopa_smile_yay.avi"
//Break Periods
//Storyboard Layer 0 (Background)
//Storyboard Layer 1 (Fail)
//Storyboard Layer 2 (Pass)
//Storyboard Layer 3 (Foreground)
//Storyboard Sound Samples

[TimingPoints]
-634,315.789473684211,4,2,1,70,1,0
629,-100,4,2,1,70,0,1
708,-100,4,2,1,70,0,0
2760,-100,4,2,1,5,0,0
2839,-100,4,2,1,70,0,0
2918,-100,4,2,1,5,0,0
2997,-100,4,2,1,70,0,0
5287,-100,4,2,1,5,0,0
5366,-100,4,2,1,70,0,0
5444,-100,4,2,1,5,0,0
5523,-100,4,2,1,70,0,0
10734,-100,4,2,1,70,0,1
10813,-100,4,2,1,70,0,0
12866,-100,4,2,1,5,0,0
12944,-100,4,2,1,70,0,0
13023,-100,4,2,1,5,0,0
13102,-100,4,2,1,70,0,0
15392,-100,4,2,1,5,0,0
15471,-100,4,2,1,70,0,0
15550,-100,4,2,1,5,0,0
15629,-100,4,2,1,70,0,0
20208,-83.3333333333333,4,2,1,70,0,0
20444,-83.3333333333333,4,2,1,5,0,0
20523,-71.4285714285714,4,2,1,70,0,0
20760,-71.4285714285714,4,2,1,5,0,0
20839,-100,4,2,1,70,0,0
21866,-100,4,2,1,5,0,0
21944,-100,4,2,1,70,0,0
22971,-100,4,2,1,5,0,0
23050,-100,4,2,1,70,0,0
23129,-100,4,2,1,5,0,0
23208,-100,4,2,1,70,0,0
25576,-133.333333333333,4,2,1,70,0,0
25813,-133.333333333333,4,2,1,5,0,0
25892,-83.3333333333333,4,2,1,70,0,0
27787,-100,4,2,1,70,0,0
29681,-100,4,2,1,5,0,0

[Colours]
Combo1 : 255,222,29
Combo2 : 246,46,119
Combo3 : 236,45,61
Combo4 : 90,215,171
Combo5 : 53,61,162

[HitObjects]
308,131,155,5,2,0:2:0:0:
354,280,312,1,2,0:2:0:0:
466,158,470,1,2,0:2:0:0:
255,210,629,6,0,L|165:198,1,84,6|8,3:2|0:2,0:2:0:0:
331,99,944,2,0,L|421:87,1,84,2|8,3:2|0:2,0:2:0:0:
228,32,1260,1,2,3:2:0:0:
291,208,1418,1,10,0:2:0:0:
411,64,1576,1,2,3:2:0:0:
189,120,1734,6,0,B|203:172|203:172|194:232|194:232|212:298,1,168,10|10,0:2|0:2,0:2:0:0:
383,372,2208,1,2,3:2:0:0:
383,181,2366,1,10,0:2:0:0:
301,336,2523,1,0,3:2:0:0:
476,248,2681,2,0,L|468:199,1,42,10|8,0:2|0:2,0:2:0:0:
300,95,2839,2,0,L|288:142,1,42,2|0,3:2|0:2,0:2:0:0:
398,297,2997,1,4,0:2:0:0:
471,81,3155,6,0,L|371:95,1,84,2|8,3:2|0:2,0:2:0:0:
215,205,3471,2,0,L|315:219,1,84,2|8,3:2|0:2,0:2:0:0:
498,246,3787,1,2,3:2:0:0:
408,71,3944,1,10,0:2:0:0:
323,238,4102,1,0,3:2:0:0:
490,117,4260,6,0,L|499:60,3,42,14|0|0|0,0:2|0:2|3:2|0:2,0:2:0:0:
416,240,4576,2,0,L|422:281,3,42,10|8|2|0,0:2|0:2|3:2|0:2,0:2:0:0:
316,120,4892,1,10,0:2:0:0:
275,111,4970,1,8,0:2:0:0:
235,124,5049,1,0,3:2:0:0:
195,133,5128,1,0,0:2:0:0:
154,124,5208,2,0,L|160:188,1,42,10|0,0:2|0:2,0:2:0:0:
297,291,5366,2,0,L|300:249,1,42,2|0,3:2|0:2,0:2:0:0:
317,84,5523,1,8,0:2:0:0:
317,84,5602,1,0,0:2:0:0:
317,84,5681,6,0,L|221:74,1,84,2|8,3:2|0:2,0:2:0:0:
382,204,5997,2,0,L|478:214,1,84,2|8,3:2|0:2,0:2:0:0:
393,31,6313,1,2,3:2:0:0:
250,181,6471,1,10,0:2:0:0:
253,222,6549,1,8,0:2:0:0:
256,264,6628,1,2,3:2:0:0:
435,122,6787,6,0,P|393:75|282:88,1,168,14|10,0:2|0:2,0:2:0:0:
140,211,7260,1,2,3:2:0:0:
108,21,7418,1,10,0:2:0:0:
257,66,7576,1,0,3:2:0:0:
49,164,7734,5,10,0:2:0:0:
240,296,7892,1,2,3:2:0:0:
273,64,8050,1,6,3:2:0:0:
282,81,8366,5,10,0:2:0:0:
279,110,8444,1,8,0:2:0:0:
276,139,8523,1,4,0:2:0:0:
273,168,8602,1,4,0:2:0:0:
270,197,8681,1,6,3:2:0:0:
277,215,8997,5,6,3:2:0:0:
490,298,9155,1,4,0:2:0:0:
463,73,9313,1,6,3:2:0:0:
468,90,9629,5,6,3:2:0:0:
249,26,9787,1,6,3:2:0:0:
302,245,9944,1,6,3:2:0:0:
83,181,10102,1,6,3:2:0:0:
229,52,10260,5,8,0:2:0:0:
96,201,10418,1,8,0:2:0:0:
289,234,10576,1,8,3:2:0:0:
215,37,10734,6,0,L|302:27,1,84,6|8,3:2|0:2,0:2:0:0:
126,151,11050,2,0,L|39:141,1,84,2|8,3:2|0:2,0:2:0:0:
219,251,11366,1,2,3:2:0:0:
192,44,11523,1,10,0:2:0:0:
95,256,11681,1,2,3:2:0:0:
299,144,11839,6,0,B|287:202|287:202|299:250|299:250|289:312,1,168,10|10,0:2|0:2,0:2:0:0:
488,284,12313,1,2,3:2:0:0:
383,110,12471,1,10,0:2:0:0:
385,275,12629,1,0,3:2:0:0:
500,102,12787,2,0,L|450:96,1,42,10|8,0:2|0:2,0:2:0:0:
282,205,12944,2,0,L|332:199,1,42,2|0,3:2|0:2,0:2:0:0:
491,189,13102,1,4,0:2:0:0:
324,27,13260,6,0,L|316:124,1,84,2|8,3:2|0:2,0:2:0:0:
260,308,13576,2,0,L|253:224,1,84,2|8,3:2|0:2,0:2:0:0:
146,58,13892,1,2,3:2:0:0:
56,241,14050,1,10,0:2:0:0:
202,154,14208,1,0,3:2:0:0:
23,25,14366,6,0,L|18:75,3,42,14|0|0|0,0:2|0:2|3:2|0:2,0:2:0:0:
98,130,14681,2,0,L|102:171,3,42,10|8|2|0,0:2|0:2|3:2|0:2,0:2:0:0:
206,57,14997,1,10,0:2:0:0:
246,46,15075,1,8,0:2:0:0:
287,47,15154,1,0,3:2:0:0:
328,54,15233,1,0,0:2:0:0:
369,48,15313,2,0,L|383:113,1,42,10|8,0:2|0:2,0:2:0:0:
456,250,15471,2,0,L|464:208,1,42,2|0,3:2|0:2,0:2:0:0:
477,34,15629,1,8,0:2:0:0:
477,34,15708,1,0,0:2:0:0:
477,34,15787,6,0,L|372:24,1,84,2|8,3:2|0:2,0:2:0:0:
229,149,16102,2,0,L|334:139,1,84,2|8,3:2|0:2,0:2:0:0:
129,39,16418,1,2,3:2:0:0:
125,234,16576,1,10,0:2:0:0:
232,116,16734,1,0,3:2:0:0:
7,174,16892,6,0,P|34:251|127:245,1,168,14|2,0:2|0:2,0:2:0:0:
235,83,17366,1,2,3:2:0:0:
303,269,17523,1,10,0:2:0:0:
171,172,17681,1,0,3:2:0:0:
409,132,17839,5,8,0:2:0:0:
343,369,17997,1,2,3:2:0:0:
163,204,18155,1,6,3:2:0:0:
171,233,18471,5,10,0:2:0:0:
212,226,18549,1,8,0:2:0:0:
253,219,18628,1,10,0:2:0:0:
295,212,18707,1,8,0:2:0:0:
336,205,18786,1,6,3:2:0:0:
363,226,19102,5,2,3:2:0:0:
259,5,19260,1,4,0:2:0:0:
137,219,19418,1,6,3:2:0:0:
154,244,19734,5,6,3:2:0:0:
368,147,19892,1,6,3:2:0:0:
234,367,20050,1,6,3:2:0:0:
448,270,20208,6,0,P|457:214|384:241,1,151.199995385742,6|0,3:2|0:2,0:2:0:0:
367,300,20523,6,0,B|310:283|310:283|260:294|260:294|189:272,1,176.399994616699,6|0,3:2|0:2,0:2:0:0:
61,217,20839,6,0,L|59:124,1,84,6|8,3:2|0:2,0:2:0:0:
56,46,21076,1,8,0:2:0:0:
56,46,21155,1,2,3:2:0:0:
248,107,21313,1,10,0:2:0:0:
86,241,21471,1,2,3:2:0:0:
160,52,21629,1,8,0:2:0:0:
160,52,21708,1,8,0:2:0:0:
160,52,21787,2,0,L|152:109,1,42,2|0,3:2|0:2,0:2:0:0:
123,222,21944,1,10,0:2:0:0:
378,135,22102,5,2,3:2:0:0:
183,29,22260,1,10,0:2:0:0:
238,247,22418,1,2,3:2:0:0:
43,141,22576,1,10,0:2:0:0:
228,22,22734,1,2,3:2:0:0:
113,246,22892,2,0,L|105:204,1,42,8|8,0:2|0:2,0:2:0:0:
256,44,23050,2,0,L|248:86,1,42,2|0,3:2|0:2,0:2:0:0:
207,304,23208,6,0,P|296:308|336:235,1,168,6|2,3:2|3:2,0:2:0:0:
168,101,23681,1,10,0:2:0:0:
173,323,23839,1,2,3:2:0:0:
277,63,23997,5,10,0:2:0:0:
131,245,24155,1,0,3:2:0:0:
359,278,24313,1,10,0:2:0:0:
165,70,24471,6,0,L|176:250,1,168,6|6,3:2|3:2,0:2:0:0:
406,358,24944,1,6,3:2:0:0:
397,109,25102,1,6,3:2:0:0:
188,254,25260,1,6,3:2:0:0:
163,225,25576,22,0,B|199:216|199:216|224:218|224:218|269:207,1,94.500003604889,8|0,3:2|0:2,0:2:0:0:
344,190,25892,54,0,B|318:227|327:274|327:274|387:246|412:209|412:209|450:234|516:238|516:238|507:190|466:149|466:149|510:125|529:56|529:56|463:52|419:77|419:77|410:30|373:5|373:5|347:42|357:89|357:89|306:83|247:111|247:111|287:152|356:171|356:171,1,1007.99996923828,4|0,3:2|3:2,0:2:0:0:
322,170,27787,53,8,3:2:0:0:
288,173,27865,1,8,3:2:0:0:
255,176,27944,1,8,3:2:0:0:
221,179,28023,1,8,3:2:0:0:
188,182,28102,1,4,3:0:0:0:
408,160,28260,1,4,0:2:0:0:
256,192,28339,12,0,30155,0:2:0:0:
