osu file format v14

[General]
AudioFilename: audio.mp3
AudioLeadIn: 0
PreviewTime: 119332
Countdown: 0
SampleSet: Soft
StackLeniency: 0.7
Mode: 0
LetterboxInBreaks: 0
WidescreenStoryboard: 0

[Editor]
DistanceSpacing: 1.2
BeatDivisor: 4
GridSize: 32
TimelineZoom: 1.6

[Metadata]
Title:Watashi wa Yume to Kimi no Tame ni
TitleUnicode:ワタシは夢と君の為に
Artist:Kasokaso (Prismagic) feat. Sennzai
ArtistUnicode:かそかそ (Prismagic) feat. Sennzai
Creator:Garden
Version:Yoshino's Hard
Source:
Tags:firika yorita yoshino -claris- dored Ambivalen¢e Ambivalence seardrop japanese pop jpop j-pop featured artist fa osu! mappers' guild mpg
BeatmapID:2826718
BeatmapSetID:1366777

[Difficulty]
HPDrainRate:5
CircleSize:3.8
OverallDifficulty:6
ApproachRate:8
SliderMultiplier:1.4
SliderTickRate:1

[Events]
//Background and Video events
0,0,"81676147_p0_edit.jpg",0,0
//Break Periods
2,11635,21334
2,76691,86054
2,142622,152458
2,164195,174031
//Storyboard Layer 0 (Background)
//Storyboard Layer 1 (Fail)
//Storyboard Layer 2 (Pass)
//Storyboard Layer 3 (Foreground)
//Storyboard Layer 4 (Overlay)
//Storyboard Sound Samples

[TimingPoints]
849,337.078651685393,4,2,1,60,1,0
849,-125,4,2,1,60,0,0
1017,-125,4,2,1,10,0,0
2197,-125,4,2,1,60,0,0
6242,-100,4,2,1,60,0,0
11635,-100,4,2,1,70,0,0
22084,-100,4,2,1,65,0,0
22422,-111.111111111111,4,2,1,60,0,0
54360,-111.111111111111,4,2,1,5,0,0
54444,-111.111111111111,4,2,1,60,0,0
54781,-90.9090909090909,4,2,1,70,0,1
57393,-90.9090909090909,4,2,1,5,0,1
57478,-90.9090909090909,4,2,1,70,0,1
70371,-90.9090909090909,4,2,1,5,0,1
70455,-90.9090909090909,4,2,1,70,0,1
75848,-83.3333333333333,4,2,1,70,0,0
86804,-100,4,2,1,65,0,0
87141,-111.111111111111,4,2,1,60,0,0
103236,-111.111111111111,4,2,1,5,0,0
103320,-111.111111111111,4,2,1,60,0,0
119163,-83.3333333333333,4,2,1,60,0,0
119416,-83.3333333333333,4,2,1,5,0,0
119500,-90.9090909090909,4,2,1,70,0,1
122113,-90.9090909090909,4,2,1,5,0,1
122197,-90.9090909090909,4,2,1,70,0,1
135090,-90.9090909090909,4,2,1,5,0,1
135174,-90.9090909090909,4,2,1,70,0,1
140820,-90.9090909090909,4,2,1,10,0,1
140905,-83.3333333333333,4,2,1,70,0,0
153208,-100,4,2,1,70,0,0
158517,-100,4,2,1,5,0,0
158601,-100,4,2,1,70,0,0
163995,-100,4,2,1,50,0,0
174781,-111.111111111111,4,2,1,60,0,0
178657,-100,4,2,1,60,0,0
186747,-100,4,2,1,70,0,0
190961,-90.9090909090909,4,2,1,70,0,1
201157,-90.9090909090909,4,2,1,5,0,1
201242,-90.9090909090909,4,2,1,70,0,1
222731,-90.9090909090909,4,2,1,5,0,1
222815,-90.9090909090909,4,2,1,70,0,1
228714,-83.3333333333333,4,2,1,70,0,0
231410,-100,4,2,1,70,0,0
238236,-100,4,2,1,5,0,0
238320,-100,4,2,1,70,0,0
239584,-100,4,2,1,5,0,0
239669,-100,4,2,1,70,0,0
240933,-100,4,2,1,40,0,0

[Colours]
Combo1 : 199,142,255
Combo2 : 147,147,255
Combo3 : 255,145,200
Combo4 : 117,210,255

[HitObjects]
62,373,849,6,0,P|159:307|54:370,1,448,12|12,0:0|0:0,0:0:0:0:
267,184,3545,6,0,B|324:169|324:169|420:235|420:235|473:223,2,224,10|10|10,0:0|0:0|0:0,0:0:0:0:
93,384,5736,1,8,0:0:0:0:
42,324,5905,2,0,L|38:286,3,28,0|0|0|0,1:0|1:0|1:0|1:0,0:0:0:0:
72,256,6242,6,0,P|136:281|215:285,1,140,12|0,0:0|1:0,0:0:0:0:
262,365,6747,2,0,P|305:311|333:237,1,140,12|0,0:0|1:0,0:0:0:0:
425,218,7253,2,0,P|387:160|326:110,1,140,12|0,0:0|1:0,0:0:0:0:
335,18,7759,2,0,P|268:35|202:78,1,140,12|0,0:0|1:0,0:0:0:0:
117,41,8265,2,0,P|113:109|133:185,1,140,10|12,0:0|0:0,0:0:0:0:
241,331,8938,6,0,P|244:262|224:186,1,140,12|0,0:0|1:0,0:0:0:0:
130,178,9444,1,10,0:0:0:0:
130,178,9781,1,10,0:0:0:0:
130,178,10118,2,0,L|43:195,1,70,12|0,0:0|0:0,0:0:0:0:
3,301,22084,6,0,P|34:286|68:292,1,70,0|0,1:0|0:0,0:0:0:0:
132,354,22422,6,0,P|191:324|274:345,1,125.999996154785,12|10,0:0|0:0,0:0:0:0:
421,365,23096,2,0,P|425:323|413:296,1,62.9999980773926,10|0,0:0|0:0,0:0:0:0:
361,236,23433,1,8,0:0:0:0:
436,190,23601,2,0,B|457:152|457:152|429:70,2,125.999996154785,2|2|2,0:0|0:0|0:0,0:0:0:0:
201,59,24781,6,0,P|163:59|130:73,1,62.9999980773926,10|0,0:0|0:0,0:0:0:0:
61,109,25118,2,0,P|94:159|79:230,1,125.999996154785,10|8,0:0|0:0,0:0:0:0:
22,287,25624,2,0,P|77:348|135:330,1,125.999996154785,2|2,0:0|0:0,0:0:0:0:
167,273,26129,1,0,1:0:0:0:
238,325,26298,6,0,L|379:341,1,125.999996154785,12|8,0:0|0:0,0:0:0:0:
443,301,26804,2,0,P|424:243|425:217,1,62.9999980773926,4|8,1:2|0:0,0:0:0:0:
471,167,27141,1,2,1:2:0:0:
471,167,27309,1,4,0:3:0:0:
423,92,27478,2,0,L|384:101,3,31.4999990386963,0|0|0|0,1:0|1:0|1:0|1:0,0:0:0:0:
377,88,27815,6,0,P|350:36|266:32,1,125.999996154785,10|4,0:0|1:2,0:0:0:0:
144,138,28489,1,8,0:0:0:0:
57,155,28657,1,8,0:0:0:0:
86,71,28826,1,2,1:2:0:0:
176,222,29163,5,10,0:0:0:0:
263,239,29331,1,8,0:0:0:0:
234,155,29500,1,2,1:2:0:0:
119,289,29837,6,0,P|71:291|43:270,1,62.9999980773926,10|8,0:0|0:0,0:0:0:0:
17,206,30174,2,0,P|39:163|71:149,1,62.9999980773926,2|0,1:2|0:0,0:0:0:0:
32,69,30511,6,0,B|72:49|72:49|151:67,1,125.999996154785,10|0,0:0|1:0,0:0:0:0:
202,138,31017,2,0,P|258:134|297:67,1,125.999996154785,10|8,0:0|0:0,0:0:0:0:
372,35,31523,1,0,1:0:0:0:
435,95,31691,6,0,L|420:230,1,125.999996154785,10|10,0:0|0:0,0:0:0:0:
456,301,32197,1,0,1:0:0:0:
456,301,32365,1,10,0:0:0:0:
388,357,32534,1,0,1:0:0:0:
314,318,32702,1,8,0:0:0:0:
314,318,32787,1,0,1:0:0:0:
314,318,32871,2,0,L|272:329,2,31.4999990386963,0|8|8,1:0|0:0|0:3,0:0:0:0:
314,225,33208,6,0,L|184:222,1,125.999996154785,12|2,0:0|1:2,0:0:0:0:
29,299,33882,2,0,P|24:352|41:379,2,62.9999980773926,10|8|0,0:0|0:0|1:0,0:0:0:0:
77,225,34388,2,0,B|93:196|93:196|68:100,1,125.999996154785,10|8,0:0|0:0,0:0:0:0:
41,22,34893,2,0,B|70:6|70:6|166:31,1,125.999996154785,0|8,1:0|0:0,0:0:0:0:
213,99,35399,1,8,0:0:0:0:
282,43,35568,2,0,P|335:33|366:47,1,62.9999980773926,2|0,1:2|0:0,0:0:0:0:
426,6,35905,6,0,P|389:55|408:120,1,125.999996154785,10|0,0:0|1:0,0:0:0:0:
469,172,36410,2,0,L|465:264,1,62.9999980773926,2|8,0:0|0:0,0:0:0:0:
429,315,36747,1,8,0:0:0:0:
429,315,36916,1,2,1:2:0:0:
361,259,37084,6,0,B|334:236|297:260|297:260|265:282|221:255,1,125.999996154785,10|8,0:0|0:0,0:0:0:0:
165,225,37590,2,0,P|170:177|191:156,1,62.9999980773926,0|2,1:0|0:0,0:0:0:0:
164,312,37927,2,0,P|159:360|138:381,1,62.9999980773926,10|10,0:0|0:0,0:0:0:0:
63,383,38264,1,0,1:0:0:0:
25,210,38601,6,0,L|35:62,1,125.999996154785,10|2,0:0|1:2,0:0:0:0:
200,26,39275,5,8,0:0:0:0:
287,37,39444,1,10,0:0:0:0:
374,48,39613,1,0,1:0:0:0:
498,172,39950,5,8,0:0:0:0:
411,183,40119,1,8,0:0:0:0:
324,194,40288,1,2,1:2:0:0:
172,283,40624,6,0,P|164:324|183:362,1,62.9999980773926,8|8,0:0|0:0,0:0:0:0:
239,237,40961,2,0,P|207:209|165:207,1,62.9999980773926,2|0,1:2|0:0,0:0:0:0:
247,316,41298,6,0,L|385:305,1,125.999996154785,10|0,0:0|1:0,0:0:0:0:
460,296,41804,2,0,B|472:249|472:249|446:151,1,125.999996154785,10|10,0:0|0:0,0:0:0:0:
419,92,42309,1,0,1:0:0:0:
475,24,42478,6,0,P|413:43|345:31,1,125.999996154785,12|8,0:0|0:3,0:0:0:0:
345,29,42899,1,8,0:3:0:0:
336,24,42983,1,8,0:3:0:0:
267,74,43152,1,8,0:3:0:0:
264,84,43236,1,8,0:3:0:0:
262,94,43320,2,0,P|219:100|179:83,1,62.9999980773926,8|8,0:3|0:3,0:0:0:0:
115,8,43657,2,0,P|158:2|198:19,1,62.9999980773926,8|0,0:3|1:0,0:0:0:0:
77,116,43995,6,0,P|72:177|88:252,1,125.999996154785,12|2,0:0|0:0,0:0:0:0:
151,294,44500,2,0,P|149:341|134:376,1,62.9999980773926,0|2,0:0|0:0,0:0:0:0:
207,218,45006,6,0,B|264:248|264:248|339:220,1,125.999996154785,2|2,0:0|0:0,0:0:0:0:
351,309,45511,2,0,P|343:345|342:382,1,62.9999980773926,0|2,0:0|0:0,0:0:0:0:
449,231,46017,6,0,L|438:97,1,125.999996154785,2|10,0:0|0:0,0:0:0:0:
428,17,46523,1,0,1:0:0:0:
361,73,46691,6,0,P|301:63|284:48,1,62.9999980773926,12|0,0:0|0:0,0:0:0:0:
225,15,47028,2,0,P|165:25|148:40,1,62.9999980773926,2|8,1:2|0:0,0:0:0:0:
92,76,47365,2,0,L|103:145,1,62.9999980773926,2|0,1:2|0:0,0:0:0:0:
30,186,47702,2,0,B|47:213|47:213|30:315,1,125.999996154785,12|0,0:0|1:0,0:0:0:0:
94,368,48208,5,0,3:0:0:0:
178,340,48377,1,8,0:0:0:0:
113,279,48545,1,8,0:0:0:0:
178,340,48714,2,0,L|245:329,1,62.9999980773926,2|8,0:0|0:0,0:0:0:0:
328,337,49051,2,0,L|395:348,1,62.9999980773926,2|0,1:2|0:0,0:0:0:0:
457,289,49388,6,0,P|491:240|493:168,1,125.999996154785,12|0,0:0|1:0,0:0:0:0:
450,99,49893,1,8,0:0:0:0:
399,26,50062,2,0,L|331:33,2,62.9999980773926,2|8|0,0:0|0:0|1:0,0:0:0:0:
215,82,50736,5,10,0:0:0:0:
215,82,50905,1,8,0:0:0:0:
215,82,51073,2,0,L|124:67,1,62.9999980773926,0|8,1:0|0:0,0:0:0:0:
79,120,51410,1,2,0:0:0:0:
79,120,51579,1,8,0:0:0:0:
128,192,51747,2,0,L|171:185,3,31.4999990386963,0|0|2|0,1:2|1:0|1:2|1:0,0:0:0:0:
179,202,52084,6,0,L|185:269,1,62.9999980773926,12|0,0:0|0:0,0:0:0:0:
267,299,52422,2,0,L|278:168,2,125.999996154785,2|2|2,1:2|1:2|1:2,0:0:0:0:
336,351,53264,1,8,0:0:0:0:
418,319,53433,2,0,P|401:275|376:248,1,62.9999980773926,2|8,1:2|0:0,0:0:0:0:
467,217,53770,2,0,P|425:184|391:179,1,62.9999980773926,2|8,1:2|0:0,0:0:0:0:
451,95,54107,2,0,P|406:85|339:95,1,94.499997116089,2|0,1:2|0:0,0:0:0:0:
325,58,54444,2,0,L|326:17,3,31.4999990386963,8|0|0|0,1:0|1:0|1:0|1:0,0:0:0:0:
308,12,54781,6,0,B|276:1|276:1|158:28,1,154.000004699707,12|0,0:0|1:0,0:0:0:0:
80,76,55287,2,0,L|37:68,2,38.5000011749268,0|0|8,3:0|3:0|0:0,0:0:0:0:
154,131,55624,2,0,L|243:106,1,77.0000023498536,10|0,0:0|1:0,0:0:0:0:
283,44,55961,6,0,P|377:59|444:78,1,154.000004699707,10|8,0:0|0:0,0:0:0:0:
511,25,56466,1,0,1:0:0:0:
433,74,56635,2,0,P|427:168|437:228,1,154.000004699707,10|8,0:0|0:0,0:0:0:0:
466,314,57141,2,0,L|335:337,1,115.50000352478,0|0,1:0|0:0,0:0:0:0:
329,338,57478,5,10,0:0:0:0:
329,338,57815,2,0,P|317:269|346:204,1,115.50000352478,0|0,1:0|3:0,0:0:0:0:
352,219,58152,1,8,0:0:0:0:
326,130,58320,2,0,L|249:118,1,77.0000023498536,10|0,0:0|1:0,0:0:0:0:
411,91,58657,6,0,P|375:21|309:31,1,154.000004699707,12|8,0:0|0:0,0:0:0:0:
248,99,59163,2,0,B|219:109|219:109|147:94,1,77.0000023498536,2|8,1:2|0:0,0:0:0:0:
119,174,59500,2,0,B|67:185|67:185|38:175,1,77.0000023498536,2|8,0:0|0:0,0:0:0:0:
176,243,59837,2,0,B|229:254|229:254|258:244,1,77.0000023498536,2|2,1:2|0:0,0:0:0:0:
33,286,60174,6,0,P|101:283|118:373,1,154.000004699707,12|0,0:0|1:0,0:0:0:0:
38,379,60680,1,10,0:0:0:0:
38,379,61017,5,8,0:0:0:0:
33,286,61186,2,0,L|55:177,1,77.0000023498536,0|0,1:0|0:0,0:0:0:0:
94,130,61523,1,10,0:0:0:0:
38,56,61691,1,8,0:0:0:0:
94,130,61860,1,0,1:0:0:0:
185,120,62028,1,10,0:0:0:0:
185,120,62365,5,8,0:0:0:0:
122,51,62534,2,0,L|80:45,3,38.5000011749268,2|0|0|0,1:2|1:0|1:0|1:0,0:0:0:0:
141,33,62871,2,0,P|199:3|307:50,1,154.000004699707,12|0,0:0|1:0,0:0:0:0:
374,31,63377,2,0,L|364:132,1,77.0000023498536,10|0,0:0|1:0,0:0:0:0:
448,150,63714,2,0,L|458:251,1,77.0000023498536,10|0,0:0|1:0,0:0:0:0:
477,316,64051,6,0,B|440:298|403:317|403:317|359:340|311:311,1,154.000004699707,12|0,0:0|1:0,0:0:0:0:
246,206,64556,1,2,1:2:0:0:
231,297,64725,1,0,1:0:0:0:
153,347,64893,1,12,0:3:0:0:
60,337,65062,1,0,1:0:0:0:
60,337,65146,1,0,1:0:0:0:
60,337,65231,2,0,L|66:275,3,38.5000011749268,0|0|0|0,1:0|1:0|1:0|1:0,0:0:0:0:
48,254,65568,6,0,B|84:227|84:227|210:257,1,154.000004699707,12|0,0:0|1:0,0:0:0:0:
223,338,66073,2,0,L|215:391,2,38.5000011749268,0|0|8,3:0|3:0|0:0,0:0:0:0:
296,282,66410,2,0,P|341:276|379:311,1,77.0000023498536,10|0,0:0|1:0,0:0:0:0:
459,295,66747,6,0,P|426:212|439:141,1,154.000004699707,10|8,0:0|0:0,0:0:0:0:
500,83,67253,1,0,1:0:0:0:
409,62,67422,2,0,B|348:52|348:52|296:75|296:75|247:65,1,154.000004699707,10|8,0:0|0:0,0:0:0:0:
145,167,67927,2,0,P|170:138|175:101,1,77.0000023498536,2|2,1:2|0:0,0:0:0:0:
121,18,68264,5,12,0:0:0:0:
121,18,68601,2,0,P|158:70|237:63,1,115.50000352478,0|0,1:0|3:0,0:0:0:0:
228,70,68938,1,8,0:0:0:0:
307,21,69107,2,0,P|352:8|390:23,1,77.0000023498536,10|0,0:0|1:0,0:0:0:0:
455,68,69444,6,0,B|466:107|443:144|443:144|424:189|470:227,1,154.000004699707,12|8,0:0|0:0,0:0:0:0:
499,294,69950,1,0,1:0:0:0:
406,291,70118,2,0,P|346:279|306:324,1,115.50000352478,12|0,0:0|0:0,0:0:0:0:
307,337,70455,1,8,0:0:0:0:
381,384,70624,1,0,1:0:0:0:
381,384,70708,1,8,0:3:0:0:
381,384,70792,1,4,0:3:0:0:
307,337,70961,6,0,B|290:322|290:322|173:328|173:328|159:349,1,154.000004699707,12|0,0:0|1:0,0:0:0:0:
81,378,71466,1,10,0:0:0:0:
80,377,71804,6,0,P|57:326|73:282,1,77.0000023498536,8|0,0:0|1:0,0:0:0:0:
101,224,72141,2,0,P|120:152|63:75,1,154.000004699707,2|8,0:0|0:0,0:0:0:0:
29,162,72646,1,0,1:0:0:0:
101,224,72815,6,0,B|181:247|181:247|261:202,1,154.000004699707,10|8,0:0|0:0,0:0:0:0:
257,121,73320,2,0,P|254:74|220:38,1,77.0000023498536,2|0,1:2|1:0,0:0:0:0:
327,176,73657,6,0,B|412:190|412:190|427:270,1,154.000004699707,12|0,0:0|1:0,0:0:0:0:
346,307,74163,2,0,B|291:373|291:373|213:346,1,154.000004699707,10|0,0:0|0:0,0:0:0:0:
223,257,74669,2,0,B|192:176|192:176|254:122,1,154.000004699707,10|0,0:0|1:0,0:0:0:0:
198,51,75174,5,8,0:0:0:0:
198,51,75343,1,0,1:0:0:0:
99,207,75680,2,0,L|19:195,1,77.0000023498536,2|2,1:2|1:2,0:0:0:0:
3,301,86804,6,0,P|34:286|68:292,1,70,0|0,1:0|0:0,0:0:0:0:
133,354,87142,6,0,P|116:281|108:217,1,125.999996154785,12|2,0:0|1:2,0:0:0:0:
24,105,87815,2,0,P|40:72|84:53,1,62.9999980773926,8|10,0:0|0:0,0:0:0:0:
138,101,88153,1,0,1:0:0:0:
194,33,88320,6,0,B|227:18|227:18|314:38,1,125.999996154785,10|8,0:0|0:0,0:0:0:0:
402,26,88826,2,0,P|392:66|398:116,1,62.9999980773926,0|2,1:0|0:0,0:0:0:0:
461,142,89163,2,0,P|471:182|465:232,1,62.9999980773926,8|8,0:0|0:0,0:0:0:0:
405,263,89500,1,0,1:0:0:0:
464,328,89669,1,0,3:0:0:0:
378,349,89838,6,0,P|334:359|249:344,1,125.999996154785,10|0,0:0|1:0,0:0:0:0:
175,307,90344,1,2,0:0:0:0:
101,355,90512,2,0,P|71:343|27:346,1,62.9999980773926,8|8,0:0|0:0,0:0:0:0:
3,262,90849,1,0,1:0:0:0:
69,203,91018,6,0,B|104:197|104:197|158:232|158:232|203:222,1,125.999996154785,10|8,0:0|0:0,0:0:0:0:
267,199,91523,2,0,P|270:249|253:280,1,62.9999980773926,0|0,1:0|0:0,0:0:0:0:
200,320,91861,1,10,0:0:0:0:
200,320,92029,1,8,0:0:0:0:
269,373,92197,1,2,1:2:0:0:
269,373,92365,1,0,0:0:0:0:
350,339,92534,6,0,P|356:270|326:205,1,125.999996154785,10|0,0:0|1:0,0:0:0:0:
462,94,93209,1,10,0:0:0:0:
407,25,93377,1,8,0:0:0:0:
324,56,93545,2,0,P|328:92|337:142,1,62.9999980773926,2|0,1:2|0:0,0:0:0:0:
370,198,93882,5,10,0:0:0:0:
315,267,94050,1,8,0:0:0:0:
232,236,94219,2,0,P|236:200|245:149,1,62.9999980773926,0|0,1:0|0:0,0:0:0:0:
200,93,94556,2,0,P|162:97|123:126,1,62.9999980773926,10|8,0:0|0:0,0:0:0:0:
91,182,94893,2,0,P|129:186|168:215,1,62.9999980773926,2|0,1:2|0:0,0:0:0:0:
117,280,95231,6,0,B|170:316|170:316|208:267,1,125.999996154785,10|0,0:0|1:0,0:0:0:0:
256,197,95736,2,0,B|292:223|292:223|287:309,1,125.999996154785,10|8,0:0|0:0,0:0:0:0:
361,353,96243,1,0,1:0:0:0:
433,303,96411,6,0,P|475:260|470:197,1,125.999996154785,10|10,0:0|0:0,0:0:0:0:
420,129,96917,1,0,1:0:0:0:
420,129,97085,1,10,0:0:0:0:
492,78,97254,1,0,1:0:0:0:
441,6,97422,1,8,0:0:0:0:
441,6,97506,1,0,1:0:0:0:
441,6,97591,2,0,L|399:17,2,31.4999990386963,0|8|8,1:0|0:0|0:3,0:0:0:0:
356,78,97928,6,0,P|294:73|256:26,1,125.999996154785,12|2,0:0|1:2,0:0:0:0:
89,81,98601,6,0,P|33:67|17:77,2,62.9999980773926,10|8|0,0:0|0:0|1:0,0:0:0:0:
138,153,99107,2,0,L|267:166,1,125.999996154785,10|8,0:0|0:0,0:0:0:0:
344,129,99613,6,0,P|363:84|350:58,1,62.9999980773926,0|2,1:0|0:0,0:0:0:0:
281,32,99950,1,8,0:0:0:0:
281,32,100119,1,8,0:0:0:0:
223,98,100287,2,0,L|236:174,1,62.9999980773926,2|0,1:2|0:0,0:0:0:0:
179,230,100624,6,0,B|150:248|119:238|119:238|82:223|43:241,1,125.999996154785,10|0,0:0|1:0,0:0:0:0:
20,316,101130,2,0,P|33:343|55:368,1,62.9999980773926,2|8,0:0|0:0,0:0:0:0:
131,323,101467,1,8,0:0:0:0:
211,360,101636,1,2,1:2:0:0:
131,323,101804,6,0,P|123:261|140:191,1,125.999996154785,10|8,0:0|0:0,0:0:0:0:
93,122,102309,1,0,1:0:0:0:
93,122,102478,1,2,0:0:0:0:
130,42,102646,6,0,P|174:53|194:45,1,62.9999980773926,10|10,0:0|0:0,0:0:0:0:
271,15,102983,2,0,P|331:17|385:48,1,94.499997116089,0|0,1:0|0:0,0:0:0:0:
374,48,103320,2,0,P|461:41|487:7,1,125.999996154785,10|2,0:0|1:2,0:0:0:0:
410,182,103995,5,8,0:0:0:0:
489,221,104164,1,10,0:0:0:0:
450,300,104332,1,0,1:0:0:0:
371,261,104500,2,0,P|323:268|301:297,1,62.9999980773926,2|8,0:0|0:0,0:0:0:0:
268,353,104837,1,8,0:0:0:0:
268,353,105006,1,2,1:2:0:0:
196,192,105343,6,0,P|190:152|203:125,1,62.9999980773926,8|8,0:0|0:0,0:0:0:0:
129,75,105680,2,0,P|97:100|67:102,1,62.9999980773926,2|0,1:2|0:0,0:0:0:0:
32,180,106017,6,0,P|91:198|119:257,1,125.999996154785,10|0,0:0|1:0,0:0:0:0:
84,333,106523,2,0,B|116:350|116:350|222:325,1,125.999996154785,10|10,0:0|0:0,0:0:0:0:
273,275,107029,1,0,1:0:0:0:
334,337,107197,6,0,P|413:350|450:312,1,125.999996154785,12|8,0:0|0:3,0:0:0:0:
442,314,107618,1,8,0:3:0:0:
439,305,107702,1,8,0:3:0:0:
390,230,107872,1,8,0:3:0:0:
391,222,107956,1,8,0:3:0:0:
393,215,108040,2,0,P|350:221|310:204,1,62.9999980773926,8|8,0:3|0:3,0:0:0:0:
368,135,108377,2,0,P|411:129|451:146,1,62.9999980773926,8|0,0:3|1:0,0:0:0:0:
420,45,108714,6,0,B|380:19|380:19|284:41,1,125.999996154785,12|2,0:0|0:0,0:0:0:0:
253,108,109219,2,0,P|254:162|274:186,1,62.9999980773926,0|2,0:0|0:0,0:0:0:0:
172,13,109725,6,0,L|39:3,1,125.999996154785,2|2,0:0|0:0,0:0:0:0:
63,90,110231,2,0,L|142:95,1,62.9999980773926,0|2,0:0|0:0,0:0:0:0:
34,244,110736,6,0,P|32:317|69:357,1,125.999996154785,2|10,0:0|0:0,0:0:0:0:
148,384,111243,1,0,1:0:0:0:
229,351,111410,6,0,B|266:356|266:356|303:331,1,62.9999980773926,12|0,0:0|0:0,0:0:0:0:
297,253,111747,2,0,B|334:258|334:258|371:233,1,62.9999980773926,2|8,1:2|0:0,0:0:0:0:
378,158,112084,2,0,B|415:163|415:163|452:138,1,62.9999980773926,2|0,1:2|0:0,0:0:0:0:
395,69,112422,2,0,L|248:90,1,125.999996154785,12|0,0:0|1:0,0:0:0:0:
195,133,112927,5,0,3:0:0:0:
122,84,113097,1,8,0:0:0:0:
47,127,113265,1,8,0:0:0:0:
40,214,113433,2,0,P|40:260|52:291,1,62.9999980773926,2|8,0:0|0:0,0:0:0:0:
126,310,113770,2,0,P|158:342|188:355,1,62.9999980773926,2|0,1:2|0:0,0:0:0:0:
259,372,114107,6,0,L|400:356,1,125.999996154785,12|0,0:0|1:0,0:0:0:0:
455,305,114613,1,8,0:0:0:0:
375,265,114781,2,0,L|307:272,2,62.9999980773926,2|8|0,0:0|0:0|1:0,0:0:0:0:
469,115,115456,5,10,0:0:0:0:
469,115,115624,1,8,0:0:0:0:
469,115,115793,2,0,P|432:96|398:102,1,62.9999980773926,0|8,1:0|0:0,0:0:0:0:
340,44,116130,1,2,0:0:0:0:
340,44,116299,1,8,0:0:0:0:
259,78,116467,2,0,L|264:120,3,31.4999990386963,0|0|2|0,1:2|1:0|1:2|1:0,0:0:0:0:
224,51,116804,6,0,P|173:44|151:55,1,62.9999980773926,12|0,0:0|0:0,0:0:0:0:
110,118,117141,6,0,L|58:125,2,41.9999987182618,0|8|8,1:0|0:0|0:0,0:0:0:0:
146,164,117478,2,0,L|126:210,2,41.9999987182618,0|8|8,1:0|0:0|0:0,0:0:0:0:
204,156,117815,2,0,L|235:196,2,41.9999987182618,0|8|8,1:0|0:0|0:0,0:0:0:0:
222,99,118152,6,0,L|276:91,2,41.9999987182618,0|4|4,1:0|0:3|0:3,0:0:0:0:
186,53,118489,2,0,L|205:4,2,41.9999987182618,0|8|8,1:0|0:3|0:3,0:0:0:0:
128,61,118826,2,0,L|96:20,2,41.9999987182618,4|4|4,1:2|0:3|0:3,0:0:0:0:
109,118,119163,6,0,B|89:154|89:154|113:239,1,125.999996154785,8|0,1:0|0:0,0:0:0:0:
129,283,119500,6,0,P|208:257|275:310,1,154.000004699707,12|0,0:0|1:0,0:0:0:0:
343,340,120007,2,0,L|337:383,2,38.5000011749268,0|0|8,3:0|3:0|0:0,0:0:0:0:
423,294,120343,2,0,L|410:214,1,77.0000023498536,10|0,0:0|1:0,0:0:0:0:
426,126,120680,6,0,P|360:139|301:64,1,154.000004699707,10|8,0:0|0:0,0:0:0:0:
387,43,121186,1,0,1:0:0:0:
303,81,121354,2,0,B|263:135|263:135|287:243,1,154.000004699707,10|8,0:0|0:0,0:0:0:0:
371,243,121860,2,0,P|389:314|364:357,1,115.50000352478,0|0,1:0|0:0,0:0:0:0:
358,369,122197,1,10,0:0:0:0:
358,369,122534,6,0,P|405:338|462:343,1,115.50000352478,0|0,1:0|3:0,0:0:0:0:
490,350,122872,1,8,0:0:0:0:
425,259,123040,2,0,P|415:226|434:166,1,77.0000023498536,10|0,0:0|1:0,0:0:0:0:
509,154,123377,6,0,B|514:94|514:94|488:39|488:39|494:-8,1,154.000004699707,12|8,0:0|0:0,0:0:0:0:
403,30,123882,2,0,P|364:1|322:2,1,77.0000023498536,2|8,1:2|0:0,0:0:0:0:
353,170,124219,2,0,P|397:150|417:113,1,77.0000023498536,2|8,0:0|0:0,0:0:0:0:
256,56,124556,2,0,P|250:104|272:140,1,77.0000023498536,2|2,1:2|0:0,0:0:0:0:
198,196,124893,6,0,P|126:185|61:263,1,154.000004699707,12|0,0:0|1:0,0:0:0:0:
44,325,125400,1,10,0:0:0:0:
44,325,125737,5,8,0:0:0:0:
133,301,125905,2,0,P|198:301|225:334,1,77.0000023498536,0|0,1:0|0:0,0:0:0:0:
260,380,126242,1,10,0:0:0:0:
348,355,126410,1,10,0:0:0:0:
350,262,126579,1,0,1:0:0:0:
261,237,126746,1,10,0:0:0:0:
261,237,127084,5,8,0:0:0:0:
205,306,127254,2,0,L|163:300,3,38.5000011749268,2|0|0|0,1:2|1:0|1:0|1:0,0:0:0:0:
148,314,127590,6,0,B|112:343|112:343|-16:324,1,154.000004699707,12|0,0:0|1:0,0:0:0:0:
64,256,128096,1,10,0:0:0:0:
10,181,128264,1,0,1:0:0:0:
58,102,128433,2,0,P|99:102|135:130,1,77.0000023498536,10|0,0:0|1:0,0:0:0:0:
216,91,128771,6,0,B|263:96|283:54|283:54|304:7|353:14,1,154.000004699707,12|0,0:0|1:0,0:0:0:0:
472,47,129276,1,2,1:2:0:0:
511,130,129445,1,0,1:0:0:0:
486,218,129613,1,12,0:3:0:0:
411,272,129782,1,0,1:0:0:0:
411,272,129866,1,0,1:0:0:0:
411,272,129951,2,0,L|357:261,3,38.5000011749268,0|0|0|0,1:0|1:0|1:0|1:0,0:0:0:0:
340,296,130287,6,0,P|286:331|180:288,1,154.000004699707,12|0,0:0|1:0,0:0:0:0:
111,296,130792,2,0,L|64:308,2,38.5000011749268,0|0|8,3:0|3:0|0:0,0:0:0:0:
170,224,131129,2,0,P|172:168|148:133,1,77.0000023498536,10|0,0:0|1:0,0:0:0:0:
104,78,131466,6,0,P|166:58|258:129,1,154.000004699707,10|8,0:0|0:0,0:0:0:0:
298,170,131973,1,0,1:0:0:0:
372,51,132141,2,0,B|363:103|363:103|392:140|392:140|382:212,1,154.000004699707,10|8,0:0|0:0,0:0:0:0:
425,276,132646,2,0,P|482:277|514:247,1,77.0000023498536,2|2,1:2|0:0,0:0:0:0:
340,266,132984,5,12,0:0:0:0:
340,266,133320,2,0,P|275:273|227:324,1,115.50000352478,0|0,1:0|3:0,0:0:0:0:
219,346,133657,1,8,0:0:0:0:
129,369,133826,2,0,P|87:367|58:338,1,77.0000023498536,10|0,0:0|1:0,0:0:0:0:
43,240,134163,6,0,B|75:206|75:206|213:234,1,154.000004699707,12|8,0:0|0:0,0:0:0:0:
238,304,134670,1,0,1:0:0:0:
303,239,134837,2,0,P|287:161|239:124,1,115.50000352478,12|0,0:0|0:0,0:0:0:0:
240,130,135175,1,8,0:0:0:0:
215,40,135344,1,0,1:0:0:0:
215,40,135428,1,8,0:3:0:0:
215,40,135512,1,4,0:3:0:0:
303,66,135680,6,0,P|370:87|452:33,1,154.000004699707,12|0,0:0|1:0,0:0:0:0:
484,132,136186,1,10,0:0:0:0:
484,132,136523,6,0,P|478:193|495:235,1,77.0000023498536,8|0,0:0|1:0,0:0:0:0:
433,286,136860,2,0,P|378:246|307:313,1,154.000004699707,2|8,0:0|0:0,0:0:0:0:
373,355,137366,1,0,1:0:0:0:
312,286,137534,6,0,B|270:281|270:281|217:317|217:317|168:310,1,154.000004699707,10|8,0:0|0:0,0:0:0:0:
186,156,138040,2,0,P|200:213|187:254,1,77.0000023498536,2|0,1:2|1:0,0:0:0:0:
107,207,138377,6,0,B|78:172|78:172|85:44,1,154.000004699707,12|0,0:0|1:0,0:0:0:0:
175,76,138882,2,0,B|219:68|219:68|327:138,1,154.000004699707,10|0,0:0|0:0,0:0:0:0:
254,200,139388,2,0,B|238:242|238:242|124:300,1,154.000004699707,10|0,0:0|1:0,0:0:0:0:
69,348,139893,1,8,0:0:0:0:
27,264,140062,6,0,P|54:204|43:125,1,115.50000352478,0|2,1:0|3:2,0:0:0:0:
42,135,140399,1,2,1:2:0:0:
42,135,140568,1,2,1:2:0:0:
256,192,140905,5,12,0:0:0:0:
256,192,140989,12,12,142422,0:0:0:0:
60,369,153208,6,0,P|23:366|0:348,2,35,12|2|2,0:0|0:0|0:0,0:0:0:0:
125,316,153545,2,0,L|117:241,1,70,2|10,1:2|0:0,0:0:0:0:
59,185,153882,1,10,0:0:0:0:
59,185,154051,2,0,L|67:110,1,70,10|0,0:0|1:0,0:0:0:0:
114,46,154388,1,10,0:0:0:0:
188,92,154556,6,0,L|282:87,1,70,10|8,0:0|0:0,0:0:0:0:
272,77,154809,1,2,0:0:0:0:
285,67,154893,2,0,L|379:72,1,70,0|10,1:0|0:0,0:0:0:0:
411,135,155231,1,0,0:0:0:0:
475,79,155399,1,10,0:0:0:0:
419,15,155568,1,0,1:0:0:0:
355,71,155736,1,10,0:0:0:0:
411,135,155905,6,0,P|419:172|415:184,3,35,10|2|2|2,0:0|0:0|0:0|0:0,0:0:0:0:
442,219,156242,2,0,P|413:244|401:246,3,35,0|2|2|2,1:0|0:0|3:2|3:2,0:0:0:0:
386,287,156579,2,0,P|349:275|341:265,3,35,10|10|10|10,0:0|0:0|0:0|0:0,0:0:0:0:
300,274,156916,5,2,1:2:0:0:
300,274,157000,1,2,0:0:0:0:
300,274,157084,2,0,B|270:302|270:302|151:282,1,140,12|8,0:0|0:0,0:0:0:0:
103,333,157590,1,0,1:0:0:0:
39,277,157759,2,0,P|30:228|56:189,1,70,10|2,0:0|0:0,0:0:0:0:
87,143,158096,1,8,0:0:0:0:
22,89,158264,2,0,P|38:53|115:47,1,105,2|0,1:2|0:0,0:0:0:0:
114,55,158601,6,0,B|179:81|179:81|273:52,1,140,12|0,0:0|1:0,0:0:0:0:
432,42,159275,2,0,P|460:83|457:121,1,70,10|10,0:0|0:0,0:0:0:0:
391,150,159613,1,0,1:0:0:0:
339,215,159781,2,0,P|345:299|393:359,1,140,10|8,0:0|0:0,0:0:0:0:
450,380,160287,1,0,1:0:0:0:
504,316,160455,2,0,P|498:232|450:172,1,140,10|10,0:0|0:0,0:0:0:0:
391,150,160961,2,0,L|286:171,1,105,2|8,1:2|0:0,0:0:0:0:
265,173,161298,5,10,0:0:0:0:
265,173,161466,2,0,P|248:77|275:37,1,140,2|0,0:0|0:0,0:0:0:0:
351,45,161972,1,10,0:0:0:0:
351,45,162141,2,0,L|442:57,1,70,10|0,0:0|1:0,0:0:0:0:
465,125,162478,6,0,B|451:155|451:155|475:290,1,140,12|0,0:0|1:0,0:0:0:0:
479,272,162899,1,0,1:0:0:0:
487,282,162983,2,0,L|404:274,1,70,0|12,1:0|0:3,0:0:0:0:
329,310,163320,5,12,0:3:0:0:
272,372,163489,1,8,0:3:0:0:
188,372,163657,1,4,0:3:0:0:
122,318,163826,1,0,1:0:0:0:
91,224,163995,1,12,0:0:0:0:
355,235,174781,6,0,B|414:223|414:223|468:275,1,125.999996154785,4|8,3:1|0:0,0:0:0:0:
438,340,175287,2,0,B|379:352|379:352|325:300,1,125.999996154785,2|0,0:0|0:0,0:0:0:0:
264,271,175792,1,10,0:0:0:0:
198,309,175961,6,0,P|121:331|84:297,1,125.999996154785,0|0,1:0|0:0,0:0:0:0:
47,244,176466,2,0,P|73:206|100:196,1,62.9999980773926,10|0,0:0|0:0,0:0:0:0:
95,117,176804,2,0,P|114:158|110:186,1,62.9999980773926,10|8,0:0|0:3,0:0:0:0:
180,222,177141,2,0,P|134:218|111:200,1,62.9999980773926,10|0,0:0|1:0,0:0:0:0:
214,118,177478,6,0,L|352:129,1,125.999996154785,10|10,0:0|0:0,0:0:0:0:
394,179,177983,2,0,P|402:253|369:313,1,125.999996154785,0|0,1:0|0:0,0:0:0:0:
312,266,178489,1,10,0:0:0:0:
190,319,178657,6,0,P|224:316|257:329,1,70,4|8,1:2|0:0,0:0:0:0:
129,374,178995,2,0,P|95:371|63:384,2,70,2|8|8,1:2|0:0|0:3,0:0:0:0:
21,311,179500,1,10,0:0:0:0:
75,246,179669,1,0,1:0:0:0:
8,195,179837,2,0,P|3:173|12:147,3,35,0|0|0|0,1:0|1:0|1:0|1:0,0:0:0:0:
11,140,180174,6,0,P|85:149|141:84,1,140,12|0,0:0|1:0,0:0:0:0:
186,45,180680,1,10,0:0:0:0:
259,85,180848,2,0,P|272:124|270:165,2,70,2|8|0,0:0|0:0|1:0,0:0:0:0:
431,54,181523,5,10,0:0:0:0:
431,54,181691,1,8,0:0:0:0:
431,54,181860,2,0,P|425:107|405:129,1,70,0|10,1:0|0:0,0:0:0:0:
352,175,182197,1,2,0:0:0:0:
352,175,182365,1,8,0:0:0:0:
401,242,182534,2,0,L|447:238,3,35,0|0|0|0,1:0|1:0|1:0|1:0,0:0:0:0:
455,248,182871,6,0,P|465:303|453:335,1,70,12|0,0:0|0:0,0:0:0:0:
400,362,183208,2,0,L|228:352,2,140,0|2|2,1:0|1:2|1:2,0:0:0:0:
370,283,184051,1,8,0:0:0:0:
335,206,184219,6,0,P|380:193|419:205,1,70,2|8,1:2|0:0,0:0:0:0:
470,147,184556,2,0,P|473:112|460:79,1,70,2|8,1:2|0:0,0:0:0:0:
387,38,184893,1,2,1:2:0:0:
72,161,185399,6,0,L|21:155,2,35,2|2|2,0:0|0:0|0:0,0:0:0:0:
72,161,186747,5,2,1:2:0:0:
72,161,187084,5,2,1:2:0:0:
72,161,187422,6,0,P|67:236|97:311,1,140,2|10,1:2|0:0,0:0:0:0:
162,334,187927,2,0,L|215:327,3,35,8|0|0|0,0:0|1:0|1:0|1:0,0:0:0:0:
223,343,188264,1,10,0:0:0:0:
222,343,188601,6,0,P|288:346|321:317,1,105,2|8,1:2|0:0,0:0:0:0:
328,303,188938,1,10,0:0:0:0:
398,384,189107,1,10,0:0:0:0:
489,223,189444,6,0,P|438:235|363:186,1,140,12|4,0:0|0:3,0:0:0:0:
368,180,189865,1,4,0:3:0:0:
370,168,189950,1,4,1:2:0:0:
309,109,190118,1,0,1:0:0:0:
306,99,190202,1,0,1:0:0:0:
303,87,190287,2,0,P|285:90|264:86,3,35,0|0|0|0,1:0|1:0|1:0|1:0,0:0:0:0:
235,61,190624,2,0,P|217:58|195:62,3,35,10|10|2|2,0:0|0:0|1:2|1:2,0:0:0:0:
162,79,190961,6,0,B|155:120|155:120|185:190|185:190|169:243,1,154.000004699707,12|0,0:0|1:0,0:0:0:0:
83,210,191466,1,10,0:0:0:0:
83,210,191804,5,8,0:0:0:0:
42,293,191973,2,0,P|96:287|148:296,1,77.0000023498536,0|0,1:0|0:0,0:0:0:0:
180,357,192310,1,10,0:0:0:0:
271,343,192478,1,8,0:0:0:0:
339,280,192647,1,0,1:0:0:0:
429,298,192815,1,10,0:0:0:0:
429,298,193152,5,8,0:0:0:0:
394,212,193320,2,0,L|399:157,3,38.5000011749268,2|0|0|0,1:2|1:0|1:0|1:0,0:0:0:0:
428,138,193657,2,0,P|414:89|298:71,1,154.000004699707,12|0,0:0|1:0,0:0:0:0:
235,86,194163,2,0,P|190:79|168:42,1,77.0000023498536,10|0,0:0|1:0,0:0:0:0:
302,143,194500,2,0,P|308:194|286:226,1,77.0000023498536,10|0,0:0|1:0,0:0:0:0:
223,271,194837,6,0,B|95:283|95:283|68:236,1,154.000004699707,12|0,0:0|1:0,0:0:0:0:
3,137,195343,1,2,1:2:0:0:
78,84,195511,1,0,1:0:0:0:
165,114,195680,1,12,0:3:0:0:
202,198,195848,1,0,1:0:0:0:
202,198,195933,1,0,1:0:0:0:
202,198,196017,2,0,L|190:257,3,38.5000011749268,0|0|0|0,1:0|1:0|1:0|1:0,0:0:0:0:
223,271,196354,6,0,B|241:286|241:286|359:270|359:270|371:247,1,154.000004699707,12|0,0:0|1:0,0:0:0:0:
427,192,196859,2,0,L|475:202,2,38.5000011749268,0|0|8,3:0|3:0|0:0,0:0:0:0:
365,122,197196,2,0,P|367:66|392:30,1,77.0000023498536,10|0,0:0|1:0,0:0:0:0:
285,28,197534,6,0,B|256:51|256:51|169:38|169:38|129:68,1,154.000004699707,10|8,0:0|0:0,0:0:0:0:
82,122,198040,1,0,1:0:0:0:
146,187,198208,2,0,P|171:272|135:338,1,154.000004699707,10|8,0:0|0:0,0:0:0:0:
58,293,198714,2,0,L|46:205,1,77.0000023498536,2|2,1:2|0:0,0:0:0:0:
82,122,199051,1,12,0:0:0:0:
82,122,199388,6,0,P|146:136|186:119,1,77.0000023498536,0|0,1:0|3:0,0:0:0:0:
218,71,199724,1,8,0:0:0:0:
291,14,199893,2,0,P|329:11|364:25,1,77.0000023498536,10|0,0:0|1:0,0:0:0:0:
431,87,200231,6,0,P|412:158|430:272,1,154.000004699707,12|8,0:0|0:0,0:0:0:0:
472,312,200737,1,0,1:0:0:0:
397,366,200905,2,0,P|333:345|266:348,1,115.50000352478,12|0,0:0|0:0,0:0:0:0:
265,359,201242,1,8,0:0:0:0:
178,326,201411,1,0,1:0:0:0:
178,326,201495,1,8,0:3:0:0:
178,326,201579,1,4,0:3:0:0:
98,372,201747,6,0,P|68:307|85:205,1,154.000004699707,12|0,0:0|1:0,0:0:0:0:
163,199,202253,1,10,0:0:0:0:
0,17,202590,6,0,P|59:35|93:24,1,77.0000023498536,8|0,0:0|1:0,0:0:0:0:
155,73,202927,2,0,B|164:68|164:68|175:74|186:76|186:76|195:67|210:63|210:63|220:69|234:72|234:72|244:64|255:59|255:59|265:66|278:67|278:67|288:58|301:54|301:54|316:61,1,154.000004699707,2|8,0:0|0:0,0:0:0:0:
377,21,203433,1,0,1:0:0:0:
445,82,203601,6,0,P|453:149|401:230,1,154.000004699707,10|8,0:0|0:0,0:0:0:0:
331,319,204107,2,0,P|358:310|398:325,3,38.5000011749268,2|0|0|0,1:2|1:0|1:0|1:0,0:0:0:0:
407,347,204444,6,0,P|308:356|248:304,1,154.000004699707,12|0,0:0|1:0,0:0:0:0:
175,307,204950,2,0,P|216:216|291:190,1,154.000004699707,8|0,0:0|0:0,0:0:0:0:
325,126,205455,2,0,P|383:207|368:284,1,154.000004699707,10|2,0:0|1:2,0:0:0:0:
446,321,205961,6,0,L|503:313,2,38.5000011749268,8|8|0,0:0|0:0|1:0,0:0:0:0:
380,257,206298,1,8,0:0:0:0:
380,257,206382,1,8,0:0:0:0:
380,257,206466,1,2,1:2:0:0:
445,191,206635,1,10,0:0:0:0:
373,132,206804,6,0,L|316:124,3,38.5000011749268,2|0|0|0,1:2|1:0|1:0|1:0,0:0:0:0:
293,105,207141,2,0,P|239:116|183:78,1,115.50000352478,12|8,0:3|0:0,0:0:0:0:
174,66,207478,6,0,P|176:146|81:272,1,231.000007049561,4|8,1:2|0:0,0:0:0:0:
244,369,208320,6,0,L|421:341,1,154.000004699707,10|8,0:0|0:0,0:0:0:0:
478,301,208827,1,0,1:0:0:0:
412,236,208995,2,0,B|379:210|379:210|402:66,1,154.000004699707,10|8,0:0|0:0,0:0:0:0:
346,176,209500,2,0,P|301:180|266:156,1,77.0000023498536,0|0,1:0|0:0,0:0:0:0:
229,83,209838,1,10,0:0:0:0:
229,83,210174,6,0,P|171:120|109:113,1,115.50000352478,0|0,1:0|3:0,0:0:0:0:
105,107,210511,1,8,0:0:0:0:
72,194,210681,2,0,L|71:277,1,77.0000023498536,10|0,0:0|1:0,0:0:0:0:
14,343,211017,2,0,B|50:313|50:313|178:342,1,154.000004699707,12|8,0:0|0:0,0:0:0:0:
243,362,211523,2,0,L|234:272,1,77.0000023498536,2|8,1:2|0:0,0:0:0:0:
325,307,211860,2,0,L|316:217,1,77.0000023498536,2|8,0:0|0:0,0:0:0:0:
408,247,212197,2,0,L|399:157,1,77.0000023498536,2|2,1:2|0:0,0:0:0:0:
453,94,212534,6,0,P|386:78|309:146,1,154.000004699707,12|0,0:0|1:0,0:0:0:0:
246,180,213041,1,10,0:0:0:0:
246,180,213378,5,8,0:0:0:0:
167,118,213546,2,0,P|129:99|89:108,1,77.0000023498536,0|0,1:0|0:0,0:0:0:0:
116,197,213883,1,10,0:0:0:0:
134,287,214051,1,8,0:0:0:0:
224,270,214219,1,0,1:0:0:0:
207,178,214388,1,10,0:0:0:0:
207,178,214725,5,8,0:0:0:0:
134,287,214893,2,0,L|142:347,3,38.5000011749268,2|0|0|0,1:2|1:0|1:0|1:0,0:0:0:0:
141,349,215231,2,0,B|190:359|190:359|242:328|242:328|301:336,1,154.000004699707,12|0,0:0|1:0,0:0:0:0:
371,367,215737,1,10,0:0:0:0:
436,302,215905,1,0,1:0:0:0:
348,270,216074,2,0,P|326:235|330:189,1,77.0000023498536,10|0,0:0|1:0,0:0:0:0:
312,109,216410,6,0,B|265:102|244:149|244:149|224:191|177:186,1,154.000004699707,12|0,0:0|1:0,0:0:0:0:
83,84,216917,1,2,1:2:0:0:
96,184,217084,1,0,1:0:0:0:
109,284,217253,1,12,0:3:0:0:
122,384,217422,1,0,1:0:0:0:
122,384,217507,1,0,1:0:0:0:
122,384,217590,2,0,L|65:375,3,38.5000011749268,0|0|0|0,1:0|1:0|1:0|1:0,0:0:0:0:
62,329,217927,6,0,P|134:297|197:346,1,154.000004699707,12|0,0:0|1:0,0:0:0:0:
258,270,218433,2,0,L|254:217,2,38.5000011749268,0|0|8,3:0|3:0|0:0,0:0:0:0:
339,313,218770,2,0,L|431:323,1,77.0000023498536,10|0,0:0|1:0,0:0:0:0:
466,243,219107,6,0,P|455:143|401:92,1,154.000004699707,10|8,0:0|0:0,0:0:0:0:
348,47,219614,1,0,1:0:0:0:
275,103,219782,2,0,B|226:95|226:95|172:123|172:123|102:111,1,154.000004699707,10|8,0:0|0:0,0:0:0:0:
43,148,220287,2,0,P|43:210|63:238,1,77.0000023498536,2|2,1:2|0:0,0:0:0:0:
105,296,220625,5,12,0:0:0:0:
105,296,220961,2,0,L|224:282,1,115.50000352478,0|0,1:0|3:0,0:0:0:0:
245,280,221298,1,8,0:0:0:0:
255,370,221466,2,0,L|178:379,1,77.0000023498536,10|0,0:0|1:0,0:0:0:0:
344,357,221804,6,0,B|378:325|378:325|350:187,1,154.000004699707,12|8,0:0|0:0,0:0:0:0:
439,179,222309,1,0,1:0:0:0:
371,115,222478,2,0,P|291:121|249:76,1,115.50000352478,12|0,0:0|0:0,0:0:0:0:
254,79,222816,1,8,0:0:0:0:
182,21,222983,1,0,1:0:0:0:
182,21,223069,1,8,0:3:0:0:
182,21,223153,1,4,0:3:0:0:
107,74,223320,6,0,L|121:257,1,154.000004699707,12|0,0:0|1:0,0:0:0:0:
72,308,223827,1,10,0:0:0:0:
72,309,224163,6,0,P|130:314|164:336,1,77.0000023498536,8|0,0:0|1:0,0:0:0:0:
235,347,224501,2,0,P|214:268|233:178,1,154.000004699707,2|8,0:0|0:0,0:0:0:0:
294,136,225007,1,0,1:0:0:0:
344,213,225175,6,0,B|390:217|390:217|451:179|451:179|500:185,1,154.000004699707,10|8,0:0|0:0,0:0:0:0:
477,349,225681,2,0,P|481:307|467:268,1,77.0000023498536,2|0,1:2|1:0,0:0:0:0:
393,324,226017,6,0,B|345:326|308:307|308:307|280:344|245:355,1,154.000004699707,12|0,0:0|1:0,0:0:0:0:
180,298,226523,2,0,B|202:255|237:232|237:232|219:190|227:154,1,154.000004699707,10|0,0:0|0:0,0:0:0:0:
309,127,227028,2,0,B|334:167|336:209|336:209|382:214|409:239,1,154.000004699707,10|0,0:0|1:0,0:0:0:0:
469,170,227534,1,10,0:0:0:0:
488,260,227703,6,0,P|485:322|431:387,1,115.50000352478,0|2,1:0|0:0,0:0:0:0:
433,364,228040,1,2,1:2:0:0:
433,364,228208,2,0,B|393:343|393:343|269:376,1,154.000004699707,2|0,1:2|0:0,0:0:0:0:
194,331,228714,1,12,0:0:0:0:
256,192,228798,12,10,230568,0:0:0:0:
120,378,231410,5,10,0:0:0:0:
177,316,231579,1,8,0:0:0:0:
247,360,231747,1,2,1:2:0:0:
440,309,232084,5,10,0:0:0:0:
383,247,232253,1,8,0:0:0:0:
313,291,232421,1,2,1:2:0:0:
103,242,232759,5,10,0:0:0:0:
160,180,232928,1,8,0:0:0:0:
230,224,233096,1,0,1:0:0:0:
266,148,233264,2,0,P|270:105|195:20,1,140,10|8,0:0|0:0,0:0:0:0:
146,86,233770,2,0,L|162:177,1,70,2|0,1:2|0:0,0:0:0:0:
102,227,234107,6,0,L|89:372,1,140,10|2,0:0|1:2,0:0:0:0:
271,373,234781,2,0,L|274:287,1,70,10|8,0:0|0:0,0:0:0:0:
354,261,235118,2,0,P|403:275|433:317,1,105,2|0,1:2|0:0,0:0:0:0:
456,357,235455,2,0,P|453:287|490:215,1,140,10|0,0:0|1:0,0:0:0:0:
459,136,235961,6,0,P|405:174|326:164,1,140,10|8,0:0|0:0,0:0:0:0:
254,211,236466,2,0,P|252:264|273:304,1,70,0|0,1:0|3:0,0:0:0:0:
194,346,236804,5,10,0:0:0:0:
112,332,236972,1,10,0:0:0:0:
30,318,237141,2,0,P|23:257|35:226,1,70,2|2,1:2|0:0,0:0:0:0:
96,204,237478,5,10,0:0:0:0:
178,190,237646,1,0,1:0:0:0:
178,190,237731,1,0,1:0:0:0:
178,190,237815,1,2,1:2:0:0:
260,176,237983,6,0,B|276:129|276:129|248:67,1,105,10|0,0:0|0:0,0:0:0:0:
210,61,238320,2,0,L|142:77,2,70,2|2|2,1:2|1:2|1:2,0:0:0:0:
364,297,239332,6,0,B|348:250|348:250|370:199,1,105,10|0,0:0|0:0,0:0:0:0:
414,182,239669,2,0,L|481:198,2,70,2|2|2,1:2|1:2|1:2,0:0:0:0:
255,192,240848,5,12,0:0:0:0:
256,192,240933,12,8,243545,0:0:0:0:
