osu file format v14

[General]
AudioFilename: audio.mp3
AudioLeadIn: 0
PreviewTime: 119332
Countdown: 0
SampleSet: Soft
StackLeniency: 0.2
Mode: 0
LetterboxInBreaks: 0
WidescreenStoryboard: 1

[Editor]
Bookmarks: 29273,54781,131129,175455
DistanceSpacing: 1.2
BeatDivisor: 4
GridSize: 16
TimelineZoom: 2.1

[Metadata]
Title:Watashi wa Yume to Kimi no Tame ni
TitleUnicode:ワタシは夢と君の為に
Artist:Kasokaso (Prismagic) feat. Sennzai
ArtistUnicode:かそかそ (Prismagic) feat. Sennzai
Creator:Garden
Version:Firika's Insane
Source:
Tags:firika yorita yoshino -claris- dored Ambivalen¢e Ambivalence seardrop japanese pop jpop j-pop featured artist fa osu! mappers' guild mpg
BeatmapID:2826717
BeatmapSetID:1366777

[Difficulty]
HPDrainRate:5
CircleSize:3.6
OverallDifficulty:8
ApproachRate:9
SliderMultiplier:1.8
SliderTickRate:1

[Events]
//Background and Video events
0,0,"81676147_p0_edit.jpg",0,0
//Break Periods
//Storyboard Layer 0 (Background)
//Storyboard Layer 1 (Fail)
//Storyboard Layer 2 (Pass)
//Storyboard Layer 3 (Foreground)
//Storyboard Layer 4 (Overlay)
//Storyboard Sound Samples

[TimingPoints]
849,337.078651685393,4,2,1,40,1,0
849,-200,4,2,1,40,0,0
3545,-200,4,2,1,40,0,0
4219,-250,4,2,1,40,0,0
4893,-500,4,2,1,40,0,0
5905,-83.3333333333333,4,2,1,50,0,0
6242,-83.3333333333333,4,2,1,65,0,0
6495,-83.3333333333333,4,2,1,10,0,0
6579,-83.3333333333333,4,2,1,65,0,0
7000,-83.3333333333333,4,2,1,10,0,0
7084,-83.3333333333333,4,2,1,65,0,0
7506,-83.3333333333333,4,2,1,10,0,0
7590,-83.3333333333333,4,2,1,65,0,0
8011,-83.3333333333333,4,2,1,10,0,0
8096,-83.3333333333333,4,2,1,65,0,0
8854,-83.3333333333333,4,2,1,10,0,0
8938,-83.3333333333333,4,2,1,65,0,0
9444,-66.6666666666667,4,2,1,65,0,0
9781,-83.3333333333333,4,2,1,65,0,0
10118,-100,4,2,1,65,0,0
10792,-125,4,2,1,65,0,0
11635,-83.3333333333333,4,2,1,70,0,0
12225,-83.3333333333333,4,2,1,10,0,0
12309,-83.3333333333333,4,2,1,70,0,0
12899,-83.3333333333333,4,2,1,10,0,0
12983,-83.3333333333333,4,2,1,70,0,0
14332,-66.6666666666667,4,2,1,70,0,0
14416,-66.6666666666667,4,2,1,10,0,0
14500,-66.6666666666667,4,2,1,70,0,0
14669,-55.5555555555556,4,2,1,70,0,0
15006,-66.6666666666667,4,2,1,70,0,0
15090,-66.6666666666667,4,2,1,10,0,0
15174,-66.6666666666667,4,2,1,70,0,0
15343,-55.5555555555556,4,2,1,70,0,0
15680,-66.6666666666667,4,2,1,70,0,0
15764,-66.6666666666667,4,2,1,10,0,0
15848,-66.6666666666667,4,2,1,70,0,0
16017,-55.5555555555556,4,2,1,70,0,0
16186,-66.6666666666667,4,2,1,70,0,0
16691,-74.0740740740741,4,2,1,70,0,0
16944,-74.0740740740741,4,2,1,10,0,0
17028,-83.3333333333333,4,2,1,70,0,0
17618,-83.3333333333333,4,2,1,10,0,0
17702,-83.3333333333333,4,2,1,70,0,0
18292,-83.3333333333333,4,2,1,10,0,0
18377,-83.3333333333333,4,2,1,70,0,0
19725,-66.6666666666667,4,2,1,70,0,0
19809,-66.6666666666667,4,2,1,10,0,0
19893,-66.6666666666667,4,2,1,70,0,0
20905,-50,4,2,1,80,0,0
21157,-50,4,2,1,10,0,0
21242,-50,4,2,1,80,0,0
21579,-100,4,2,1,80,0,0
21916,-100,4,2,1,50,0,0
22084,-200,4,2,1,50,0,0
22337,-200,4,2,1,10,0,0
22422,-125,4,2,1,50,0,0
24781,-125,4,2,1,50,0,0
26298,-100,4,2,1,60,0,0
27815,-166.666666666667,4,2,1,60,0,0
28152,-83.3333333333333,4,2,1,60,0,0
28405,-83.3333333333333,4,2,1,10,0,0
28489,-100,4,2,1,60,0,0
30764,-100,4,2,1,10,0,0
30848,-100,4,2,1,60,0,0
31270,-100,4,2,1,10,0,0
31354,-100,4,2,1,60,0,0
31691,-83.3333333333333,4,2,1,60,0,0
33040,-100,4,2,1,60,0,0
33208,-166.666666666667,4,2,1,60,0,0
33461,-166.666666666667,4,2,1,10,0,0
33545,-83.3333333333333,4,2,1,60,0,0
33798,-83.3333333333333,4,2,1,10,0,0
33882,-100,4,2,1,60,0,0
36157,-100,4,2,1,10,0,0
36242,-100,4,2,1,60,0,0
38938,-100,4,2,1,60,0,0
40034,-100,4,2,1,10,0,0
40118,-100,4,2,1,60,0,0
40540,-100,4,2,1,10,0,0
40624,-100,4,2,1,60,0,0
42478,-100,4,2,1,60,0,0
42815,-100,4,2,1,50,0,0
43489,-125,4,2,1,50,0,0
43995,-166.666666666667,4,2,1,40,0,0
45006,-166.666666666667,4,2,1,40,0,0
45343,-200,4,2,1,40,0,0
45680,-250,4,2,1,40,0,0
46017,-166.666666666667,4,2,1,40,0,0
46354,-125,4,2,1,40,0,0
46691,-83.3333333333333,4,2,1,65,0,0
46944,-83.3333333333333,4,2,1,10,0,0
47028,-83.3333333333333,4,2,1,65,0,0
47281,-83.3333333333333,4,2,1,10,0,0
47365,-83.3333333333333,4,2,1,65,0,0
47618,-83.3333333333333,4,2,1,10,0,0
47702,-83.3333333333333,4,2,1,65,0,0
48377,-125,4,2,1,50,0,0
49051,-125,4,2,1,50,0,0
49388,-100,4,2,1,60,0,0
49641,-100,4,2,1,10,0,0
49725,-100,4,2,1,60,0,0
52084,-83.3333333333333,4,2,1,60,0,0
52337,-83.3333333333333,4,2,1,10,0,0
52422,-83.3333333333333,4,2,1,60,0,0
53433,-66.6666666666667,4,2,1,70,0,0
54781,-66.6666666666667,4,2,1,80,0,0
55034,-66.6666666666667,4,2,1,10,0,0
55118,-66.6666666666667,4,2,1,80,0,0
55624,-83.3333333333333,4,2,1,80,0,0
55961,-66.6666666666667,4,2,1,80,0,0
56214,-66.6666666666667,4,2,1,10,0,0
56298,-66.6666666666667,4,2,1,80,0,0
56551,-66.6666666666667,4,2,1,10,0,0
56635,-83.3333333333333,4,2,1,80,0,0
57731,-83.3333333333333,4,2,1,10,0,0
57815,-83.3333333333333,4,2,1,80,0,0
60933,-83.3333333333333,4,2,1,10,0,0
61017,-83.3333333333333,4,2,1,80,0,0
64304,-83.3333333333333,4,2,1,10,0,0
64388,-83.3333333333333,4,2,1,80,0,0
64893,-66.6666666666667,4,2,1,80,0,0
65062,-66.6666666666667,4,2,1,85,0,0
65568,-66.6666666666667,4,2,1,80,0,0
65820,-66.6666666666667,4,2,1,10,0,0
65905,-66.6666666666667,4,2,1,80,0,0
66410,-83.3333333333333,4,2,1,80,0,0
66747,-66.6666666666667,4,2,1,80,0,0
67000,-66.6666666666667,4,2,1,10,0,0
67084,-66.6666666666667,4,2,1,80,0,0
67337,-66.6666666666667,4,2,1,10,0,0
67422,-83.3333333333333,4,2,1,80,0,0
68517,-83.3333333333333,4,2,1,10,0,0
68601,-83.3333333333333,4,2,1,80,0,0
69360,-83.3333333333333,4,2,1,10,0,0
69444,-83.3333333333333,4,2,1,80,0,0
70371,-83.3333333333333,4,2,1,10,0,0
70455,-83.3333333333333,4,2,1,80,0,0
70961,-83.3333333333333,4,2,1,70,0,0
71719,-83.3333333333333,4,2,1,10,0,0
71804,-83.3333333333333,4,2,1,70,0,0
73657,-83.3333333333333,4,2,1,80,0,0
74922,-83.3333333333333,4,2,1,10,0,0
75006,-83.3333333333333,4,2,1,80,0,0
75511,-83.3333333333333,4,2,1,85,0,0
75680,-50,4,2,1,85,0,0
75848,-66.6666666666667,4,2,1,85,0,0
76523,-133.333333333333,4,2,1,70,0,0
76691,-83.3333333333333,4,2,1,70,0,0
76944,-83.3333333333333,4,2,1,10,0,0
77028,-83.3333333333333,4,2,1,70,0,0
77618,-83.3333333333333,4,2,1,10,0,0
77702,-83.3333333333333,4,2,1,70,0,0
79051,-66.6666666666667,4,2,1,70,0,0
79135,-66.6666666666667,4,2,1,10,0,0
79219,-66.6666666666667,4,2,1,70,0,0
79388,-55.5555555555556,4,2,1,70,0,0
79725,-66.6666666666667,4,2,1,70,0,0
79809,-66.6666666666667,4,2,1,10,0,0
79893,-66.6666666666667,4,2,1,70,0,0
80062,-55.5555555555556,4,2,1,70,0,0
80399,-66.6666666666667,4,2,1,70,0,0
80483,-66.6666666666667,4,2,1,10,0,0
80568,-66.6666666666667,4,2,1,70,0,0
81410,-74.0740740740741,4,2,1,70,0,0
81663,-74.0740740740741,4,2,1,10,0,0
81747,-83.3333333333333,4,2,1,70,0,0
82337,-83.3333333333333,4,2,1,10,0,0
82422,-83.3333333333333,4,2,1,70,0,0
83011,-83.3333333333333,4,2,1,10,0,0
83096,-83.3333333333333,4,2,1,70,0,0
84444,-66.6666666666667,4,2,1,70,0,0
84528,-66.6666666666667,4,2,1,10,0,0
84613,-66.6666666666667,4,2,1,70,0,0
85624,-50,4,2,1,80,0,0
85877,-50,4,2,1,10,0,0
85961,-50,4,2,1,80,0,0
86635,-50,4,2,1,50,0,0
86804,-100,4,2,1,50,0,0
87141,-100,4,2,1,60,0,0
88573,-100,4,2,1,10,0,0
88657,-100,4,2,1,60,0,0
93124,-100,4,2,1,10,0,0
93208,-100,4,2,1,60,0,0
95146,-100,4,2,1,10,0,0
95231,-100,4,2,1,60,0,0
97927,-166.666666666667,4,2,1,60,0,0
98180,-100,4,2,1,10,0,0
98264,-100,4,2,1,60,0,0
100877,-100,4,2,1,10,0,0
100961,-100,4,2,1,60,0,0
103573,-100,4,2,1,10,0,0
103657,-100,4,2,1,60,0,0
104753,-100,4,2,1,10,0,0
104837,-100,4,2,1,60,0,0
105259,-100,4,2,1,10,0,0
105343,-100,4,2,1,60,0,0
106270,-100,4,2,1,10,0,0
106354,-100,4,2,1,60,0,0
106775,-100,4,2,1,10,0,0
106860,-100,4,2,1,60,0,0
107534,-100,4,2,1,50,0,0
108714,-166.666666666667,4,2,1,40,0,0
110399,-250.000000000001,4,2,1,40,0,0
110736,-166.666666666667,4,2,1,40,0,0
111410,-83.3333333333333,4,2,1,65,0,0
111663,-83.3333333333333,4,2,1,10,0,0
111747,-83.3333333333333,4,2,1,65,0,0
112000,-83.3333333333333,4,2,1,10,0,0
112084,-83.3333333333333,4,2,1,65,0,0
112337,-83.3333333333333,4,2,1,10,0,0
112422,-83.3333333333333,4,2,1,65,0,0
113096,-125,4,2,1,50,0,0
114107,-100,4,2,1,60,0,0
114360,-100,4,2,1,10,0,0
114444,-100,4,2,1,60,0,0
116804,-83.3333333333333,4,2,1,70,0,0
117056,-83.3333333333333,4,2,1,10,0,0
117141,-83.3333333333333,4,2,1,70,0,0
119163,-66.6666666666667,4,2,1,70,0,0
119416,-66.6666666666667,4,2,1,10,0,0
119500,-66.6666666666667,4,2,1,80,0,0
119753,-66.6666666666667,4,2,1,10,0,0
119837,-66.6666666666667,4,2,1,80,0,0
120343,-83.3333333333333,4,2,1,80,0,0
120680,-66.6666666666667,4,2,1,80,0,0
120933,-66.6666666666667,4,2,1,10,0,0
121017,-66.6666666666667,4,2,1,80,0,0
121270,-66.6666666666667,4,2,1,10,0,0
121354,-83.3333333333333,4,2,1,80,0,0
121691,-83.3333333333333,4,2,1,80,0,0
122450,-83.3333333333333,4,2,1,10,0,0
122534,-83.3333333333333,4,2,1,80,0,0
125652,-83.3333333333333,4,2,1,10,0,0
125736,-83.3333333333333,4,2,1,80,0,0
129023,-83.3333333333333,4,2,1,10,0,0
129107,-83.3333333333333,4,2,1,80,0,0
129613,-66.6666666666667,4,2,1,80,0,0
129781,-66.6666666666667,4,2,1,85,0,0
130287,-66.6666666666667,4,2,1,80,0,0
130540,-66.6666666666667,4,2,1,10,0,0
130624,-66.6666666666667,4,2,1,80,0,0
131129,-83.3333333333333,4,2,1,80,0,0
131466,-66.6666666666667,4,2,1,80,0,0
131719,-66.6666666666667,4,2,1,10,0,0
131804,-66.6666666666667,4,2,1,80,0,0
132056,-66.6666666666667,4,2,1,10,0,0
132141,-83.3333333333333,4,2,1,80,0,0
132478,-83.3333333333333,4,2,1,80,0,0
133236,-83.3333333333333,4,2,1,10,0,0
133320,-83.3333333333333,4,2,1,80,0,0
134079,-83.3333333333333,4,2,1,10,0,0
134163,-83.3333333333333,4,2,1,80,0,0
135090,-83.3333333333333,4,2,1,10,0,0
135174,-83.3333333333333,4,2,1,80,0,0
135680,-83.3333333333333,4,2,1,70,0,0
136438,-83.3333333333333,4,2,1,10,0,0
136523,-83.3333333333333,4,2,1,70,0,0
138377,-83.3333333333333,4,2,1,80,0,0
139641,-83.3333333333333,4,2,1,10,0,0
139725,-83.3333333333333,4,2,1,80,0,0
140231,-50,4,2,1,85,0,0
140905,-133.333333333333,4,2,1,80,0,0
141747,-133.333333333333,4,2,1,80,0,0
142084,-133.333333333333,4,2,1,75,0,0
142422,-100,4,2,1,70,0,0
147815,-83.3333333333333,4,2,1,70,0,0
148826,-100,4,2,1,70,0,0
149163,-83.3333333333333,4,2,1,70,0,0
151691,-66.6666666666667,4,2,1,70,0,0
151944,-66.6666666666667,4,2,1,10,0,0
152028,-66.6666666666667,4,2,1,70,0,0
152871,-66.6666666666667,4,2,1,70,0,0
153208,-83.3333333333333,4,2,1,70,0,0
156073,-66.6666666666667,4,2,1,70,0,0
158601,-83.3333333333333,4,2,1,70,0,0
160708,-83.3333333333333,4,2,1,10,0,0
160792,-83.3333333333333,4,2,1,70,0,0
162731,-83.3333333333333,4,2,1,10,0,0
162815,-83.3333333333333,4,2,1,60,0,0
163657,-100,4,2,1,50,0,0
163995,-166.666666666667,4,2,1,40,0,0
165680,-500,4,2,1,40,0,0
166691,-166.666666666667,4,2,1,40,0,0
174444,-125,4,2,1,50,0,0
174697,-125,4,2,1,10,0,0
174781,-100,4,2,1,50,0,0
180174,-100,4,2,1,60,0,0
182871,-83.3333333333333,4,2,1,60,0,0
183124,-83.3333333333333,4,2,1,10,0,0
183208,-83.3333333333333,4,2,1,60,0,0
184219,-66.6666666666667,4,2,1,70,0,0
184893,-100,4,2,1,60,0,0
185568,-333.333333333333,4,2,1,40,0,0
186747,-83.3333333333333,4,2,1,60,0,0
187422,-125,4,2,1,70,0,0
187927,-100,4,2,1,70,0,0
188264,-200,4,2,1,50,0,0
188517,-200,4,2,1,10,0,0
188601,-66.6666666666667,4,2,1,70,0,0
188938,-83.3333333333333,4,2,1,70,0,0
189023,-83.3333333333333,4,2,1,10,0,0
189107,-200,4,2,1,70,0,0
189360,-200,4,2,1,10,0,0
189444,-83.3333333333333,4,2,1,70,0,0
190961,-83.3333333333333,4,2,1,80,0,0
191719,-83.3333333333333,4,2,1,10,0,0
191804,-83.3333333333333,4,2,1,80,0,0
193910,-83.3333333333333,4,2,1,10,0,0
193995,-83.3333333333333,4,2,1,80,0,0
195680,-66.6666666666667,4,2,1,80,0,0
195848,-66.6666666666667,4,2,1,85,0,0
196354,-66.6666666666667,4,2,1,80,0,0
196607,-66.6666666666667,4,2,1,10,0,0
196691,-66.6666666666667,4,2,1,80,0,0
197197,-83.3333333333333,4,2,1,80,0,0
197534,-66.6666666666667,4,2,1,80,0,0
197787,-66.6666666666667,4,2,1,10,0,0
197871,-66.6666666666667,4,2,1,80,0,0
198124,-66.6666666666667,4,2,1,10,0,0
198208,-83.3333333333333,4,2,1,80,0,0
199304,-83.3333333333333,4,2,1,10,0,0
199388,-83.3333333333333,4,2,1,80,0,0
200146,-83.3333333333333,4,2,1,10,0,0
200231,-83.3333333333333,4,2,1,80,0,0
201157,-83.3333333333333,4,2,1,10,0,0
201242,-83.3333333333333,4,2,1,80,0,0
201747,-83.3333333333333,4,2,1,70,0,0
202000,-83.3333333333333,4,2,1,10,0,0
202084,-83.3333333333333,4,2,1,70,0,0
204444,-83.3333333333333,4,2,1,80,0,0
205455,-66.6666666666667,4,2,1,80,0,0
205708,-66.6666666666667,4,2,1,10,0,0
205792,-66.6666666666667,4,2,1,80,0,0
206298,-66.6666666666667,4,2,1,85,0,0
206635,-66.6666666666667,4,2,1,90,0,0
207141,-125,4,2,1,60,0,0
207478,-66.6666666666667,4,2,1,80,0,0
207815,-66.6666666666667,4,2,1,80,0,0
207983,-83.3333333333333,4,2,1,80,0,0
208320,-66.6666666666667,4,2,1,80,0,0
208573,-66.6666666666667,4,2,1,10,0,0
208657,-66.6666666666667,4,2,1,80,0,0
208910,-66.6666666666667,4,2,1,10,0,0
208995,-83.3333333333333,4,2,1,80,0,0
209332,-83.3333333333333,4,2,1,80,0,0
210090,-83.3333333333333,4,2,1,10,0,0
210174,-83.3333333333333,4,2,1,80,0,0
213292,-83.3333333333333,4,2,1,10,0,0
213377,-83.3333333333333,4,2,1,80,0,0
215483,-83.3333333333333,4,2,1,10,0,0
215568,-83.3333333333333,4,2,1,80,0,0
217253,-66.6666666666667,4,2,1,80,0,0
217422,-66.6666666666667,4,2,1,85,0,0
217927,-66.6666666666667,4,2,1,80,0,0
218180,-66.6666666666667,4,2,1,10,0,0
218264,-66.6666666666667,4,2,1,80,0,0
218770,-83.3333333333333,4,2,1,80,0,0
219107,-66.6666666666667,4,2,1,80,0,0
219360,-66.6666666666667,4,2,1,10,0,0
219444,-66.6666666666667,4,2,1,80,0,0
219697,-66.6666666666667,4,2,1,10,0,0
219781,-83.3333333333333,4,2,1,80,0,0
220118,-83.3333333333333,4,2,1,80,0,0
220877,-83.3333333333333,4,2,1,10,0,0
220961,-83.3333333333333,4,2,1,80,0,0
221719,-83.3333333333333,4,2,1,10,0,0
221804,-83.3333333333333,4,2,1,80,0,0
222731,-83.3333333333333,4,2,1,10,0,0
222815,-83.3333333333333,4,2,1,80,0,0
223320,-83.3333333333333,4,2,1,70,0,0
226017,-83.3333333333333,4,2,1,80,0,0
228208,-333.333333333334,4,2,1,60,0,0
228714,-83.3333333333333,4,2,1,70,0,0
229304,-83.3333333333333,4,2,1,10,0,0
229388,-83.3333333333333,4,2,1,70,0,0
229978,-83.3333333333333,4,2,1,10,0,0
230062,-83.3333333333333,4,2,1,70,0,0
231410,-66.6666666666667,4,2,1,70,0,0
231495,-66.6666666666667,4,2,1,10,0,0
231579,-66.6666666666667,4,2,1,70,0,0
231747,-55.5555555555556,4,2,1,70,0,0
232084,-66.6666666666667,4,2,1,70,0,0
232169,-66.6666666666667,4,2,1,10,0,0
232253,-66.6666666666667,4,2,1,70,0,0
232422,-55.5555555555556,4,2,1,70,0,0
232759,-66.6666666666667,4,2,1,70,0,0
232843,-66.6666666666667,4,2,1,10,0,0
232927,-66.6666666666667,4,2,1,70,0,0
233096,-55.5555555555556,4,2,1,70,0,0
233264,-66.6666666666667,4,2,1,70,0,0
233770,-74.0740740740741,4,2,1,70,0,0
234023,-74.0740740740741,4,2,1,10,0,0
234107,-83.3333333333333,4,2,1,70,0,0
234697,-83.3333333333333,4,2,1,10,0,0
234781,-83.3333333333333,4,2,1,70,0,0
235371,-83.3333333333333,4,2,1,10,0,0
235455,-83.3333333333333,4,2,1,70,0,0
236804,-66.6666666666667,4,2,1,70,0,0
236888,-66.6666666666667,4,2,1,10,0,0
236972,-66.6666666666667,4,2,1,70,0,0
237983,-50,4,2,1,80,0,0
238236,-50,4,2,1,10,0,0
238320,-50,4,2,1,80,0,0
238826,-50,4,2,1,70,0,0
239163,-66.6666666666667,4,2,1,70,0,0
239247,-66.6666666666667,4,2,1,10,0,0
239332,-50,4,2,1,80,0,0
239584,-50,4,2,1,10,0,0
239669,-50,4,2,1,80,0,0
240174,-50,4,2,1,70,0,0
240427,-50,4,2,1,10,0,0
240511,-66.6666666666667,4,2,1,80,0,0
240764,-66.6666666666667,4,2,1,10,0,0
240848,-66.6666666666667,4,2,1,70,0,0
243545,-66.6666666666667,4,2,1,60,0,0

[Colours]
Combo1 : 199,142,255
Combo2 : 147,147,255
Combo3 : 255,145,200
Combo4 : 117,210,255

[HitObjects]
5,190,849,6,0,B|149:232|154:64|260:81|260:81|275:93,1,315,12|0,0:0|0:0,0:0:0:0:
486,227,2197,6,0,B|398:239|398:239|399:247|399:247|344:254|344:254|300:191|300:191|348:181|360:137,1,315,12|0,0:0|0:0,0:0:0:0:
440,53,3545,6,0,P|421:115|360:137,1,135,10|0,0:0|0:0,0:0:0:0:
274,93,4219,6,0,P|243:63|175:71,1,108,10|0,0:0|0:0,0:0:0:0:
106,128,4893,6,0,L|14:142,1,90,10|8,0:0|0:0,0:0:0:0:
204,346,5905,5,0,1:0:0:0:
167,360,5990,1,0,1:0:0:0:
127,353,6074,1,0,1:0:0:0:
97,326,6158,1,0,1:0:0:0:
85,288,6242,6,0,L|105:127,1,161.999995056153,12|0,0:0|0:0,0:0:0:0:
116,49,6579,1,0,1:0:0:0:
325,258,6747,6,0,L|164:278,1,161.999995056153,12|0,0:0|0:0,0:0:0:0:
85,288,7084,1,0,1:0:0:0:
257,102,7253,6,0,L|417:122,1,161.999995056153,12|0,0:0|0:0,0:0:0:0:
497,132,7590,1,0,1:0:0:0:
288,342,7759,6,0,L|267:181,1,161.999995056153,12|0,0:0|0:0,0:0:0:0:
257,102,8096,1,0,1:0:0:0:
482,238,8264,6,0,L|497:132,1,107.999996704102,14|0,0:0|1:0,0:0:0:0:
247,22,8601,2,0,P|319:50|332:126,1,161.999995056153,12|0,0:0|0:0,0:0:0:0:
267,181,8938,6,0,B|175:175|175:175|167:169|167:169|53:161,1,215.999993408203,12|0,0:0|1:0,0:0:0:0:
53,161,9444,6,0,B|39:67|39:67|3:49,1,135.000005149842,10|0,0:0|0:0,0:0:0:0:
267,181,9781,6,0,B|253:203|253:203|173:218,1,107.999996704102,10|0,0:0|0:0,0:0:0:0:
3,49,10118,6,0,B|14:67|14:67|173:77,1,180,12|0,0:0|0:0,0:0:0:0:
363,330,11635,6,0,B|367:286|367:286|371:284|371:284|377:225,1,107.999996704102,12|2,0:0|0:0,0:0:0:0:
152,175,11972,2,0,L|313:157,1,161.999995056153,2|0,1:2|0:0,0:0:0:0:
329,136,12309,1,10,0:0:0:0:
474,195,12478,1,8,0:0:0:0:
506,21,12646,2,0,P|477:91|402:84,1,161.999995056153,2|0,1:2|0:0,0:0:0:0:
382,66,12983,6,0,P|332:47|281:63,1,107.999996704102,10|8,0:0|0:0,0:0:0:0:
152,175,13320,1,0,1:0:0:0:
173,306,13489,2,0,L|195:91,1,215.999993408203,10|8,0:0|0:0,0:0:0:0:
33,40,13995,1,2,1:2:0:0:
46,37,14079,1,0,3:0:0:0:
59,35,14163,1,0,3:0:0:0:
72,32,14247,1,0,3:0:0:0:
86,30,14332,6,0,L|74:95,1,67.5000025749208,10|0,0:0|0:0,0:0:0:0:
58,183,14500,1,8,0:0:0:0:
219,166,14669,2,0,L|57:182,1,161.999995056153,2|0,1:2|0:0,0:0:0:0:
276,342,15006,6,0,L|288:277,1,67.5000025749208,10|0,0:0|0:0,0:0:0:0:
302,189,15174,1,8,0:0:0:0:
141,206,15343,2,0,L|303:190,1,161.999995056153,2|0,1:2|0:0,0:0:0:0:
497,109,15680,6,0,L|485:174,1,67.5000025749208,10|0,0:0|0:0,0:0:0:0:
469,262,15848,1,10,0:0:0:0:
302,190,16017,1,2,1:2:0:0:
227,27,16186,6,0,P|341:73|301:190,1,270.000010299683,10|8,0:0|0:0,0:0:0:0:
75,164,16691,6,0,B|44:136|44:136|184:153,1,182.250000695229,2|0,1:2|0:0,0:0:0:0:
206,138,17028,6,0,B|210:182|210:182|214:183|214:183|219:243,1,107.999996704102,12|0,0:0|0:0,0:0:0:0:
356,369,17365,2,0,B|368:289|368:289|374:285|374:285|384:211,1,161.999995056153,2|0,1:2|0:0,0:0:0:0:
402,191,17702,1,10,0:0:0:0:
219,242,17871,1,8,0:0:0:0:
360,102,18040,2,0,P|438:99|493:155,1,161.999995056153,2|0,1:2|0:0,0:0:0:0:
500,182,18377,6,0,L|484:288,1,107.999996704102,10|8,0:0|0:0,0:0:0:0:
341,380,18714,1,0,1:0:0:0:
202,160,18882,2,0,B|302:140|288:255|391:233,1,215.999993408203,10|8,0:0|0:0,0:0:0:0:
489,134,19388,1,2,1:2:0:0:
490,120,19472,1,0,3:0:0:0:
492,107,19556,1,0,3:0:0:0:
494,93,19640,1,0,3:0:0:0:
496,80,19725,6,0,L|429:87,1,67.5000025749208,10|0,0:0|0:0,0:0:0:0:
341,99,19893,1,10,0:0:0:0:
221,26,20062,2,0,L|202:160,1,135.000005149842,2|2,1:2|0:0,0:0:0:0:
74,281,20399,1,10,0:0:0:0:
0,137,20568,5,0,1:0:0:0:
28,108,20652,1,0,1:0:0:0:
67,119,20736,1,2,1:2:0:0:
158,243,20905,6,0,B|215:249|215:249|226:242|226:242|424:265,1,270,10|0,0:0|0:0,0:0:0:0:
508,223,21242,5,2,1:2:0:0:
508,223,21410,1,2,1:2:0:0:
508,223,21579,1,2,1:2:0:0:
389,73,21916,5,8,0:0:0:0:
414,159,22084,2,0,L|408:91,1,67.5,0|0,1:0|0:0,0:0:0:0:
329,130,22422,6,0,P|264:99|193:104,1,144,12|10,0:0|0:0,0:0:0:0:
193,103,23096,2,0,L|203:33,2,72,10|0|8,0:0|0:0|0:0,0:0:0:0:
114,140,23601,2,0,P|91:113|56:107,1,72,2|8,0:0|0:0,0:0:0:0:
14,183,23938,2,0,P|36:209|71:215,1,72,2|8,0:0|0:0,0:0:0:0:
236,214,24275,6,0,P|169:234|131:293,1,144,2|0,0:0|0:0,0:0:0:0:
179,366,24781,1,10,0:0:0:0:
458,271,25118,2,0,P|452:305|425:328,1,72,10|0,0:0|0:0,0:0:0:0:
340,312,25455,1,8,0:0:0:0:
236,214,25624,6,0,L|379:230,1,144,2|2,0:0|0:0,0:0:0:0:
507,137,26129,1,0,1:0:0:0:
379,230,26298,6,0,B|368:137|314:169|302:73,1,180,12|8,0:0|0:0,0:0:0:0:
449,12,26804,2,0,P|441:54|403:75,1,90,4|8,1:2|0:0,0:0:0:0:
156,12,27141,5,2,1:2:0:0:
313,53,27309,1,4,0:3:0:0:
121,124,27478,1,0,1:0:0:0:
106,93,27562,1,0,1:0:0:0:
80,72,27646,1,0,1:0:0:0:
47,65,27730,1,0,1:0:0:0:
15,73,27815,1,10,0:0:0:0:
219,89,28152,6,0,L|231:250,1,161.999995056153,4|0,1:2|0:0,0:0:0:0:
246,267,28489,2,0,P|302:235|352:255,1,90,8|8,0:0|0:0,0:0:0:0:
482,291,28826,1,2,1:2:0:0:
314,328,28995,1,0,0:0:0:0:
439,368,29163,5,10,0:0:0:0:
439,368,29332,1,8,0:0:0:0:
325,238,29500,2,0,P|281:239|246:267,1,90,2|0,1:2|0:0,0:0:0:0:
111,364,29837,6,0,L|200:348,1,90,10|8,0:0|0:0,0:0:0:0:
93,240,30174,2,0,L|4:223,1,90,2|0,1:2|0:0,0:0:0:0:
67,56,30511,6,0,P|78:120|139:140,1,135,10|0,0:0|0:0,0:0:0:0:
159,129,30848,1,0,1:0:0:0:
355,243,31017,6,0,L|221:220,1,135,10|0,0:0|0:0,0:0:0:0:
199,216,31354,1,8,0:0:0:0:
288,33,31523,5,0,1:0:0:0:
441,174,31691,2,0,P|494:118|396:107,1,215.999993408203,10|10,0:0|0:0,0:0:0:0:
199,215,32197,2,0,P|234:189|305:192,1,107.999996704102,0|10,1:0|0:0,0:0:0:0:
392,369,32534,6,0,L|404:261,1,107.999996704102,0|8,1:0|0:0,0:0:0:0:
419,244,32787,1,0,1:0:0:0:
435,228,32871,2,0,L|441:174,1,53.9999983520508,0|8,1:0|0:0,0:0:0:0:
399,101,33040,5,8,0:3:0:0:
267,241,33208,6,0,P|238:214|199:215,1,80.9999975280763,12|0,0:0|0:0,0:0:0:0:
151,279,33545,6,0,L|171:118,1,161.999995056153,2|0,1:2|0:0,0:0:0:0:
162,98,33882,1,10,0:0:0:0:
34,164,34051,1,8,0:0:0:0:
8,21,34219,1,0,1:0:0:0:
162,98,34388,6,0,B|250:73|254:167|322:158,1,180,10|8,0:0|0:0,0:0:0:0:
483,126,34893,1,0,1:0:0:0:
332,70,35062,1,2,0:0:0:0:
393,221,35231,1,8,0:0:0:0:
393,221,35399,1,8,0:0:0:0:
483,125,35568,2,0,P|485:81|446:49,1,90,2|0,1:2|0:0,0:0:0:0:
198,86,35905,6,0,L|332:70,1,135,10|0,0:0|0:0,0:0:0:0:
348,85,36242,1,0,1:0:0:0:
253,228,36410,2,0,P|202:197|149:199,1,90,2|8,0:0|0:0,0:0:0:0:
9,254,36747,1,8,0:0:0:0:
59,107,36916,1,2,1:2:0:0:
131,295,37084,6,0,B|225:311|180:362|282:381,1,180,10|8,0:0|0:0,0:0:0:0:
399,331,37590,1,0,1:0:0:0:
399,331,37759,1,2,0:0:0:0:
284,278,37927,6,0,P|262:240|270:196,1,90,10|10,0:0|0:0,0:0:0:0:
393,75,38264,1,0,1:0:0:0:
356,224,38432,1,2,0:0:0:0:
504,182,38601,1,10,0:0:0:0:
504,182,38938,5,2,1:2:0:0:
504,182,39107,1,2,0:0:0:0:
464,16,39275,2,0,B|488:54|488:54|472:96,1,90,8|10,0:0|0:0,0:0:0:0:
387,65,39613,1,0,1:0:0:0:
308,144,39781,6,0,P|248:113|181:111,1,135,2|0,0:0|0:0,0:0:0:0:
160,119,40118,1,8,0:0:0:0:
19,74,40287,6,0,P|31:138|91:162,1,135,2|0,1:2|0:0,0:0:0:0:
160,119,40624,2,0,L|172:17,1,90,10|10,0:0|0:0,0:0:0:0:
19,74,40961,1,2,1:2:0:0:
82,243,41129,1,2,0:0:0:0:
236,191,41298,6,0,B|316:203|316:203|322:211|322:211|410:223,1,180,10|0,0:0|1:0,0:0:0:0:
501,183,41804,2,0,P|480:143|439:128,1,90,10|0,0:0|0:0,0:0:0:0:
331,171,42141,1,10,0:0:0:0:
361,25,42309,1,2,1:2:0:0:
236,191,42478,6,0,B|154:198|170:124|72:133,1,180,12|8,0:0|0:3,0:0:0:0:
72,132,42899,1,8,0:3:0:0:
72,132,42983,1,8,0:3:0:0:
123,21,43152,5,8,0:3:0:0:
127,25,43236,1,8,0:3:0:0:
131,29,43320,1,8,0:3:0:0:
227,91,43489,5,8,0:3:0:0:
231,95,43573,1,8,0:3:0:0:
235,99,43657,1,8,0:3:0:0:
165,265,43826,5,0,1:0:0:0:
331,171,43995,6,0,L|317:332,1,161.999995056153,12|0,0:0|0:0,0:0:0:0:
226,367,44669,1,2,0:0:0:0:
226,367,44837,1,0,0:0:0:0:
165,265,45006,6,0,L|108:271,1,53.9999983520508,2|0,0:0|0:0,0:0:0:0:
56,330,45343,2,0,L|11:334,1,45,2|0,0:0|0:0,0:0:0:0:
111,270,45680,2,0,L|114:234,1,36,2|0,0:0|0:0,0:0:0:0:
78,162,46017,5,2,0:0:0:0:
78,162,46186,1,2,0:0:0:0:
191,208,46354,1,10,0:0:0:0:
133,31,46523,1,0,1:0:0:0:
355,113,46691,6,0,P|288:142|262:74,1,161.999995056153,12|0,0:0|0:0,0:0:0:0:
342,24,47028,2,0,P|417:44|446:116,1,161.999995056153,2|0,1:2|0:0,0:0:0:0:
421,206,47365,2,0,P|349:187|355:113,1,161.999995056153,2|0,1:2|0:0,0:0:0:0:
355,112,47702,6,0,L|326:327,1,215.999993408203,12|0,0:0|1:0,0:0:0:0:
399,381,48208,1,0,3:0:0:0:
463,301,48377,2,0,L|511:292,2,36,8|8|8,0:0|0:0|0:0,0:0:0:0:
326,327,48714,6,0,P|306:298|272:287,1,72,2|8,0:0|0:0,0:0:0:0:
162,248,49051,2,0,L|152:173,1,72,2|0,1:2|0:0,0:0:0:0:
286,193,49388,6,0,L|303:59,1,135,12|0,0:0|0:0,0:0:0:0:
308,37,49725,1,0,1:0:0:0:
429,177,49893,1,8,0:0:0:0:
429,177,50062,2,0,P|472:172|501:139,1,90,2|0,0:0|0:0,0:0:0:0:
424,77,50399,1,0,1:0:0:0:
286,193,50568,5,0,0:0:0:0:
286,193,50736,2,0,L|170:181,1,90,10|0,0:0|0:0,0:0:0:0:
23,224,51073,1,0,1:0:0:0:
147,101,51242,1,8,0:0:0:0:
66,28,51410,6,0,P|42:65|40:109,1,90,2|8,0:0|0:0,0:0:0:0:
191,269,51747,1,0,1:2:0:0:
195,273,51832,1,0,1:0:0:0:
199,277,51916,2,0,L|192:321,1,45,2|0,1:2|1:0,0:0:0:0:
268,375,52084,6,0,P|313:339|415:338,1,161.999995056153,12|0,0:0|0:0,0:0:0:0:
437,352,52422,5,2,1:2:0:0:
484,201,52590,1,8,0:0:0:0:
330,307,52759,5,2,1:2:0:0:
283,156,52927,1,8,0:0:0:0:
431,67,53096,5,2,1:2:0:0:
384,218,53264,1,8,0:0:0:0:
207,106,53433,6,0,P|261:67|327:76,1,135.000005149842,2|8,1:2|0:0,0:0:0:0:
95,169,53770,6,0,L|79:34,1,135.000005149842,2|8,1:2|0:0,0:0:0:0:
283,156,54107,6,0,L|267:290,1,135.000005149842,2|0,1:2|0:0,0:0:0:0:
27,374,54444,1,8,1:0:0:0:
6,330,54528,1,0,1:0:0:0:
22,283,54612,1,0,1:0:0:0:
66,262,54696,1,0,1:0:0:0:
113,277,54781,6,0,P|203:321|301:307,1,202.500007724762,12|0,0:0|0:0,0:0:0:0:
361,255,55118,2,0,P|423:237|483:282,1,135.000005149842,0|0,1:0|3:0,0:0:0:0:
497,353,55371,1,0,3:0:0:0:
495,359,55455,1,8,0:0:0:0:
361,255,55624,2,0,L|349:126,1,107.999996704102,10|0,0:0|1:0,0:0:0:0:
486,51,55961,6,0,B|449:146|449:146|350:126,1,202.500007724762,10|0,0:0|0:0,0:0:0:0:
190,39,56298,6,0,B|127:42|104:100|104:100|133:59|180:60,1,202.500007724762,10|0,0:0|0:0,0:0:0:0:
283,23,56635,6,0,B|276:80|276:80|267:82|267:82|256:176,1,161.999995056153,10|0,0:0|3:0,0:0:0:0:
254,204,56972,1,8,0:0:0:0:
46,259,57141,5,2,1:2:0:0:
65,338,57253,5,2,0:0:0:0:
126,282,57365,5,2,0:0:0:0:
80,293,57478,6,0,P|130:356|205:354,1,161.999995056153,10|0,0:0|0:0,0:0:0:0:
266,304,57815,2,0,L|385:292,1,107.999996704102,0|0,1:0|3:0,0:0:0:0:
450,315,58068,1,0,3:0:0:0:
454,319,58152,1,8,0:0:0:0:
502,150,58320,2,0,P|476:209|431:212,1,107.999996704102,10|0,0:0|1:0,0:0:0:0:
315,91,58657,6,0,P|255:58|108:51,1,215.999993408203,12|8,0:0|0:0,0:0:0:0:
18,199,59163,1,2,1:2:0:0:
194,124,59332,1,10,0:0:0:0:
198,128,59416,1,2,0:0:0:0:
202,132,59500,5,2,0:0:0:0:
168,324,59669,1,8,0:0:0:0:
110,165,59837,5,2,1:2:0:0:
342,223,60006,1,2,0:0:0:0:
255,369,60174,6,0,P|268:317|248:268,1,107.999996704102,12|0,0:0|0:0,0:0:0:0:
168,324,60511,1,0,1:0:0:0:
342,223,60680,6,0,B|433:237|401:293|477:304,1,161.999995056153,10|0,0:0|0:0,0:0:0:0:
476,303,61017,2,0,B|487:202|487:202|492:195|492:195|503:89,1,215.999993408203,10|0,0:0|0:0,0:0:0:0:
293,122,61523,5,10,0:0:0:0:
417,22,61691,2,0,L|404:139,1,107.999996704102,8|0,0:0|1:0,0:0:0:0:
209,190,62028,2,0,P|182:143|189:91,1,107.999996704102,10|0,0:0|0:0,0:0:0:0:
306,31,62365,1,8,0:0:0:0:
491,120,62534,5,2,1:2:0:0:
490,161,62618,1,0,1:0:0:0:
469,195,62702,1,0,1:0:0:0:
434,215,62786,1,0,1:0:0:0:
394,215,62871,2,0,P|348:186|286:183,1,107.999996704102,12|0,0:0|0:0,0:0:0:0:
46,280,63208,5,0,1:0:0:0:
209,190,63377,1,10,0:0:0:0:
168,378,63545,5,0,1:0:0:0:
215,168,63714,1,10,0:0:0:0:
168,378,63882,1,0,1:0:0:0:
415,304,64051,6,0,P|350:351|270:352,1,161.999995056153,12|0,0:0|0:0,0:0:0:0:
204,308,64388,1,0,1:0:0:0:
151,108,64556,2,0,P|195:80|248:87,1,107.999996704102,2|0,1:2|1:0,0:0:0:0:
464,197,64893,6,0,P|404:197|373:130,1,135.000005149842,12|0,0:3|1:0,0:0:0:0:
389,53,65146,1,0,1:0:0:0:
422,57,65230,1,0,1:0:0:0:
446,79,65314,1,0,1:0:0:0:
452,112,65398,1,0,1:0:0:0:
321,249,65568,6,0,B|239:239|239:239|214:213|214:213|130:203,1,202.500007724762,12|0,0:0|0:0,0:0:0:0:
54,224,65905,2,0,L|41:89,1,135.000005149842,0|0,1:0|3:0,0:0:0:0:
101,36,66157,1,0,3:0:0:0:
103,29,66242,1,8,0:0:0:0:
285,149,66410,2,0,P|314:105|311:52,1,107.999996704102,10|0,0:0|1:0,0:0:0:0:
143,103,66747,6,0,P|234:127|239:221,1,202.500007724762,10|0,0:0|0:0,0:0:0:0:
341,314,67084,6,0,B|316:318|297:305|297:305|323:209|405:214,1,202.500007724762,10|0,0:0|0:0,0:0:0:0:
489,263,67422,6,0,B|498:188|498:188|493:181|493:181|501:103,1,161.999995056153,10|0,0:0|3:0,0:0:0:0:
505,77,67759,1,8,0:0:0:0:
243,28,67927,5,2,1:2:0:0:
303,81,68039,5,2,0:0:0:0:
321,0,68151,5,2,0:0:0:0:
290,36,68264,6,0,L|270:196,1,161.999995056153,12|0,0:0|0:0,0:0:0:0:
268,224,68601,1,0,1:0:0:0:
93,171,68770,6,0,P|135:139|187:142,1,107.999996704102,0|8,3:0|0:0,0:0:0:0:
396,275,69107,2,0,P|345:216|268:223,1,161.999995056153,10|0,0:0|0:0,0:0:0:0:
212,305,69444,6,0,B|133:312|133:312|104:333|104:333|3:341,1,215.999993408203,12|8,0:0|0:0,0:0:0:0:
93,171,69950,1,0,1:0:0:0:
290,364,70118,2,0,P|312:288|268:223,1,161.999995056153,12|0,0:0|0:0,0:0:0:0:
243,213,70455,1,8,0:0:0:0:
413,299,70624,5,0,1:0:0:0:
428,250,70708,1,8,0:3:0:0:
478,236,70792,1,4,0:3:0:0:
476,53,70961,6,0,B|454:111|454:111|301:130,1,215.999993408203,12|0,0:0|1:0,0:0:0:0:
95,10,71466,2,0,P|172:3|222:63,1,161.999995056153,10|0,0:0|0:0,0:0:0:0:
226,90,71804,1,8,0:0:0:0:
36,186,71972,1,0,1:0:0:0:
138,87,72141,6,0,L|146:214,1,107.999996704102,2|8,0:0|0:0,0:0:0:0:
259,299,72478,1,8,0:0:0:0:
301,130,72646,1,0,1:0:0:0:
459,243,72815,6,0,B|355:227|371:317|259:299,1,215.999993408203,10|8,0:0|0:0,0:0:0:0:
144,194,73320,2,0,P|179:174|211:178,1,53.9999983520508,2|0,1:2|1:0,0:0:0:0:
297,193,73489,1,0,1:0:0:0:
297,193,73573,1,0,1:0:0:0:
297,193,73657,6,0,L|310:85,1,107.999996704102,12|0,0:0|0:0,0:0:0:0:
386,24,73995,1,0,1:0:0:0:
191,173,74163,5,10,0:0:0:0:
43,85,74332,2,0,P|93:68|143:88,1,107.999996704102,0|0,1:0|0:0,0:0:0:0:
297,193,74669,6,0,L|457:174,1,161.999995056153,10|0,0:0|0:0,0:0:0:0:
477,155,75006,1,0,1:0:0:0:
306,86,75174,5,8,0:0:0:0:
477,155,75343,1,0,1:0:0:0:
408,326,75511,5,2,0:0:0:0:
412,330,75596,1,2,0:0:0:0:
416,334,75680,2,0,P|451:331|493:366,1,90,2|0,1:2|0:0,0:0:0:0:
326,286,75848,1,2,1:2:0:0:
174,189,76523,6,0,L|140:194,1,33.7500012874604,8|8,0:0|0:0,0:0:0:0:
46,226,76691,6,0,B|55:150|55:150|64:146|64:146|71:71,1,161.999995056153,4|0,1:2|0:0,0:0:0:0:
74,44,77028,1,10,0:0:0:0:
174,189,77197,1,8,0:0:0:0:
239,8,77365,2,0,P|274:62|376:75,1,161.999995056153,2|0,1:2|0:0,0:0:0:0:
387,63,77702,6,0,L|373:170,1,107.999996704102,10|8,0:0|0:0,0:0:0:0:
278,234,78040,1,0,1:0:0:0:
477,114,78208,2,0,L|449:328,1,215.999993408203,10|8,0:0|0:0,0:0:0:0:
143,303,78714,1,0,1:0:0:0:
138,291,78799,1,0,0:0:0:0:
132,279,78883,1,0,3:0:0:0:
126,267,78967,1,0,3:0:0:0:
120,255,79051,6,0,L|193:245,1,67.5000025749208,10|0,0:0|0:0,0:0:0:0:
278,234,79219,1,8,0:0:0:0:
136,165,79388,2,0,L|296:143,1,161.999995056153,2|0,1:2|0:0,0:0:0:0:
473,31,79725,6,0,L|400:41,1,67.5000025749208,10|0,0:0|0:0,0:0:0:0:
315,52,79893,1,8,0:0:0:0:
457,121,80062,2,0,L|296:142,1,161.999995056153,2|0,1:2|0:0,0:0:0:0:
70,36,80399,6,0,L|143:26,1,67.5000025749208,10|0,0:0|0:0,0:0:0:0:
228,15,80567,1,8,0:0:0:0:
136,165,80736,1,0,1:0:0:0:
315,52,80905,6,0,B|281:142|380:153|389:245|354:303,1,270.000010299683,10|8,0:0|0:0,0:0:0:0:
119,381,81410,2,0,P|138:298|223:299,1,182.250000695229,2|0,1:2|0:0,0:0:0:0:
246,314,81747,6,0,L|353:303,1,107.999996704102,10|0,0:0|0:0,0:0:0:0:
477,171,82084,6,0,L|315:187,1,161.999995056153,2|0,1:2|0:0,0:0:0:0:
288,190,82422,1,10,0:0:0:0:
348,15,82590,1,8,0:0:0:0:
209,127,82759,2,0,P|155:69|76:68,1,161.999995056153,2|0,1:2|0:0,0:0:0:0:
53,83,83096,6,0,L|39:205,1,107.999996704102,10|8,0:0|0:0,0:0:0:0:
209,127,83433,1,0,1:0:0:0:
49,278,83601,2,0,B|124:224|179:306|194:328|245:314,1,215.999993408203,10|8,0:0|0:0,0:0:0:0:
407,208,84107,1,0,1:0:0:0:
420,211,84191,1,0,3:0:0:0:
433,214,84275,1,0,3:0:0:0:
446,217,84359,1,0,3:0:0:0:
459,220,84444,6,0,L|469:293,1,67.5000025749208,10|0,0:0|0:0,0:0:0:0:
484,374,84613,1,10,0:0:0:0:
246,313,84781,2,0,P|294:360|362:345,1,135.000005149842,2|2,1:2|0:0,0:0:0:0:
459,220,85118,1,10,0:0:0:0:
312,145,85287,5,0,1:0:0:0:
274,160,85371,1,0,1:0:0:0:
270,201,85455,1,2,1:2:0:0:
158,358,85624,6,0,B|150:294|150:294|158:284|158:284|137:91,1,270,10|0,0:0|0:0,0:0:0:0:
126,2,85961,5,2,1:2:0:0:
126,2,86129,1,2,1:2:0:0:
126,2,86298,1,2,1:2:0:0:
13,166,86635,5,8,0:0:0:0:
95,204,86804,2,0,P|131:178|176:175,1,90,0|0,1:0|0:0,0:0:0:0:
298,231,87141,5,12,0:0:0:0:
298,231,87478,2,0,L|315:49,1,180,2|8,1:2|0:0,0:0:0:0:
409,95,87983,2,0,L|502:84,1,90,10|0,0:0|1:0,0:0:0:0:
314,51,88320,6,0,L|180:67,1,135,10|0,0:0|0:0,0:0:0:0:
164,83,88657,1,8,0:0:0:0:
61,49,88826,2,0,P|26:77|17:120,1,90,0|2,1:0|0:0,0:0:0:0:
40,249,89163,1,8,0:0:0:0:
40,249,89332,1,8,0:0:0:0:
141,272,89500,2,0,L|132:177,1,90,0|0,1:0|0:0,0:0:0:0:
259,115,89837,6,0,L|241:294,1,180,10|0,0:0|1:0,0:0:0:0:
322,365,90343,2,0,P|354:335|398:329,1,90,2|8,0:0|0:0,0:0:0:0:
501,294,90680,1,8,0:0:0:0:
360,218,90848,1,0,1:0:0:0:
501,294,91017,2,0,B|516:219|455:217|473:121,1,180,10|8,0:0|0:0,0:0:0:0:
380,64,91523,2,0,P|403:27|446:16,1,90,0|0,1:0|0:0,0:0:0:0:
379,172,91860,6,0,B|289:174|298:92|222:99,2,180,10|2|10,0:0|1:2|0:0,0:0:0:0:
180,302,92871,2,0,P|229:259|221:195,1,135,0|0,1:0|0:0,0:0:0:0:
206,178,93208,1,10,0:0:0:0:
206,178,93377,1,8,0:0:0:0:
69,222,93545,1,2,1:2:0:0:
2,136,93714,1,0,0:0:0:0:
94,26,93882,6,0,P|124:75|115:122,1,90,10|8,0:0|0:0,0:0:0:0:
206,178,94219,2,0,L|310:166,1,90,0|0,1:0|0:0,0:0:0:0:
390,115,94556,1,10,0:0:0:0:
390,115,94725,1,8,0:0:0:0:
457,257,94893,6,0,P|499:207|492:141,1,135,2|0,1:2|0:0,0:0:0:0:
480,123,95231,2,0,L|390:114,1,90,10|0,0:0|0:0,0:0:0:0:
296,168,95568,1,0,1:0:0:0:
196,48,95736,2,0,P|275:83|296:168,1,180,10|8,0:0|0:0,0:0:0:0:
253,267,96242,1,0,1:0:0:0:
84,219,96410,6,0,B|50:200|50:200|189:180,1,180,10|10,0:0|0:0,0:0:0:0:
359,254,96916,5,0,1:0:0:0:
189,180,97084,1,10,0:0:0:0:
255,371,97253,1,0,1:0:0:0:
359,254,97422,1,8,0:0:0:0:
381,256,97507,1,0,1:0:0:0:
404,259,97591,1,0,1:0:0:0:
426,261,97675,1,8,0:0:0:0:
449,264,97759,1,8,0:3:0:0:
360,152,97927,6,0,P|320:151|287:173,1,80.9999975280763,12|0,0:0|0:0,0:0:0:0:
278,191,98264,6,0,L|188:179,1,90,2|0,1:2|0:0,0:0:0:0:
33,79,98601,1,10,0:0:0:0:
100,167,98770,1,8,0:0:0:0:
138,18,98938,1,0,1:0:0:0:
189,178,99107,6,0,P|271:142|360:151,1,180,10|8,0:0|0:0,0:0:0:0:
450,211,99613,1,0,1:0:0:0:
488,62,99781,1,2,0:0:0:0:
360,151,99949,1,8,0:0:0:0:
360,151,100118,1,8,0:0:0:0:
397,285,100287,2,0,P|439:302|482:294,1,90,2|0,1:2|0:0,0:0:0:0:
273,355,100624,6,0,L|258:220,1,135,10|0,0:0|0:0,0:0:0:0:
267,199,100961,1,0,1:0:0:0:
360,151,101129,2,0,P|378:111|374:67,1,90,2|8,0:0|0:0,0:0:0:0:
267,199,101466,1,8,0:0:0:0:
249,39,101635,1,2,1:2:0:0:
163,217,101804,6,0,B|72:230|67:148|0:162,1,180,10|8,0:0|0:0,0:0:0:0:
109,38,102309,2,0,P|142:67|148:110,1,90,0|2,1:0|0:0,0:0:0:0:
70,231,102646,5,10,0:0:0:0:
163,217,102815,1,10,0:0:0:0:
256,339,102983,5,0,1:0:0:0:
128,319,103152,1,2,0:0:0:0:
290,237,103320,6,0,P|357:241|410:281,1,135,10|0,0:0|0:0,0:0:0:0:
422,301,103657,1,2,1:2:0:0:
422,301,103826,1,2,0:0:0:0:
504,239,103995,2,0,P|495:186|460:160,2,90,8|10|0,0:0|0:0|1:0,0:0:0:0:
410,281,104500,6,0,P|357:241|290:237,1,135,2|0,0:0|0:0,0:0:0:0:
270,246,104837,1,8,0:0:0:0:
174,333,105006,2,0,P|122:367|49:328,1,135,2|0,1:2|0:0,0:0:0:0:
44,325,105343,2,0,L|32:235,1,90,8|8,0:0|0:0,0:0:0:0:
161,148,105680,1,2,1:2:0:0:
18,110,105848,1,0,0:0:0:0:
126,231,106017,6,0,P|192:233|241:189,1,135,10|0,0:0|0:0,0:0:0:0:
250,168,106354,1,0,1:0:0:0:
340,82,106523,2,0,L|474:96,1,135,10|0,0:0|0:0,0:0:0:0:
497,99,106860,1,10,0:0:0:0:
401,2,107028,1,0,1:0:0:0:
278,161,107197,6,0,P|221:95|134:89,1,180,12|8,0:0|0:3,0:0:0:0:
130,93,107618,1,8,0:3:0:0:
126,97,107702,1,8,0:3:0:0:
159,209,107871,5,8,0:3:0:0:
163,213,107955,1,8,0:3:0:0:
167,217,108040,1,8,0:3:0:0:
51,181,108208,5,8,0:3:0:0:
47,185,108292,1,8,0:3:0:0:
43,189,108377,1,8,0:3:0:0:
99,367,108545,5,0,1:0:0:0:
265,305,108714,6,0,L|439:326,1,161.999995056153,12|0,0:0|0:0,0:0:0:0:
495,255,109388,1,2,0:0:0:0:
495,255,109556,1,0,0:0:0:0:
424,172,109725,6,0,P|405:191|379:199,1,53.9999983520508,2|0,0:0|0:0,0:0:0:0:
447,83,110062,2,0,P|472:92|491:110,1,53.9999983520508,2|0,0:0|0:0,0:0:0:0:
361,194,110399,2,0,P|346:185|334:172,1,36,2|0,0:0|0:0,0:0:0:0:
306,29,110736,5,2,0:0:0:0:
306,29,110905,1,2,0:0:0:0:
247,131,111073,1,10,0:0:0:0:
397,100,111242,1,0,1:0:0:0:
214,39,111410,6,0,B|150:52|150:52|135:74|135:74|66:89,1,161.999995056153,12|0,0:0|0:0,0:0:0:0:
6,164,111747,2,0,B|54:187|54:187|71:294,1,161.999995056153,2|0,1:2|0:0,0:0:0:0:
134,375,112084,2,0,B|182:352|182:352|199:244,1,161.999995056153,2|0,1:2|0:0,0:0:0:0:
198,244,112422,6,0,L|414:224,1,215.999993408203,12|0,0:0|1:0,0:0:0:0:
498,288,112927,1,0,3:0:0:0:
404,332,113096,2,0,L|399:384,2,36,8|8|8,0:0|0:0|0:0,0:0:0:0:
414,224,113433,6,0,L|343:230,1,72,2|8,0:0|0:0,0:0:0:0:
245,171,113770,2,0,L|251:100,1,72,2|0,1:2|0:0,0:0:0:0:
378,17,114107,6,0,P|432:56|447:121,1,135,12|0,0:0|0:0,0:0:0:0:
445,144,114444,1,0,1:0:0:0:
342,230,114613,1,8,0:0:0:0:
342,230,114781,2,0,P|309:201|265:198,1,90,2|0,0:0|0:0,0:0:0:0:
178,262,115118,1,0,1:0:0:0:
36,117,115287,5,0,0:0:0:0:
36,117,115455,2,0,L|140:128,1,90,10|0,0:0|0:0,0:0:0:0:
212,62,115792,1,0,1:0:0:0:
265,198,115961,1,8,0:0:0:0:
352,134,116129,6,0,P|376:171|372:215,1,90,2|8,0:0|0:0,0:0:0:0:
179,306,116466,1,0,1:2:0:0:
183,302,116551,1,0,1:0:0:0:
187,298,116635,2,0,L|231:305,1,45,2|0,1:2|1:0,0:0:0:0:
308,366,116804,6,0,B|411:353|380:303|451:295,1,161.999995056153,12|0,0:0|0:0,0:0:0:0:
472,281,117141,6,0,L|485:210,2,71.9999978027344,0|8|8,1:0|0:0|0:0,0:0:0:0:
389,236,117478,6,0,L|402:165,2,71.9999978027344,0|8|8,1:0|0:0|0:0,0:0:0:0:
306,191,117815,6,0,L|319:120,2,71.9999978027344,0|8|8,1:0|0:0|0:0,0:0:0:0:
222,257,118152,6,0,P|187:262|156:245,1,71.9999978027344,0|4,1:0|0:3,0:0:0:0:
172,158,118377,5,4,0:3:0:0:
172,158,118489,2,0,P|143:137|133:103,1,71.9999978027344,0|8,1:0|3:0,0:0:0:0:
184,20,118714,5,8,0:3:0:0:
184,20,118826,2,0,L|99:8,2,71.9999978027344,4|4|4,1:2|0:3|0:3,0:0:0:0:
262,101,119163,6,0,B|351:91|351:91|367:77|367:77|463:67,1,202.500007724762,8|0,1:0|0:0,0:0:0:0:
481,42,119500,6,0,L|456:243,1,202.500007724762,12|0,0:0|0:0,0:0:0:0:
397,294,119837,2,0,P|331:302|281:260,1,135.000005149842,0|0,1:0|3:0,0:0:0:0:
296,182,120090,1,0,3:0:0:0:
299,177,120174,1,8,0:0:0:0:
192,308,120343,2,0,L|83:296,1,107.999996704102,10|0,0:0|1:0,0:0:0:0:
15,38,120680,6,0,P|108:32|133:122,1,202.500007724762,10|0,0:0|0:0,0:0:0:0:
12,224,121017,6,0,B|-5:193|-5:193|42:109|133:122,1,202.500007724762,10|0,0:0|0:0,0:0:0:0:
221,184,121354,6,0,B|286:192|286:192|312:219|312:219|371:225,1,161.999995056153,10|0,0:0|3:0,0:0:0:0:
399,228,121691,1,8,0:0:0:0:
483,44,121860,5,2,1:2:0:0:
394,55,121972,5,2,0:0:0:0:
305,66,122084,5,2,0:0:0:0:
275,34,122197,6,0,P|347:59|355:135,1,161.999995056153,10|0,0:0|0:0,0:0:0:0:
303,197,122534,2,0,L|188:182,1,107.999996704102,0|0,1:0|3:0,0:0:0:0:
132,135,122787,1,0,3:0:0:0:
130,130,122871,1,8,0:0:0:0:
8,286,123040,2,0,P|45:248|98:246,1,107.999996704102,10|0,0:0|1:0,0:0:0:0:
238,382,123377,6,0,B|246:327|246:327|265:313|265:313|285:178,1,215.999993408203,12|8,0:0|0:0,0:0:0:0:
241,55,123882,1,2,1:2:0:0:
484,120,124051,1,10,0:0:0:0:
484,120,124135,1,2,0:0:0:0:
484,120,124219,5,2,0:0:0:0:
285,177,124388,1,8,0:0:0:0:
410,48,124556,5,2,1:2:0:0:
359,249,124725,1,2,0:0:0:0:
158,155,124893,6,0,P|116:121|55:126,1,107.999996704102,12|0,0:0|0:0,0:0:0:0:
9,203,125231,1,0,1:0:0:0:
212,77,125399,6,0,L|192:237,1,161.999995056153,10|0,0:0|0:0,0:0:0:0:
192,237,125736,2,0,B|252:221|304:248|308:325|399:299,1,215.999993408203,10|0,0:0|0:0,0:0:0:0:
505,192,126242,5,10,0:0:0:0:
355,113,126410,2,0,P|346:165|372:212,1,107.999996704102,10|0,0:0|1:0,0:0:0:0:
494,22,126747,2,0,P|456:116|355:113,1,215.999993408203,10|8,0:0|0:0,0:0:0:0:
63,37,127253,5,2,1:2:0:0:
71,76,127337,1,0,1:0:0:0:
99,104,127421,1,0,1:0:0:0:
138,112,127505,1,0,1:0:0:0:
174,95,127590,2,0,P|220:67|274:68,1,107.999996704102,12|0,0:0|0:0,0:0:0:0:
431,204,127927,5,0,1:0:0:0:
249,174,128096,1,10,0:0:0:0:
173,374,128264,5,0,1:0:0:0:
356,355,128433,1,10,0:0:0:0:
340,189,128601,1,0,1:0:0:0:
465,290,128770,6,0,L|482:128,1,161.999995056153,12|0,0:0|0:0,0:0:0:0:
490,49,129107,1,0,1:0:0:0:
340,189,129275,2,0,P|306:146|244:137,1,107.999996704102,2|0,1:2|1:0,0:0:0:0:
36,152,129613,6,0,L|170:141,1,135.000005149842,12|0,0:3|1:0,0:0:0:0:
256,134,129865,1,0,1:0:0:0:
260,101,129949,1,0,1:0:0:0:
264,67,130033,1,0,1:0:0:0:
268,34,130117,1,0,1:0:0:0:
482,128,130287,6,0,L|460:329,1,202.500007724762,12|0,0:0|0:0,0:0:0:0:
388,363,130624,2,0,P|346:312|278:306,1,135.000005149842,0|0,1:0|3:0,0:0:0:0:
216,355,130877,1,0,3:0:0:0:
212,359,130961,1,8,0:0:0:0:
98,228,131129,2,0,P|44:230|2:266,1,107.999996704102,10|0,0:0|1:0,0:0:0:0:
161,137,131466,6,0,P|204:205|350:197,1,202.500007724762,10|0,0:0|0:0,0:0:0:0:
455,91,131804,6,0,P|481:174|393:177,1,202.500007724762,10|0,0:0|0:0,0:0:0:0:
313,108,132141,6,0,P|233:102|161:137,1,161.999995056153,10|0,0:0|3:0,0:0:0:0:
147,154,132478,1,8,0:0:0:0:
29,354,132646,5,2,1:2:0:0:
118,343,132758,5,2,0:0:0:0:
207,332,132870,5,2,0:0:0:0:
237,364,132983,6,0,L|255:200,1,161.999995056153,12|0,0:0|0:0,0:0:0:0:
258,176,133320,1,0,1:0:0:0:
400,234,133489,6,0,P|374:292|309:290,1,107.999996704102,0|8,3:0|0:0,0:0:0:0:
97,194,133826,2,0,L|258:176,1,161.999995056153,10|0,0:0|0:0,0:0:0:0:
330,92,134163,6,0,B|289:62|289:62|118:81,1,215.999993408203,12|8,0:0|0:0,0:0:0:0:
258,176,134669,1,0,1:0:0:0:
408,31,134837,2,0,P|428:107|385:173,1,161.999995056153,12|0,0:0|0:0,0:0:0:0:
362,187,135174,1,8,0:0:0:0:
194,263,135343,5,0,1:0:0:0:
155,227,135427,1,8,0:3:0:0:
103,233,135511,1,4,0:3:0:0:
18,344,135680,6,0,P|88:266|193:263,1,215.999993408203,12|0,0:0|1:0,0:0:0:0:
345,375,136186,2,0,L|359:213,1,161.999995056153,10|0,0:0|0:0,0:0:0:0:
362,187,136523,5,8,0:0:0:0:
194,263,136691,1,0,1:0:0:0:
115,107,136860,2,0,P|68:83|15:90,1,107.999996704102,2|8,0:0|0:0,0:0:0:0:
229,115,137197,5,8,0:0:0:0:
49,193,137365,1,0,1:0:0:0:
179,31,137534,2,0,P|267:90|373:90,1,215.999993408203,8|8,0:0|0:0,0:0:0:0:
502,17,138040,6,0,L|494:70,1,53.9999983520508,2|0,1:2|1:0,0:0:0:0:
483,173,138208,1,0,1:0:0:0:
483,173,138292,1,0,1:0:0:0:
483,173,138377,6,0,L|360:185,1,107.999996704102,12|0,0:0|0:0,0:0:0:0:
246,197,138714,1,0,1:0:0:0:
23,134,138882,5,10,0:0:0:0:
205,13,139051,2,0,L|194:120,1,107.999996704102,0|0,1:0|0:0,0:0:0:0:
10,273,139388,6,0,P|88:281|147:229,1,161.999995056153,10|0,0:0|0:0,0:0:0:0:
153,202,139725,1,0,1:0:0:0:
366,170,139893,5,8,0:0:0:0:
153,202,140062,1,0,1:0:0:0:
288,370,140231,5,2,3:2:0:0:
288,370,140315,1,2,3:2:0:0:
288,369,140399,2,0,P|315:335|359:331,1,90,2|0,1:2|0:0,0:0:0:0:
482,321,140568,1,2,1:2:0:0:
365,169,140905,6,2,P|467:141|417:235,1,270,12|0,0:0|1:0,0:0:0:0:
334,247,141663,1,0,1:0:0:0:
319,239,141747,6,0,L|274:245,2,45.0000017166138,0|8|8,1:0|0:0|0:0,0:0:0:0:
416,235,142084,6,0,L|460:228,2,45.0000017166138,0|8|4,1:0|0:3|0:3,0:0:0:0:
256,158,142422,6,0,P|189:212|202:297,1,180,12|0,0:0|1:0,0:0:0:0:
202,297,142927,1,0,3:0:0:0:
281,370,143096,1,10,0:0:0:0:
281,369,143264,2,0,P|314:340|358:336,1,90,10|0,0:0|1:0,0:0:0:0:
202,297,143601,6,0,L|218:117,1,180,10|8,0:0|0:0,0:0:0:0:
163,24,144107,1,0,1:0:0:0:
355,71,144275,6,0,P|301:137|218:117,1,180,10|8,0:0|0:0,0:0:0:0:
163,24,144781,2,0,L|55:37,1,90,0|0,1:0|0:0,0:0:0:0:
57,50,145034,1,0,3:0:0:0:
41,66,145118,5,10,0:0:0:0:
65,171,145287,1,0,0:0:0:0:
218,118,145455,5,0,1:0:0:0:
241,222,145624,1,0,3:0:0:0:
394,169,145792,5,10,0:0:0:0:
370,64,145961,2,0,P|413:58|452:80,1,90,8|0,0:0|1:0,0:0:0:0:
508,244,146298,6,0,P|423:247|394:169,1,180,12|10,0:0|0:0,0:0:0:0:
452,80,146804,1,0,1:0:0:0:
508,245,146972,6,0,P|423:211|345:244,1,180,10|8,0:0|0:0,0:0:0:0:
287,333,147478,1,0,1:0:0:0:
153,274,147646,5,0,3:0:0:0:
153,274,147731,1,0,3:0:0:0:
153,274,147815,2,0,L|171:132,1,107.999996704102,12|0,0:0|3:0,0:0:0:0:
80,174,148068,5,0,3:0:0:0:
80,174,148152,2,0,L|98:32,1,107.999996704102,2|0,1:2|0:0,0:0:0:0:
30,7,148405,5,0,3:0:0:0:
30,7,148489,1,10,0:0:0:0:
188,83,148657,5,8,0:0:0:0:
188,83,148742,1,8,0:0:0:0:
187,83,148826,2,0,P|234:71|290:95,1,90,0|2,1:0|0:0,0:0:0:0:
362,139,149079,1,0,0:0:0:0:
378,160,149163,6,0,P|398:83|455:27,2,161.999995056153,10|2|8,0:0|0:0|0:0,0:0:0:0:
511,277,149837,6,0,P|490:259|464:254,1,53.9999983520508,10|0,0:0|0:0,0:0:0:0:
311,296,150006,1,10,0:0:0:0:
451,339,150174,2,0,P|412:373|359:372,1,107.999996704102,0|2,1:2|0:0,0:0:0:0:
233,245,150511,5,10,0:0:0:0:
58,276,150680,1,0,0:0:0:0:
228,339,150847,5,2,1:2:0:0:
101,360,151017,1,10,0:0:0:0:
58,276,151186,5,10,0:0:0:0:
233,245,151354,1,8,0:0:0:0:
15,192,151523,5,0,1:0:0:0:
238,151,151691,6,0,P|178:70|55:90,1,202.500007724762,12|0,0:0|0:0,0:0:0:0:
15,192,152028,5,0,1:0:0:0:
8,158,152112,1,0,1:0:0:0:
2,125,152197,1,2,1:2:0:0:
83,71,152365,1,8,0:3:0:0:
238,151,152534,5,10,0:0:0:0:
158,206,152702,1,8,0:0:0:0:
229,55,152871,6,0,B|311:45|311:45|318:96,1,135.000005149842,2|0,1:2|0:0,0:0:0:0:
412,22,153208,6,0,B|400:137|400:137|376:164|376:164|369:228,1,215.999993408203,12|2,0:0|1:2,0:0:0:0:
487,359,153714,1,10,0:0:0:0:
487,359,153798,1,8,0:0:0:0:
487,359,153882,2,0,L|499:251,1,107.999996704102,10|10,0:0|0:0,0:0:0:0:
311,308,154219,1,0,1:0:0:0:
499,251,154388,1,10,0:0:0:0:
356,117,154556,6,0,P|319:155|267:163,1,107.999996704102,10|8,0:0|0:0,0:0:0:0:
192,134,154809,1,2,0:0:0:0:
192,134,154893,2,0,L|183:15,1,107.999996704102,0|10,1:0|0:0,0:0:0:0:
23,102,155231,1,0,0:0:0:0:
183,26,155399,5,10,0:0:0:0:
165,151,155568,1,0,1:0:0:0:
146,275,155736,1,10,0:0:0:0:
13,356,155905,5,10,0:0:0:0:
13,356,155989,1,2,0:0:0:0:
13,355,156073,2,0,P|34:329|67:327,1,67.5000025749208,2|2,0:0|0:0,0:0:0:0:
255,325,156242,5,0,1:0:0:0:
255,326,156326,2,0,P|233:351|200:353,1,67.5000025749208,2|2,3:2|0:2,0:0:0:0:
146,275,156495,1,2,3:2:0:0:
165,248,156579,5,10,0:0:0:0:
131,244,156663,1,10,0:0:0:0:
97,240,156747,1,10,0:0:0:0:
64,237,156831,1,10,0:0:0:0:
30,233,156916,2,0,L|13:153,1,67.5000025749208,2|0,1:2|0:0,0:0:0:0:
88,66,157084,6,0,B|199:78|199:78|222:110|222:110|340:121,1,270.000010299683,12|8,0:0|0:0,0:0:0:0:
253,204,157590,1,0,1:0:0:0:
330,33,157759,1,10,0:0:0:0:
330,33,157843,1,2,0:0:0:0:
329,33,157927,2,0,P|394:46|429:101,1,135.000005149842,2|8,0:0|0:0,0:0:0:0:
253,204,158264,1,2,1:2:0:0:
429,101,158433,1,8,0:0:0:0:
495,294,158601,6,0,B|517:244|488:178|418:186|429:101,1,215.999993408203,12|0,0:0|1:0,0:0:0:0:
312,305,159107,1,0,3:0:0:0:
312,305,159191,1,0,3:0:0:0:
312,305,159275,2,0,P|354:272|407:267,1,107.999996704102,10|10,0:0|0:0,0:0:0:0:
253,204,159613,1,0,1:0:0:0:
209,361,159781,6,0,P|141:288|29:309,1,215.999993408203,10|8,0:0|0:0,0:0:0:0:
34,304,160287,1,0,1:0:0:0:
155,197,160455,2,0,L|172:35,1,161.999995056153,10|0,0:0|0:0,0:0:0:0:
176,9,160792,1,10,0:0:0:0:
22,169,160961,2,0,L|5:62,1,107.999996704102,2|0,1:2|0:0,0:0:0:0:
155,197,161298,5,10,0:0:0:0:
176,9,161466,1,2,0:0:0:0:
283,166,161635,1,2,1:2:0:0:
452,62,161804,5,0,3:0:0:0:
452,62,161888,1,0,3:0:0:0:
452,62,161972,2,0,P|412:113|350:107,1,107.999996704102,10|10,0:0|0:0,0:0:0:0:
176,9,162309,1,0,1:0:0:0:
282,165,162478,2,0,P|219:117|139:112,1,161.999995056153,12|0,0:0|0:0,0:0:0:0:
75,161,162815,5,0,1:0:0:0:
45,185,162899,1,0,1:0:0:0:
5,185,162983,1,0,1:0:0:0:
122,246,163152,1,12,0:3:0:0:
100,373,163320,5,12,0:3:0:0:
6,324,163489,1,8,0:3:0:0:
122,245,163657,6,0,P|165:251|197:282,1,90,4|0,0:3|1:0,0:0:0:0:
274,322,163995,6,0,L|332:313,7,53.9999983520508,12|0|8|2|8|0|10|0,0:0|0:0|0:0|0:0|0:0|0:0|0:0|0:0,0:0:0:0:
403,357,165343,2,0,L|461:348,1,53.9999983520508,8|0,0:0|0:0,0:0:0:0:
508,236,165680,6,0,L|512:219,1,18,10|0,0:0|0:0,0:0:0:0:
427,194,166017,2,0,L|431:177,1,18,10|0,0:0|0:0,0:0:0:0:
496,111,166354,5,10,0:0:0:0:
300,140,166523,1,0,1:0:0:0:
370,20,166691,6,0,L|364:73,7,53.9999983520508,12|0|8|2|8|0|10|0,0:0|0:0|0:0|0:0|0:0|0:0|0:0|0:0,0:0:0:0:
300,140,168040,5,10,0:0:0:0:
496,111,168208,1,0,1:0:0:0:
427,194,168377,1,10,0:0:0:0:
300,140,168545,5,8,0:3:0:0:
273,137,168629,1,8,0:3:0:0:
246,134,168713,1,8,0:3:0:0:
177,217,168882,1,8,0:3:0:0:
257,270,169051,2,0,L|262:323,1,53.9999983520508,4|4,0:3|0:3,0:0:0:0:
135,378,169388,6,0,P|117:357|92:346,7,53.9999983520508,12|0|8|2|8|2|8|2,0:0|0:0|0:0|0:0|0:0|0:0|0:0|0:0,0:0:0:0:
27,280,170736,2,0,P|45:259|70:248,6,53.9999983520508,8|0|10|0|10|0|10,0:0|0:0|0:0|0:0|0:0|0:0|0:0,0:0:0:0:
171,279,171916,5,0,1:0:0:0:
171,279,172000,1,0,1:0:0:0:
171,279,172084,2,0,L|179:217,5,53.9999983520508,10|0|8|0|8|2,0:0|0:0|0:0|0:0|0:0|0:0,0:0:0:0:
240,164,173096,5,8,0:0:0:0:
72,74,173264,1,8,0:3:0:0:
155,141,173433,5,10,0:0:0:0:
134,12,173601,1,8,0:3:0:0:
240,164,173770,5,10,0:0:0:0:
219,35,173938,1,0,1:0:0:0:
324,186,174107,6,0,L|332:225,2,35.9999989013672,8|4|4,0:3|0:3|0:3,0:0:0:0:
240,164,174444,6,0,L|346:178,1,108,10|0,0:0|0:0,0:0:0:0:
368,170,174781,6,0,P|403:142|447:142,1,90,4|0,3:1|0:0,0:0:0:0:
512,252,175118,2,0,P|477:280|433:280,1,90,8|2,0:0|0:0,0:0:0:0:
383,87,175455,2,0,P|424:103|446:141,1,90,8|0,0:0|0:0,0:0:0:0:
305,281,175792,5,10,0:0:0:0:
368,170,175961,1,0,1:0:0:0:
291,25,176129,2,0,L|303:115,1,90,8|0,0:0|0:0,0:0:0:0:
193,212,176466,6,0,P|160:184|115:186,1,90,10|0,0:0|0:0,0:0:0:0:
2,306,176804,1,10,0:0:0:0:
129,275,176973,1,8,0:3:0:0:
35,141,177141,1,10,0:0:0:0:
2,306,177309,1,0,1:0:0:0:
118,370,177478,6,0,B|212:375|192:295|275:300,1,180,10|10,0:0|0:0,0:0:0:0:
422,236,177983,2,0,P|439:316|362:345,1,180,0|0,1:0|0:0,0:0:0:0:
269,202,178489,1,10,0:0:0:0:
433,147,178657,6,0,P|475:158|502:193,1,90,4|8,1:2|0:0,0:0:0:0:
360,344,178995,2,0,P|438:316|422:236,1,180,2|8,1:2|3:2,0:0:0:0:
269,202,179500,1,10,0:0:0:0:
174,271,179669,5,0,1:0:0:0:
129,275,179753,1,0,1:0:0:0:
84,280,179837,1,0,1:0:0:0:
3,163,180006,5,0,1:0:0:0:
8,136,180090,1,0,1:0:0:0:
13,110,180174,2,0,B|91:93|97:167|186:148,1,180,12|0,0:0|1:0,0:0:0:0:
315,117,180680,5,10,0:0:0:0:
242,23,180848,2,0,P|198:20|164:47,1,90,2|8,0:0|0:0,0:0:0:0:
269,202,181186,1,0,1:0:0:0:
407,89,181354,1,2,0:0:0:0:
407,89,181523,6,0,L|507:108,1,90,10|8,0:0|0:0,0:0:0:0:
370,286,181860,1,0,1:0:0:0:
315,117,182028,1,10,0:0:0:0:
197,250,182197,6,0,L|108:263,1,90,2|8,0:0|0:0,0:0:0:0:
22,143,182534,1,0,1:0:0:0:
22,143,182618,1,0,1:0:0:0:
22,143,182702,2,0,L|12:204,1,45,0|0,1:0|1:0,0:0:0:0:
108,263,182871,6,0,L|131:103,1,161.999995056153,12|0,0:0|0:0,0:0:0:0:
125,78,183208,5,0,1:0:0:0:
310,32,183377,1,10,0:0:0:0:
418,153,183545,5,2,1:2:0:0:
233,107,183714,1,8,0:0:0:0:
414,55,183882,5,2,1:2:0:0:
294,227,184051,1,8,0:0:0:0:
505,204,184219,6,0,P|472:260|408:271,1,135.000005149842,2|8,1:2|0:0,0:0:0:0:
233,107,184556,2,0,B|204:94|204:94|102:110,1,135.000005149842,2|8,1:2|0:0,0:0:0:0:
19,294,184893,6,0,B|150:268|150:268|142:317,1,180,2|0,1:2|0:0,0:0:0:0:
292,377,185568,6,0,B|273:364|273:364|294:227,1,161.999995056153,2|0,0:0|0:0,0:0:0:0:
393,144,186747,6,0,P|453:153|486:195,1,107.999996704102,2|0,1:2|0:0,0:0:0:0:
231,132,187084,6,0,P|268:84|321:76,1,107.999996704102,2|0,1:2|0:0,0:0:0:0:
147,254,187422,6,0,P|120:171|63:140,1,144,2|10,1:2|0:0,0:0:0:0:
9,264,187927,5,0,1:0:0:0:
12,286,188011,1,0,1:0:0:0:
16,308,188096,1,0,1:0:0:0:
147,254,188264,6,0,L|215:266,1,67.5,10|0,0:0|0:0,0:0:0:0:
234,286,188601,6,0,P|297:245|354:252,1,135.000005149842,2|0,1:2|0:0,0:0:0:0:
422,294,188854,1,8,0:0:0:0:
425,300,188938,2,0,L|435:368,1,53.9999983520508,10|0,0:0|0:0,0:0:0:0:
501,222,189107,6,0,L|513:154,1,67.5,10|0,0:0|0:0,0:0:0:0:
499,130,189444,6,0,B|444:136|444:136|429:129|429:129|283:147,1,215.999993408203,12|4,1:2|0:3,0:0:0:0:
222,102,189865,1,4,0:3:0:0:
227,75,189950,1,4,1:2:0:0:
122,15,190118,5,0,1:0:0:0:
82,14,190202,1,0,1:0:0:0:
53,41,190287,2,0,L|73:167,1,107.999996704102,0|0,1:0|1:0,0:0:0:0:
133,197,190540,1,0,1:0:0:0:
128,224,190624,1,10,0:0:0:0:
22,364,190792,5,2,1:2:0:0:
21,324,190876,1,2,1:2:0:0:
48,295,190961,6,0,L|172:313,1,107.999996704102,12|0,0:0|0:0,0:0:0:0:
315,221,191298,1,0,1:0:0:0:
276,364,191466,2,0,B|247:352|262:264|301:274|315:221,1,161.999995056153,10|0,0:0|0:0,0:0:0:0:
328,210,191804,2,0,P|377:299|478:287,1,215.999993408203,8|0,0:0|0:0,0:0:0:0:
268,146,192309,5,10,0:0:0:0:
434,109,192478,2,0,L|420:217,1,107.999996704102,8|0,0:0|1:0,0:0:0:0:
287,345,192815,6,0,B|233:365|178:322|205:282|115:273|90:307,1,215.999993408203,10|8,0:0|0:0,0:0:0:0:
12,181,193320,1,2,1:2:0:0:
52,184,193404,1,0,1:0:0:0:
92,187,193488,1,0,1:0:0:0:
133,190,193572,1,0,1:0:0:0:
173,193,193657,2,0,B|163:61|163:61|137:46,1,161.999995056153,12|0,0:0|0:0,0:0:0:0:
122,56,193995,5,0,1:0:0:0:
314,10,194163,2,0,P|309:62|266:91,1,107.999996704102,10|0,0:0|1:0,0:0:0:0:
122,56,194500,1,10,0:0:0:0:
314,10,194669,1,0,1:0:0:0:
416,251,194837,6,0,B|422:184|422:184|446:154|446:154|458:45,1,215.999993408203,12|0,0:0|1:0,0:0:0:0:
266,91,195343,1,2,1:2:0:0:
473,171,195511,1,0,1:0:0:0:
301,311,195680,6,0,P|265:271|182:261,1,135.000005149842,12|0,0:3|1:0,0:0:0:0:
113,301,195933,1,0,1:0:0:0:
99,332,196017,1,0,1:0:0:0:
72,352,196101,1,0,1:0:0:0:
39,355,196185,1,0,1:0:0:0:
15,147,196354,6,0,B|118:160|118:160|166:133|166:133|209:138,1,202.500007724762,12|0,0:0|0:0,0:0:0:0:
277,190,196691,2,0,P|342:197|388:151,1,135.000005149842,0|0,1:0|3:0,0:0:0:0:
391,66,196944,1,0,3:0:0:0:
386,61,197028,1,8,0:0:0:0:
194,32,197197,2,0,L|210:139,1,107.999996704102,10|0,0:0|1:0,0:0:0:0:
467,102,197534,6,0,P|473:197|388:243,1,202.500007724762,10|0,0:0|0:0,0:0:0:0:
210,139,197871,6,0,P|281:95|286:179,1,202.500007724762,10|0,0:0|0:0,0:0:0:0:
166,254,198208,6,0,P|186:180|262:165,1,161.999995056153,10|0,0:0|3:0,0:0:0:0:
285,179,198545,1,8,0:0:0:0:
512,353,198714,5,2,1:2:0:0:
429,322,198826,5,2,0:0:0:0:
361,381,198938,5,2,0:0:0:0:
330,350,199051,6,0,B|307:281|382:274|385:206,1,161.999995056153,12|0,0:0|0:0,0:0:0:0:
464,169,199388,2,0,L|478:61,1,107.999996704102,0|0,1:0|3:0,0:0:0:0:
411,8,199641,1,0,3:0:0:0:
409,0,199725,1,8,0:0:0:0:
286,169,199893,2,0,B|257:199|257:199|132:209,1,161.999995056153,10|0,0:0|0:0,0:0:0:0:
48,216,200231,6,0,P|88:196|5:123,1,215.999993408203,12|8,0:0|0:0,0:0:0:0:
163,320,200736,1,0,1:0:0:0:
285,169,200905,2,0,B|416:186|416:186|391:204,1,161.999995056153,12|8,0:0|0:0,0:0:0:0:
376,220,201242,1,8,0:0:0:0:
446,93,201410,5,0,1:0:0:0:
495,109,201494,1,8,0:3:0:0:
511,158,201578,1,4,0:3:0:0:
384,372,201747,6,0,B|361:348|361:348|376:221,1,161.999995056153,12|0,0:0|0:0,0:0:0:0:
392,205,202084,1,0,1:0:0:0:
260,132,202253,2,0,B|176:137|187:201|128:231|72:216,1,215.999993408203,10|8,0:0|0:0,0:0:0:0:
273,232,202759,5,0,1:0:0:0:
96,126,202927,2,0,P|80:71|43:40,1,107.999996704102,2|8,0:0|0:0,0:0:0:0:
205,49,203264,5,8,0:0:0:0:
169,224,203433,1,0,1:0:0:0:
380,85,203601,2,0,P|460:147|430:243,1,215.999993408203,10|8,0:0|0:0,0:0:0:0:
169,224,204107,1,2,1:2:0:0:
371,175,204275,5,0,1:0:0:0:
344,179,204359,1,0,1:0:0:0:
317,184,204444,2,0,L|300:309,1,107.999996704102,12|0,0:0|0:0,0:0:0:0:
365,365,204781,1,0,1:0:0:0:
153,330,204950,6,0,L|169:224,1,107.999996704102,8|0,0:0|1:0,0:0:0:0:
105,149,205287,1,0,0:0:0:0:
287,16,205455,6,0,P|295:89|205:48,1,202.500007724762,10|0,0:0|0:0,0:0:0:0:
193,44,205792,1,2,1:2:0:0:
371,175,205961,6,0,B|383:143|383:143|416:133,1,67.5000025749208,8|8,0:0|0:0,0:0:0:0:
498,151,206129,1,0,1:0:0:0:
367,286,206298,6,0,B|333:291|333:291|308:267,1,67.5000025749208,8|8,0:0|0:0,0:0:0:0:
282,188,206466,1,2,1:2:0:0:
423,356,206635,5,10,0:0:0:0:
498,151,206804,2,0,L|490:219,2,67.5000025749208,2|0|0,1:2|1:0|1:0,0:0:0:0:
378,30,207141,5,12,0:3:0:0:
385,27,207225,1,8,0:0:0:0:
394,24,207309,1,8,0:0:0:0:
403,22,207393,1,8,0:0:0:0:
435,45,207478,6,0,B|345:28|346:122|250:102,1,202.500007724762,12|0,1:2|0:2,0:0:0:0:
235,88,207815,1,2,0:0:0:0:
132,215,207983,2,0,P|110:188|32:187,1,107.999996704102,8|0,0:0|1:0,0:0:0:0:
235,88,208320,6,0,B|249:101|249:101|258:284,1,202.500007724762,10|0,0:0|0:0,0:0:0:0:
170,353,208657,6,0,B|119:330|119:330|257:284,1,202.500007724762,8|0,0:0|0:0,0:0:0:0:
372,352,208995,6,0,B|384:270|384:270|399:256|399:256|407:194,1,161.999995056153,10|0,0:0|3:0,0:0:0:0:
411,171,209332,1,8,0:0:0:0:
303,29,209500,5,2,1:2:0:0:
235,88,209612,5,2,0:0:0:0:
152,57,209724,5,2,0:0:0:0:
130,13,209837,6,0,L|143:193,1,161.999995056153,10|0,0:0|0:0,0:0:0:0:
210,220,210174,2,0,P|249:185|302:186,1,107.999996704102,0|0,1:0|3:0,0:0:0:0:
383,203,210427,1,0,3:0:0:0:
386,208,210511,1,8,0:0:0:0:
292,380,210680,2,0,L|283:273,1,107.999996704102,10|0,0:0|1:0,0:0:0:0:
472,265,211017,6,0,B|518:320|518:320|374:303,1,215.999993408203,12|8,0:0|0:0,0:0:0:0:
205,212,211523,5,2,1:2:0:0:
359,106,211691,1,10,0:0:0:0:
359,106,211775,1,2,0:0:0:0:
359,106,211860,5,2,0:0:0:0:
278,286,212028,1,8,0:0:0:0:
132,138,212197,5,2,1:2:0:0:
319,196,212365,1,2,0:0:0:0:
163,362,212534,6,0,P|131:327|67:321,1,107.999996704102,12|0,0:0|0:0,0:0:0:0:
4,255,212871,1,0,1:0:0:0:
118,129,213040,2,0,B|250:113|250:113|268:90,1,161.999995056153,10|0,0:0|0:0,0:0:0:0:
305,15,213377,2,0,P|302:93|420:109,1,215.999993408203,8|0,0:0|0:0,0:0:0:0:
353,227,213882,5,10,0:0:0:0:
477,35,214051,2,0,P|510:78|512:131,1,107.999996704102,8|0,0:0|1:0,0:0:0:0:
424,315,214388,6,0,P|446:224|353:227,1,215.999993408203,10|8,0:0|0:0,0:0:0:0:
136,340,214893,1,2,1:2:0:0:
175,347,214978,1,0,1:0:0:0:
215,355,215062,1,0,1:0:0:0:
255,362,215146,1,0,1:0:0:0:
295,370,215231,6,0,B|284:298|284:298|263:286|263:286|247:180,1,161.999995056153,12|0,0:0|0:0,0:0:0:0:
250,194,215568,5,0,1:0:0:0:
452,145,215736,1,10,0:0:0:0:
287,37,215905,5,0,1:0:0:0:
85,86,216074,1,10,0:0:0:0:
287,37,216242,1,0,1:0:0:0:
56,0,216410,6,0,P|154:25|166:126,1,215.999993408203,12|0,0:0|1:0,0:0:0:0:
5,227,216915,1,2,1:2:0:0:
247,168,217084,1,0,1:0:0:0:
167,369,217253,6,0,L|189:214,1,135.000005149842,12|0,0:3|1:0,0:0:0:0:
247,168,217506,1,0,1:0:0:0:
280,164,217590,1,0,1:0:0:0:
314,160,217674,1,0,1:0:0:0:
347,156,217758,1,0,1:0:0:0:
503,312,217927,6,0,P|435:343|398:246,1,202.500007724762,12|0,0:0|0:0,0:0:0:0:
434,168,218264,2,0,B|448:161|448:161|464:42,1,135.000005149842,0|0,1:0|3:0,0:0:0:0:
389,3,218517,1,0,3:0:0:0:
381,5,218601,1,8,0:0:0:0:
247,168,218770,2,0,P|274:132|351:125,1,107.999996704102,10|0,0:0|1:0,0:0:0:0:
111,58,219107,6,0,B|159:41|159:41|138:191,1,202.500007724762,10|0,0:0|0:0,0:0:0:0:
56,326,219444,6,0,B|39:315|39:315|26:158|26:158|44:141,1,202.500007724762,10|0,0:0|0:0,0:0:0:0:
138,191,219781,6,0,B|209:203|209:203|217:198|217:198|297:211,1,161.999995056153,10|0,0:0|3:0,0:0:0:0:
317,229,220118,5,8,0:0:0:0:
487,43,220287,5,2,1:2:0:0:
419,101,220399,5,2,0:0:0:0:
462,180,220511,5,2,0:0:0:0:
500,157,220624,6,0,L|478:317,1,161.999995056153,12|0,0:0|0:0,0:0:0:0:
406,367,220961,2,0,P|354:323|310:336,1,107.999996704102,0|0,1:0|3:0,0:0:0:0:
234,342,221214,1,0,3:0:0:0:
230,348,221298,1,8,0:0:0:0:
69,295,221466,2,0,P|121:324|133:229,1,161.999995056153,10|0,0:0|0:0,0:0:0:0:
81,208,221804,6,0,B|68:136|68:136|37:122|37:122|18:13,1,215.999993408203,12|8,0:0|0:0,0:0:0:0:
169,131,222309,1,0,1:0:0:0:
327,49,222478,2,0,P|329:127|273:184,1,161.999995056153,12|8,0:0|0:0,0:0:0:0:
248,193,222815,1,8,0:0:0:0:
116,58,222983,5,0,1:0:0:0:
157,28,223067,1,8,0:3:0:0:
205,47,223151,1,4,0:3:0:0:
387,242,223320,6,0,B|346:214|346:214|327:49,1,215.999993408203,12|0,0:0|1:0,0:0:0:0:
467,3,223826,2,0,B|483:20|483:20|475:104,1,107.999996704102,10|0,0:0|0:0,0:0:0:0:
256,185,224163,1,8,0:0:0:0:
465,115,224332,1,0,1:0:0:0:
426,323,224500,6,0,P|429:271|386:242,1,107.999996704102,2|8,0:0|0:0,0:0:0:0:
216,372,224837,1,8,0:0:0:0:
256,185,225006,1,0,1:0:0:0:
106,325,225174,6,0,B|110:262|62:236|17:234|9:167|30:138,1,215.999993408203,10|8,0:0|0:0,0:0:0:0:
231,24,225680,1,2,1:2:0:0:
237,64,225764,1,0,1:0:0:0:
243,104,225848,1,0,1:0:0:0:
249,144,225932,1,0,1:0:0:0:
256,185,226017,6,0,P|310:148|374:167,1,107.999996704102,12|0,0:0|0:0,0:0:0:0:
496,196,226354,1,0,1:0:0:0:
332,255,226523,1,10,0:0:0:0:
508,88,226691,2,0,L|496:196,1,107.999996704102,0|0,1:0|0:0,0:0:0:0:
401,357,227028,6,0,P|337:275|234:284,1,215.999993408203,10|0,0:0|1:0,0:0:0:0:
152,379,227534,1,10,0:0:0:0:
122,227,227702,1,0,1:0:0:0:
40,322,227871,1,2,0:0:0:0:
37,316,227955,1,2,0:0:0:0:
34,310,228040,1,2,1:2:0:0:
236,269,228208,6,0,L|242:215,1,53.9999983520508,2|0,1:2|0:0,0:0:0:0:
335,124,228714,6,0,P|368:165|371:218,1,107.999996704102,12|0,0:0|0:0,0:0:0:0:
489,335,229051,2,0,B|483:326|483:326|499:176,1,161.999995056153,2|0,1:2|0:0,0:0:0:0:
502,150,229388,1,10,0:0:0:0:
356,236,229556,1,8,0:0:0:0:
233,96,229725,2,0,B|157:105|185:178|111:188|105:179,1,161.999995056153,2|0,1:2|0:0,0:0:0:0:
79,170,230062,6,0,P|56:123|5:112,1,107.999996704102,10|8,0:0|0:0,0:0:0:0:
144,33,230399,1,0,1:0:0:0:
254,182,230568,2,0,B|227:350|227:350|204:310,1,215.999993408203,10|8,0:0|0:0,0:0:0:0:
356,236,231073,1,0,1:0:0:0:
369,233,231158,1,0,3:0:0:0:
382,231,231242,1,0,3:0:0:0:
395,228,231326,1,0,3:0:0:0:
408,225,231410,6,0,L|419:158,1,67.5000025749208,10|0,0:0|0:0,0:0:0:0:
434,71,231579,1,8,0:0:0:0:
274,97,231747,2,0,L|434:71,1,161.999995056153,2|0,1:2|0:0,0:0:0:0:
332,306,232084,6,0,L|265:317,1,67.5000025749208,10|0,0:0|0:0,0:0:0:0:
179,332,232253,1,8,0:0:0:0:
205,172,232422,2,0,L|178:331,1,161.999995056153,2|0,1:2|0:0,0:0:0:0:
46,197,232759,6,0,L|34:130,1,67.5000025749208,10|0,0:0|0:0,0:0:0:0:
20,44,232928,1,8,0:0:0:0:
205,172,233096,1,0,1:0:0:0:
304,10,233264,6,0,B|266:104|388:132|393:181|383:237|356:251,1,270.000010299683,10|8,0:0|0:0,0:0:0:0:
193,346,233770,2,0,B|176:322|176:322|205:172,1,182.250000695229,2|0,1:2|0:0,0:0:0:0:
225,153,234107,6,0,L|117:166,1,107.999996704102,10|0,0:0|0:0,0:0:0:0:
281,299,234444,2,0,L|441:278,1,161.999995056153,2|0,1:2|0:0,0:0:0:0:
464,294,234781,1,10,0:0:0:0:
350,168,234950,1,8,0:0:0:0:
489,25,235118,2,0,P|496:97|424:105,1,161.999995056153,2|0,1:2|0:0,0:0:0:0:
406,85,235455,6,0,B|385:73|385:73|302:87,1,107.999996704102,10|8,0:0|0:0,0:0:0:0:
123,148,235792,1,0,1:0:0:0:
243,23,235961,2,0,B|277:-7|277:-7|250:160,1,215.999993408203,10|8,0:0|0:0,0:0:0:0:
11,340,236466,1,0,1:0:0:0:
14,327,236551,1,0,3:0:0:0:
16,314,236635,1,0,3:0:0:0:
19,301,236719,1,0,3:0:0:0:
22,288,236804,6,0,L|88:276,1,67.5000025749208,10|0,0:0|0:0,0:0:0:0:
175,264,236972,1,10,0:0:0:0:
350,216,237141,2,0,L|327:349,1,135.000005149842,2|2,1:2|0:0,0:0:0:0:
241,144,237478,1,10,0:0:0:0:
410,36,237646,5,0,1:0:0:0:
450,36,237730,1,0,1:0:0:0:
470,70,237814,1,2,1:2:0:0:
350,216,237983,6,0,B|293:222|293:222|284:232|284:232|85:253,1,270.000010299683,10|0,0:0|0:0,0:0:0:0:
4,207,238320,5,2,1:2:0:0:
4,207,238488,1,2,1:2:0:0:
4,207,238657,1,2,1:2:0:0:
209,89,238826,5,8,3:0:0:0:
207,98,238910,1,4,3:0:0:0:
205,107,238995,1,0,1:0:0:0:
180,142,239079,1,0,1:0:0:0:
137,143,239163,2,0,P|109:118|69:121,1,67.5000025749208,0|0,1:0|0:0,0:0:0:0:
269,11,239332,6,0,B|311:48|311:48|273:293,1,270,10|0,0:0|0:0,0:0:0:0:
241,345,239669,5,2,1:2:0:0:
241,345,239837,1,2,1:2:0:0:
241,345,240006,1,2,1:2:0:0:
449,193,240174,5,8,0:3:0:0:
476,226,240258,1,4,0:3:0:0:
465,268,240343,2,0,P|436:300|393:297,1,90,4|0,0:3|0:0,0:0:0:0:
293,245,240511,6,0,B|287:165|287:165|280:154|280:154|272:45,1,202.500007724762,0|0,1:0|0:0,0:0:0:0:
269,11,240848,5,12,0:0:0:0:
256,192,240933,12,8,243545,0:0:0:0:
