osu file format v14

[General]
AudioFilename: audio.mp3
AudioLeadIn: 0
PreviewTime: 119332
Countdown: 0
SampleSet: Soft
StackLeniency: 0.7
Mode: 0
LetterboxInBreaks: 0
WidescreenStoryboard: 0

[Editor]
DistanceSpacing: 1.1
BeatDivisor: 2
GridSize: 4
TimelineZoom: 1

[Metadata]
Title:Watashi wa Yume to Kimi no Tame ni
TitleUnicode:ワタシは夢と君の為に
Artist:Kasokaso (Prismagic) feat. Sennzai
ArtistUnicode:かそかそ (Prismagic) feat. Sennzai
Creator:Garden
Version:Easy
Source:
Tags:firika yorita yoshino -claris- dored Ambivalen¢e Ambivalence seardrop japanese pop jpop j-pop featured artist fa osu! mappers' guild mpg
BeatmapID:2826716
BeatmapSetID:1366777

[Difficulty]
HPDrainRate:2
CircleSize:3
OverallDifficulty:2
ApproachRate:3
SliderMultiplier:0.8
SliderTickRate:1

[Events]
//Background and Video events
0,0,"81676147_p0_edit.jpg",0,0
//Break Periods
2,76691,85364
2,142622,151768
2,164195,173341
//Storyboard Layer 0 (Background)
//Storyboard Layer 1 (Fail)
//Storyboard Layer 2 (Pass)
//Storyboard Layer 3 (Foreground)
//Storyboard Layer 4 (Overlay)
//Storyboard Sound Samples

[TimingPoints]
849,337.078651685393,4,2,1,60,1,0
11635,-100,4,2,1,70,0,0
22084,-100,4,2,1,65,0,0
22422,-100,4,2,1,60,0,0
54781,-100,4,2,1,70,0,1
75680,-100,4,2,1,70,0,0
86804,-100,4,2,1,65,0,0
87141,-100,4,2,1,60,0,0
119500,-100,4,2,1,70,0,1
142422,-100,4,2,1,70,0,0
163995,-100,4,2,1,50,0,0
174781,-100,4,2,1,60,0,0
186747,-100,4,2,1,70,0,0
190961,-100,4,2,1,70,0,1
207141,-100,4,2,1,70,0,0
207478,-100,4,2,1,70,0,1
228714,-100,4,2,1,70,0,0
240933,-100,4,2,1,40,0,0

[Colours]
Combo1 : 199,142,255
Combo2 : 147,147,255
Combo3 : 255,145,200
Combo4 : 117,210,255

[HitObjects]
456,94,849,5,12,0:0:0:0:
432,222,2197,1,12,0:0:0:0:
408,349,3545,5,10,0:0:0:0:
311,266,4219,1,10,0:0:0:0:
432,222,4893,2,0,P|447:126|351:27,1,240,10|0,0:0|1:0,0:0:0:0:
274,62,6242,6,0,L|134:47,1,120,12|12,0:0|0:0,0:0:0:0:
118,176,7253,2,0,L|-1:163,2,120,12|12|10,0:0|0:0|0:0,0:0:0:0:
188,228,8601,1,12,0:0:0:0:
266,188,8938,6,0,P|321:206|348:258,1,120,12|10,0:0|0:0,0:0:0:0:
346,347,9781,1,10,0:0:0:0:
261,369,10118,1,12,0:0:0:0:
261,369,11635,6,0,L|162:358,1,80,12|2,0:0|1:2,0:0:0:0:
116,300,12309,1,10,0:0:0:0:
171,231,12646,1,2,1:2:0:0:
104,173,12983,2,0,P|45:175|1:214,2,120,10|10|2,0:0|0:0|1:2,0:0:0:0:
171,231,14332,6,0,L|276:211,1,80,10|2,0:0|1:2,0:0:0:0:
295,140,15006,2,0,L|400:120,1,80,10|2,0:0|1:2,0:0:0:0:
448,79,15680,2,0,P|498:127|499:178,2,120,10|10|2,0:0|0:0|1:2,0:0:0:0:
368,41,17028,5,12,0:0:0:0:
309,107,17365,1,2,1:2:0:0:
232,62,17702,2,0,L|153:75,1,80,10|2,0:0|1:2,0:0:0:0:
80,125,18377,2,0,P|38:83|33:25,2,120,10|10|2,0:0|0:0|1:2,0:0:0:0:
159,161,19725,6,0,L|147:240,1,80,10|2,0:0|1:2,0:0:0:0:
213,298,20399,2,0,P|276:304|322:270,1,120,10|10,0:0|0:0,0:0:0:0:
352,190,21242,2,0,L|442:176,1,80,2|2,1:2|1:2,0:0:0:0:
505,68,22084,1,0,1:0:0:0:
433,16,22422,6,0,L|274:41,1,160,12|10,0:0|0:0,0:0:0:0:
188,22,23433,1,8,0:0:0:0:
136,93,23770,2,0,P|139:173|200:220,1,160,10|8,0:0|0:0,0:0:0:0:
279,185,24781,1,10,0:0:0:0:
358,221,25118,6,0,L|346:326,1,80,10|8,0:0|0:0,0:0:0:0:
414,358,25792,2,0,P|470:353|514:304,2,120,8|12|4,0:0|0:0|1:2,0:0:0:0:
348,300,27141,1,2,1:2:0:0:
375,216,27478,1,0,1:0:0:0:
462,203,27815,6,0,P|481:168|482:129,1,80,10|4,0:0|1:2,0:0:0:0:
458,44,28489,1,8,0:0:0:0:
371,25,28826,1,2,1:2:0:0:
303,81,29163,2,0,L|107:108,1,160,10|10,0:0|0:0,0:0:0:0:
74,49,30174,1,2,1:2:0:0:
24,121,30511,6,0,P|27:189|70:227,1,120,10|10,0:0|0:0,0:0:0:0:
144,254,31354,1,8,0:0:0:0:
201,187,31691,2,0,P|251:156|310:160,1,120,10|0,0:0|1:0,0:0:0:0:
391,195,32534,1,0,1:0:0:0:
413,280,32871,1,0,1:0:0:0:
363,352,33208,6,0,L|283:345,1,80,12|2,0:0|1:2,0:0:0:0:
207,300,33882,2,0,P|149:311|108:354,2,120,10|10|0,0:0|0:0|1:0,0:0:0:0:
283,256,35231,2,0,L|306:158,1,80,8|2,0:0|1:2,0:0:0:0:
224,135,35905,6,0,P|192:89|203:47,1,80,10|0,0:0|1:0,0:0:0:0:
263,13,36579,2,0,L|401:28,2,120,8|10|0,0:0|0:0|1:0,0:0:0:0:
193,67,37927,2,0,L|109:57,1,80,10|0,0:0|1:0,0:0:0:0:
48,116,38601,5,10,0:0:0:0:
119,167,38938,2,0,L|131:256,1,80,2|8,1:2|0:0,0:0:0:0:
79,318,39613,1,0,1:0:0:0:
155,360,39950,2,0,P|248:350|293:293,1,160,10|8,0:0|0:0,0:0:0:0:
278,215,40961,1,2,1:2:0:0:
343,156,41298,6,0,L|481:176,1,120,10|10,0:0|0:0,0:0:0:0:
511,100,42141,1,10,0:0:0:0:
443,43,42478,2,0,L|324:25,1,120,12|8,0:0|0:3,0:0:0:0:
239,48,43320,1,8,0:3:0:0:
222,134,43657,1,8,0:3:0:0:
299,176,43995,6,0,P|351:234|332:325,1,160,12|2,0:0|0:0,0:0:0:0:
274,367,45006,2,0,L|105:352,1,160,2|2,0:0|0:0,0:0:0:0:
44,299,46017,2,0,L|60:192,1,80,2|10,0:0|0:0,0:0:0:0:
16,141,46691,5,12,0:0:0:0:
62,66,47028,1,2,1:2:0:0:
149,67,47365,1,2,1:2:0:0:
200,138,47702,2,0,P|285:155|352:112,1,160,12|8,0:0|0:0,0:0:0:0:
380,39,48714,2,0,L|486:61,1,80,2|2,0:0|1:2,0:0:0:0:
503,130,49388,5,12,0:0:0:0:
432,291,50062,1,2,0:0:0:0:
258,262,50736,1,10,0:0:0:0:
329,101,51410,2,0,L|310:15,1,80,2|0,0:0|1:2,0:0:0:0:
224,11,52084,6,0,P|147:21|103:86,1,160,12|2,0:0|1:2,0:0:0:0:
142,164,53096,2,0,L|249:180,1,80,2|2,1:2|1:2,0:0:0:0:
292,227,53770,1,2,1:2:0:0:
254,306,54107,1,2,1:2:0:0:
416,374,54781,6,0,P|455:332|449:270,1,120,12|0,0:0|3:0,0:0:0:0:
407,195,55624,1,10,0:0:0:0:
477,142,55961,2,0,L|491:47,1,80,10|8,0:0|0:0,0:0:0:0:
425,1,56635,2,0,L|281:23,1,120,10|0,0:0|1:0,0:0:0:0:
239,77,57478,6,0,L|221:208,1,120,10|2,0:0|0:0,0:0:0:0:
287,255,58320,1,10,0:0:0:0:
251,335,58657,2,0,P|209:366|132:354,1,120,12|2,0:0|1:2,0:0:0:0:
80,299,59500,1,2,0:0:0:0:
143,237,59837,1,2,1:2:0:0:
82,173,60174,6,0,L|59:42,2,120,12|10|0,0:0|0:0|1:0,0:0:0:0:
143,237,61523,1,10,0:0:0:0:
201,171,61860,2,0,P|273:128|352:147,1,160,0|2,1:0|1:2,0:0:0:0:
416,192,62871,6,0,L|397:326,1,120,12|10,0:0|0:0,0:0:0:0:
336,372,63714,1,10,0:0:0:0:
266,318,64051,2,0,B|235:298|235:298|141:321,1,120,12|2,0:0|1:2,0:0:0:0:
68,337,64893,2,0,L|80:250,1,80,12|0,0:3|1:0,0:0:0:0:
25,187,65568,6,0,P|20:128|60:86,1,120,12|0,0:0|3:0,0:0:0:0:
140,53,66410,1,10,0:0:0:0:
213,101,66747,2,0,L|319:76,1,80,10|8,0:0|0:0,0:0:0:0:
359,27,67422,2,0,P|411:52|431:107,1,120,10|2,0:0|1:2,0:0:0:0:
404,191,68264,5,12,0:0:0:0:
485,225,68601,1,0,1:0:0:0:
452,306,68938,2,0,L|328:323,1,120,8|12,0:0|0:0,0:0:0:0:
265,378,69781,1,10,0:0:0:0:
188,334,70118,2,0,L|205:208,1,120,12|0,0:0|1:0,0:0:0:0:
284,179,70961,6,0,P|316:130|305:72,1,120,12|10,0:0|0:0,0:0:0:0:
230,24,71804,1,8,0:0:0:0:
165,83,72141,2,0,L|56:100,1,80,2|8,0:0|0:0,0:0:0:0:
22,156,72815,2,0,P|16:214|54:258,1,120,10|2,0:0|1:2,0:0:0:0:
138,285,73657,6,0,L|256:265,1,120,12|8,0:0|0:0,0:0:0:0:
317,147,74669,2,0,L|435:127,1,120,10|8,0:0|0:0,0:0:0:0:
496,10,75680,1,2,1:2:0:0:
407,355,86804,5,0,1:0:0:0:
472,295,87141,2,0,L|461:215,1,80,12|2,0:0|1:2,0:0:0:0:
414,140,87815,2,0,P|454:98|512:92,2,120,10|10|0,0:0|0:0|1:0,0:0:0:0:
373,219,89163,2,0,L|272:214,1,80,8|0,0:0|1:0,0:0:0:0:
214,253,89837,5,10,0:0:0:0:
149,193,90174,1,0,1:0:0:0:
194,117,90511,2,0,P|188:58|143:21,2,120,10|10|0,0:0|0:0|1:0,0:0:0:0:
149,193,91860,2,0,L|48:188,1,80,10|2,0:0|1:2,0:0:0:0:
8,253,92534,6,0,P|25:331|93:369,1,160,10|10,0:0|0:0,0:0:0:0:
158,312,93545,1,2,1:2:0:0:
228,364,93882,2,0,L|307:367,1,80,10|0,0:0|1:0,0:0:0:0:
377,313,94556,1,10,0:0:0:0:
368,225,94893,1,2,1:2:0:0:
289,185,95231,6,0,P|252:140|256:82,1,120,10|10,0:0|0:0,0:0:0:0:
297,5,96073,1,8,0:0:0:0:
375,42,96410,2,0,P|412:87|408:145,1,120,10|0,0:0|1:0,0:0:0:0:
368,225,97253,1,0,1:0:0:0:
447,263,97590,1,0,1:0:0:0:
409,342,97927,6,0,L|305:361,1,80,12|2,0:0|1:2,0:0:0:0:
251,316,98601,2,0,P|193:327|158:374,2,120,10|10|0,0:0|0:0|1:0,0:0:0:0:
326,270,99950,2,0,L|339:164,1,80,8|2,0:0|1:2,0:0:0:0:
260,144,100624,6,0,P|235:112|239:70,1,80,10|0,0:0|1:0,0:0:0:0:
305,17,101298,2,0,L|448:29,2,120,10|10|0,0:0|0:0|1:0,0:0:0:0:
237,73,102646,1,10,0:0:0:0:
171,14,102983,1,0,1:0:0:0:
106,73,103320,6,0,L|112:165,1,80,10|2,0:0|1:2,0:0:0:0:
70,230,103995,2,0,P|112:294|196:296,1,160,10|8,0:0|0:0,0:0:0:0:
269,262,105006,1,2,1:2:0:0:
218,189,105343,2,0,L|212:109,1,80,8|2,0:0|1:2,0:0:0:0:
259,34,106017,6,0,P|320:28|369:64,1,120,10|10,0:0|0:0,0:0:0:0:
411,136,106860,1,10,0:0:0:0:
343,192,107197,2,0,P|311:244|320:303,1,120,12|8,0:0|0:3,0:0:0:0:
385,358,108040,1,8,0:3:0:0:
467,326,108377,1,8,0:3:0:0:
453,239,108714,6,0,L|481:82,1,160,12|2,0:0|0:0,0:0:0:0:
407,32,109725,2,0,P|327:36|276:99,1,160,2|2,0:0|0:0,0:0:0:0:
276,181,110736,2,0,L|194:195,1,80,2|10,0:0|0:0,0:0:0:0:
113,168,111410,5,12,0:0:0:0:
53,232,111747,1,2,1:2:0:0:
78,316,112084,1,2,1:2:0:0:
163,338,112422,2,0,L|337:306,1,160,12|8,0:0|0:0,0:0:0:0:
405,332,113433,2,0,L|418:253,1,80,2|2,0:0|1:2,0:0:0:0:
499,217,114107,5,12,0:0:0:0:
408,66,114781,1,2,0:0:0:0:
238,113,115455,1,10,0:0:0:0:
329,264,116129,2,0,L|315:342,1,80,2|0,0:0|1:2,0:0:0:0:
229,361,116804,6,0,P|151:352|108:288,1,160,12|0,0:0|1:0,0:0:0:0:
119,201,117815,2,0,L|222:178,1,80,0|0,1:0|1:0,0:0:0:0:
259,121,118489,1,0,1:0:0:0:
213,45,118826,1,4,1:2:0:0:
384,3,119500,6,0,P|425:49|424:105,1,120,12|0,0:0|3:0,0:0:0:0:
399,189,120343,1,10,0:0:0:0:
471,238,120680,2,0,L|483:331,1,80,10|8,0:0|0:0,0:0:0:0:
409,368,121354,2,0,P|339:363|299:323,1,120,10|0,0:0|1:0,0:0:0:0:
283,245,122197,6,0,L|156:261,1,120,10|2,0:0|0:0,0:0:0:0:
104,324,123040,1,10,0:0:0:0:
28,278,123377,2,0,L|52:145,1,120,12|2,0:0|1:2,0:0:0:0:
115,101,124219,1,2,0:0:0:0:
177,163,124556,1,2,1:2:0:0:
246,109,124893,6,0,P|259:51|234:-1,2,120,12|10|0,0:0|0:0|1:0,0:0:0:0:
177,163,126242,1,10,0:0:0:0:
246,217,126579,2,0,P|361:204|400:160,1,160,0|2,1:0|1:2,0:0:0:0:
425,96,127590,5,12,0:0:0:0:
500,141,127927,2,0,L|483:281,1,120,0|10,1:0|0:0,0:0:0:0:
435,332,128770,2,0,P|387:347|310:309,1,120,12|2,0:0|1:2,0:0:0:0:
298,239,129613,1,12,0:3:0:0:
276,153,129950,1,0,1:0:0:0:
253,67,130287,6,0,P|204:33|145:38,1,120,12|0,0:0|3:0,0:0:0:0:
69,80,131129,1,10,0:0:0:0:
87,167,131466,2,0,L|74:255,1,80,10|8,0:0|0:0,0:0:0:0:
143,301,132141,2,0,L|273:279,1,120,10|2,0:0|1:2,0:0:0:0:
332,333,132983,5,12,0:0:0:0:
411,294,133320,1,0,1:0:0:0:
389,208,133657,2,0,P|392:148|439:99,1,120,8|12,0:0|0:0,0:0:0:0:
503,56,134500,1,8,0:0:0:0:
433,2,134837,2,0,L|296:32,1,120,12|0,0:0|1:0,0:0:0:0:
262,97,135680,6,0,P|197:105|141:55,1,120,12|10,0:0|0:0,0:0:0:0:
105,3,136523,1,10,0:0:0:0:
35,56,136860,2,0,P|36:112|63:146,1,80,2|8,0:0|0:0,0:0:0:0:
129,164,137534,2,0,P|138:223|97:284,1,120,10|2,0:0|1:2,0:0:0:0:
170,338,138377,6,0,L|292:352,1,120,12|8,0:0|0:0,0:0:0:0:
375,251,139388,2,0,L|494:264,2,120,10|8|2,0:0|0:0|1:2,0:0:0:0:
256,192,140905,1,12,0:0:0:0:
256,192,141073,12,12,142422,0:0:0:0:
402,342,153208,5,12,0:0:0:0:
331,288,153545,2,0,L|348:114,1,160,2|0,1:2|1:0,0:0:0:0:
408,66,154556,2,0,P|466:64|512:101,2,120,10|10|0,0:0|0:0|1:0,0:0:0:0:
346,128,155905,5,10,0:0:0:0:
264,94,156242,1,0,1:0:0:0:
202,156,156579,2,0,L|220:306,2,120,10|12|0,0:0|0:0|1:0,0:0:0:0:
120,122,157927,1,2,0:0:0:0:
132,34,158264,1,2,1:2:0:0:
218,19,158601,6,0,P|306:26|352:131,1,200,12|10,0:0|0:0,0:0:0:0:
330,202,159781,2,0,L|419:220,1,80,10|8,0:0|0:0,0:0:0:0:
472,277,160455,2,0,P|437:324|380:337,1,120,10|2,0:0|1:2,0:0:0:0:
301,296,161298,5,10,0:0:0:0:
237,356,161635,1,2,1:2:0:0:
155,323,161972,2,0,L|129:193,2,120,10|12|0,0:0|0:0|1:0,0:0:0:0:
237,356,163320,1,12,0:3:0:0:
301,296,163657,1,4,0:3:0:0:
262,216,163995,5,12,0:0:0:0:
262,216,174781,6,0,L|419:186,2,160,4|10|8,3:1|0:0|0:0,0:0:0:0:
207,284,176466,1,10,0:0:0:0:
121,262,176804,2,0,L|102:168,1,80,10|10,0:0|0:0,0:0:0:0:
23,151,177478,5,10,0:0:0:0:
112,54,177983,2,0,P|208:53|266:107,1,160,0|4,1:0|1:2,0:0:0:0:
290,171,178995,2,0,L|432:144,1,120,2|10,1:2|0:0,0:0:0:0:
487,185,179837,1,0,1:0:0:0:
460,268,180174,6,0,L|299:300,1,160,12|2,0:0|0:0,0:0:0:0:
247,367,181186,1,0,1:0:0:0:
160,349,181523,2,0,P|115:296|142:209,1,160,10|2,0:0|0:0,0:0:0:0:
207,163,182534,1,0,1:0:0:0:
285,203,182871,6,0,L|390:177,1,80,12|0,0:0|1:0,0:0:0:0:
447,160,183545,2,0,L|458:80,1,80,2|2,1:2|1:2,0:0:0:0:
410,7,184219,1,2,1:2:0:0:
322,19,184556,1,2,1:2:0:0:
286,99,184893,1,2,1:2:0:0:
286,99,186747,6,0,L|185:88,1,80,2|2,1:2|1:2,0:0:0:0:
136,37,187422,2,0,P|77:41|36:84,1,120,2|8,1:2|0:0,0:0:0:0:
89,155,188264,1,10,0:0:0:0:
25,215,188601,6,0,L|38:350,1,120,2|10,1:2|0:0,0:0:0:0:
120,362,189444,2,0,P|178:357|218:314,1,120,12|4,0:0|1:2,0:0:0:0:
235,228,190287,2,0,L|321:214,1,80,0|10,1:0|0:0,0:0:0:0:
373,150,190961,5,12,0:0:0:0:
452,188,191298,2,0,P|492:254|473:330,1,160,0|0,1:0|1:0,0:0:0:0:
399,377,192309,1,10,0:0:0:0:
323,332,192646,2,0,L|244:344,1,80,0|0,1:0|0:0,0:0:0:0:
170,297,193320,1,2,1:2:0:0:
238,241,193657,6,0,L|253:121,1,120,12|10,0:0|0:0,0:0:0:0:
299,47,194500,1,10,0:0:0:0:
219,9,194837,2,0,L|73:34,1,120,12|2,0:0|1:2,0:0:0:0:
37,90,195680,1,12,0:3:0:0:
107,143,196017,1,0,1:0:0:0:
43,203,196354,6,0,P|30:266|64:317,1,120,12|0,0:0|3:0,0:0:0:0:
140,340,197197,1,10,0:0:0:0:
202,277,197534,2,0,L|302:256,1,80,10|8,0:0|0:0,0:0:0:0:
362,291,198208,2,0,P|423:294|468:258,1,120,10|2,0:0|1:2,0:0:0:0:
449,173,199051,6,0,L|475:33,1,120,12|0,0:0|3:0,0:0:0:0:
394,10,199893,1,10,0:0:0:0:
328,69,200231,2,0,L|224:87,1,80,12|8,0:0|0:0,0:0:0:0:
177,31,200905,2,0,P|120:25|69:63,1,120,12|0,0:0|1:0,0:0:0:0:
35,140,201747,5,12,0:0:0:0:
119,165,202084,2,0,P|180:212|188:289,1,160,0|0,1:0|1:0,0:0:0:0:
127,353,203096,2,0,P|69:363|18:333,2,120,8|10|2,0:0|0:0|1:2,0:0:0:0:
188,289,204444,6,0,L|319:267,1,120,12|8,0:0|0:0,0:0:0:0:
359,148,205455,2,0,L|240:167,1,120,10|8,0:0|0:0,0:0:0:0:
125,103,206466,1,2,1:2:0:0:
177,31,206804,2,0,L|255:17,1,80,2|12,1:2|0:3,0:0:0:0:
335,55,207478,6,0,P|347:111|398:140,1,120,4|8,1:2|0:0,0:0:0:0:
486,136,208320,2,0,L|502:226,1,80,10|8,0:0|0:0,0:0:0:0:
438,277,208995,2,0,L|308:266,1,120,10|0,0:0|1:0,0:0:0:0:
253,326,209837,6,0,P|195:339|143:313,1,120,10|0,0:0|3:0,0:0:0:0:
105,233,210680,1,10,0:0:0:0:
169,173,211017,2,0,P|194:125|184:82,1,80,12|8,0:0|0:0,0:0:0:0:
149,23,211691,2,0,L|266:0,1,120,10|2,0:0|1:2,0:0:0:0:
335,54,212534,5,12,0:0:0:0:
418,27,212871,2,0,P|477:77|485:154,1,160,0|0,1:0|1:0,0:0:0:0:
450,235,213882,1,10,0:0:0:0:
362,222,214219,2,0,L|351:301,1,80,0|0,1:0|0:0,0:0:0:0:
281,354,214893,1,2,1:2:0:0:
208,304,215231,6,0,L|229:184,1,120,12|10,0:0|0:0,0:0:0:0:
290,122,216073,1,10,0:0:0:0:
243,47,216410,2,0,L|100:70,1,120,12|2,0:0|1:2,0:0:0:0:
38,46,217253,1,12,0:3:0:0:
1,126,217590,1,0,1:0:0:0:
86,148,217927,6,0,P|137:199|128:267,1,120,12|0,0:0|3:0,0:0:0:0:
93,319,218770,1,10,0:0:0:0:
171,357,219107,2,0,L|279:342,1,80,10|8,0:0|0:0,0:0:0:0:
332,376,219781,2,0,L|354:231,1,120,10|2,0:0|1:2,0:0:0:0:
385,176,220624,5,12,0:0:0:0:
471,160,220961,2,0,P|501:109|487:52,1,120,0|10,1:0|0:0,0:0:0:0:
407,16,221804,2,0,L|306:34,1,80,12|8,0:0|0:0,0:0:0:0:
279,103,222478,2,0,L|160:81,1,120,12|0,0:0|1:0,0:0:0:0:
91,27,223320,5,12,0:0:0:0:
42,100,223657,2,0,P|44:177|104:226,1,160,0|0,1:0|1:0,0:0:0:0:
192,237,224669,2,0,L|173:355,2,120,8|10|2,0:0|0:0|1:2,0:0:0:0:
252,173,226017,6,0,L|383:147,1,120,12|8,0:0|0:0,0:0:0:0:
463,243,227028,2,0,L|345:266,1,120,10|10,0:0|0:0,0:0:0:0:
244,351,228040,2,0,B|189:359|167:323|183:318|162:283|105:293,1,160,2|12,1:2|0:0,0:0:0:0:
24,323,229051,5,2,1:2:0:0:
7,236,229388,2,0,L|24:158,1,80,10|2,0:0|1:2,0:0:0:0:
89,99,230062,2,0,P|77:41|30:7,2,120,10|10|0,0:0|0:0|1:0,0:0:0:0:
156,154,231410,6,0,L|240:140,1,80,10|2,0:0|1:2,0:0:0:0:
301,195,232084,2,0,L|379:181,1,80,10|2,0:0|1:2,0:0:0:0:
451,235,232759,2,0,P|467:282|425:352,2,120,10|10|2,0:0|0:0|1:2,0:0:0:0:
379,181,234107,5,10,0:0:0:0:
435,113,234444,1,2,1:2:0:0:
362,62,234781,2,0,L|278:52,1,80,10|2,0:0|1:2,0:0:0:0:
203,14,235455,2,0,P|145:25|108:71,2,120,10|10|0,0:0|0:0|1:0,0:0:0:0:
282,52,236804,5,10,0:0:0:0:
227,121,237141,1,2,1:2:0:0:
302,166,237478,2,0,B|351:157|351:157|363:143|363:143|414:134,2,120,10|10|2,0:0|0:0|1:2,0:0:0:0:
249,236,238826,2,0,B|200:245|200:245|188:259|188:259|137:268,2,120,0|10|2,1:0|0:0|1:2,0:0:0:0:
331,269,240174,2,0,P|347:309|325:360,1,80,8|0,0:3|1:0,0:0:0:0:
256,376,240848,5,12,0:0:0:0:
256,192,241017,12,8,243545,0:0:0:0:
