osu file format v14

[General]
AudioFilename: audio.mp3
AudioLeadIn: 0
PreviewTime: 119332
Countdown: 0
SampleSet: Soft
StackLeniency: 0.7
Mode: 0
LetterboxInBreaks: 0
WidescreenStoryboard: 1

[Editor]
DistanceSpacing: 1
BeatDivisor: 2
GridSize: 32
TimelineZoom: 1

[Metadata]
Title:Watashi wa Yume to Kimi no Tame ni
TitleUnicode:ワタシは夢と君の為に
Artist:Kasokaso (Prismagic) feat. Sennzai
ArtistUnicode:かそかそ (Prismagic) feat. Sennzai
Creator:Garden
Version:Dored's Normal
Source:
Tags:firika yorita yoshino -claris- dored Ambivalen¢e Ambivalence seardrop japanese pop jpop j-pop featured artist fa osu! mappers' guild mpg
BeatmapID:2826714
BeatmapSetID:1366777

[Difficulty]
HPDrainRate:4
CircleSize:3.5
OverallDifficulty:4
ApproachRate:5.5
SliderMultiplier:1
SliderTickRate:1

[Events]
//Background and Video events
0,0,"81676147_p0_edit.jpg",0,0
//Break Periods
2,76691,85679
2,164195,173656
//Storyboard Layer 0 (Background)
//Storyboard Layer 1 (Fail)
//Storyboard Layer 2 (Pass)
//Storyboard Layer 3 (Foreground)
//Storyboard Layer 4 (Overlay)
//Storyboard Sound Samples

[TimingPoints]
849,337.078651685393,4,2,1,60,1,0
11635,-100,4,2,1,70,0,0
22084,-100,4,2,1,65,0,0
22422,-100,4,2,1,60,0,0
54781,-100,4,2,1,70,0,1
75680,-100,4,2,1,70,0,0
86804,-100,4,2,1,65,0,0
87141,-100,4,2,1,60,0,0
119500,-100,4,2,1,70,0,1
142422,-100,4,2,1,70,0,0
163995,-100,4,2,1,50,0,0
174781,-100,4,2,1,60,0,0
186747,-100,4,2,1,70,0,0
190961,-100,4,2,1,70,0,1
207141,-100,4,2,1,70,0,0
207478,-100,4,2,1,70,0,1
228714,-100,4,2,1,70,0,0
240933,-100,4,2,1,40,0,0

[Colours]
Combo1 : 199,142,255
Combo2 : 147,147,255
Combo3 : 255,145,200
Combo4 : 117,210,255

[HitObjects]
448,48,849,5,12,0:0:0:0:
64,160,2197,1,12,0:0:0:0:
415,352,3545,5,10,0:0:0:0:
311,181,4219,1,10,0:0:0:0:
215,357,4893,2,0,P|101:354|101:240,1,250,10|8,0:0|0:0,0:0:0:0:
140,212,5905,1,0,1:0:0:0:
226,261,6242,6,0,P|273:246|322:235,1,100,12|0,0:0|1:0,0:0:0:0:
336,187,6747,2,0,P|383:201|432:212,1,100,12|0,0:0|1:0,0:0:0:0:
482,213,7253,1,12,0:0:0:0:
456,116,7590,1,0,1:0:0:0:
456,116,7759,2,0,P|407:104|359:90,1,100,12|0,0:0|1:0,0:0:0:0:
320,60,8264,1,10,0:0:0:0:
252,133,8601,1,12,0:0:0:0:
163,86,8938,6,0,P|122:60|73:61,1,100,12|0,0:0|1:0,0:0:0:0:
32,94,9444,1,10,0:0:0:0:
92,175,9781,1,10,0:0:0:0:
29,253,10118,1,12,0:0:0:0:
29,253,11635,6,0,P|44:300|55:349,2,100,12|2|10,0:0|1:2|0:0,0:0:0:0:
64,217,12478,1,8,0:0:0:0:
64,217,12646,2,0,P|111:231|160:242,1,100,2|10,1:2|0:0,0:0:0:0:
198,274,13152,1,8,0:0:0:0:
242,184,13489,2,0,P|290:173|338:158,1,100,10|8,0:0|0:0,0:0:0:0:
376,126,13995,1,2,1:2:0:0:
450,192,14332,6,0,P|474:186|498:179,2,50,10|8|2,0:0|0:0|1:2,0:0:0:0:
382,264,15006,2,0,P|359:257|333:251,2,50,10|8|2,0:0|0:0|1:2,0:0:0:0:
458,332,15680,2,0,P|482:326|506:319,2,50,10|10|2,0:0|0:0|1:2,0:0:0:0:
428,372,16186,2,0,P|380:357|331:346,1,100,10|8,0:0|0:0,0:0:0:0:
281,350,16691,1,2,1:2:0:0:
205,283,17028,6,0,P|182:327|183:377,2,100,12|2|10,0:0|1:2|0:0,0:0:0:0:
234,242,17871,1,8,0:0:0:0:
234,242,18040,2,0,P|185:231|137:215,1,100,2|10,1:2|0:0,0:0:0:0:
89,229,18545,1,8,0:0:0:0:
122,134,18882,2,0,P|137:87|148:38,1,100,10|8,0:0|0:0,0:0:0:0:
182,0,19388,1,2,1:2:0:0:
246,76,19725,6,0,P|270:82|294:89,1,50,10|10,0:0|0:0,0:0:0:0:
337,115,20062,1,2,1:2:0:0:
413,50,20399,2,0,P|407:26|400:2,2,50,10|0|2,0:0|1:0|1:2,0:0:0:0:
455,75,20905,1,10,0:0:0:0:
424,170,21242,2,0,P|447:162|472:156,2,50,2|2|2,1:2|1:2|1:2,0:0:0:0:
294,89,22084,5,0,1:0:0:0:
208,141,22422,6,0,P|222:188|233:237,1,100,12|10,0:0|0:0,0:0:0:0:
333,235,23096,2,0,P|319:282|308:331,1,100,10|8,0:0|0:0,0:0:0:0:
348,360,23601,2,0,P|397:361|439:335,2,100,2|2|2,0:0|0:0|0:0,0:0:0:0:
307,331,24444,1,8,0:0:0:0:
220,380,24781,1,10,0:0:0:0:
156,302,25118,6,0,P|107:312|59:327,1,100,10|8,0:0|0:0,0:0:0:0:
0,246,25792,1,10,0:0:0:0:
90,204,26129,1,0,1:0:0:0:
90,204,26298,2,0,P|136:148|123:76,1,150,12|4,0:0|1:2,0:0:0:0:
38,22,27141,1,2,1:2:0:0:
136,39,27478,2,0,P|160:32|184:25,1,50,0|0,1:0|1:0,0:0:0:0:
229,45,27815,5,10,0:0:0:0:
326,22,28152,2,0,P|312:69|301:118,1,100,4|8,1:2|0:0,0:0:0:0:
216,171,28826,1,2,1:2:0:0:
303,218,29163,2,0,P|327:211|351:204,2,50,10|8|2,0:0|0:0|1:2,0:0:0:0:
218,270,29837,1,10,0:0:0:0:
220,369,30174,1,2,1:2:0:0:
305,317,30511,6,0,P|354:316|396:342,1,100,10|0,0:0|1:0,0:0:0:0:
437,370,31017,2,0,P|451:323|462:274,1,100,10|8,0:0|0:0,0:0:0:0:
504,246,31523,1,0,1:0:0:0:
504,246,31691,2,0,P|490:199|479:150,1,100,10|10,0:0|0:0,0:0:0:0:
484,99,32197,1,0,1:0:0:0:
392,138,32534,1,0,1:0:0:0:
405,39,32871,2,0,P|380:32|357:25,1,50,0|8,1:0|0:3,0:0:0:0:
309,8,33208,5,12,0:0:0:0:
248,87,33545,1,2,1:2:0:0:
155,47,33882,1,10,0:0:0:0:
155,47,34051,2,0,P|113:73|63:72,1,100,8|10,0:0|0:0,0:0:0:0:
6,153,34725,2,0,P|54:163|102:178,1,100,8|2,0:0|0:0,0:0:0:0:
128,221,35231,2,0,P|120:244|115:269,2,50,8|8|2,0:0|0:0|1:2,0:0:0:0:
220,182,35905,5,10,0:0:0:0:
299,242,36242,1,0,1:0:0:0:
299,242,36410,2,0,P|325:284|324:334,1,100,2|8,0:0|0:0,0:0:0:0:
288,368,36916,1,2,1:2:0:0:
288,368,37084,2,0,P|240:353|191:342,1,100,10|8,0:0|0:0,0:0:0:0:
146,363,37590,1,0,1:0:0:0:
48,342,37927,2,0,P|24:349|0:355,2,50,10|10|0,0:0|0:0|1:0,0:0:0:0:
114,269,38601,5,10,0:0:0:0:
27,218,38938,2,0,P|16:169|1:121,1,100,2|8,1:2|0:0,0:0:0:0:
99,141,39613,1,0,1:0:0:0:
64,47,39950,2,0,P|69:22|77:-1,2,50,10|8|2,0:0|0:0|1:2,0:0:0:0:
99,141,40624,2,0,P|146:126|195:115,1,100,10|2,0:0|1:2,0:0:0:0:
242,26,41298,6,0,P|291:25|333:51,1,100,10|0,0:0|1:0,0:0:0:0:
354,96,41804,2,0,P|403:97|445:71,1,100,10|10,0:0|0:0,0:0:0:0:
490,48,42309,1,0,1:0:0:0:
490,48,42478,2,0,P|475:95|464:144,1,100,12|8,0:0|0:3,0:0:0:0:
458,193,42983,1,8,0:3:0:0:
358,197,43320,2,0,P|365:220|371:245,2,50,8|8|8,0:3|0:3|0:3,0:0:0:0:
314,171,43826,1,0,1:0:0:0:
314,171,43995,6,0,L|215:188,1,100,12|2,0:0|0:0,0:0:0:0:
208,88,44669,2,0,L|109:105,1,100,2|2,0:0|0:0,0:0:0:0:
58,191,45343,2,0,L|8:199,2,50,2|0|2,0:0|0:0|0:0,0:0:0:0:
138,250,46017,1,2,0:0:0:0:
60,312,46354,1,10,0:0:0:0:
140,371,46691,6,0,L|239:354,1,100,12|2,0:0|1:2,0:0:0:0:
316,292,47365,1,2,1:2:0:0:
355,383,47702,2,0,L|454:366,1,100,12|0,0:0|1:0,0:0:0:0:
462,266,48377,1,8,0:0:0:0:
462,266,48546,2,0,L|363:283,1,100,8|8,0:0|0:0,0:0:0:0:
316,292,49051,1,2,1:2:0:0:
238,354,49388,6,0,P|227:305|211:257,1,100,12|0,0:0|1:0,0:0:0:0:
192,212,49893,1,8,0:0:0:0:
192,212,50062,2,0,P|150:185|100:186,1,100,2|0,0:0|1:0,0:0:0:0:
4,210,50736,2,0,P|19:162|30:113,1,100,10|0,0:0|1:0,0:0:0:0:
32,63,51242,1,8,0:0:0:0:
32,63,51410,2,0,P|73:89|122:89,1,100,2|0,0:0|1:2,0:0:0:0:
192,16,52084,6,0,P|239:31|288:42,1,100,12|2,0:0|1:2,0:0:0:0:
308,88,52590,1,8,0:0:0:0:
308,88,52759,2,0,P|355:72|404:61,1,100,2|2,1:2|1:2,0:0:0:0:
490,10,53433,1,2,1:2:0:0:
472,107,53770,1,2,1:2:0:0:
454,204,54107,1,2,1:2:0:0:
370,148,54444,2,0,P|346:139|321:134,1,50,8|0,1:0|1:0,0:0:0:0:
308,88,54781,6,0,P|266:114|216:113,1,100,12|0,0:0|1:0,0:0:0:0:
176,83,55287,1,2,3:2:0:0:
176,83,55455,2,0,P|165:131|148:179,1,100,8|0,0:0|1:0,0:0:0:0:
112,214,55961,1,10,0:0:0:0:
24,262,56298,1,10,0:0:0:0:
72,350,56635,2,0,P|119:364|168:376,1,100,10|8,0:0|0:0,0:0:0:0:
218,376,57141,1,0,1:0:0:0:
283,300,57478,5,10,0:0:0:0:
381,318,57815,2,0,P|430:318|472:292,1,100,0|8,1:0|0:0,0:0:0:0:
500,251,58320,1,10,0:0:0:0:
403,218,58657,2,0,P|388:170|376:121,1,100,12|8,0:0|0:0,0:0:0:0:
395,75,59163,1,2,1:2:0:0:
395,75,59332,2,0,P|347:89|298:101,1,100,10|8,0:0|0:0,0:0:0:0:
252,82,59837,1,2,1:2:0:0:
208,172,60174,6,0,P|213:196|221:220,2,50,12|0|0,0:0|0:0|1:0,0:0:0:0:
170,138,60680,2,0,P|121:138|79:164,1,100,10|8,0:0|0:0,0:0:0:0:
54,208,61186,1,0,1:0:0:0:
96,298,61523,2,0,P|72:305|47:310,2,50,10|8|0,0:0|0:0|1:0,0:0:0:0:
129,335,62028,2,0,P|177:321|226:309,1,100,10|8,0:0|0:0,0:0:0:0:
275,315,62534,1,2,1:2:0:0:
348,381,62871,6,0,P|370:337|370:288,1,100,12|0,0:0|1:0,0:0:0:0:
344,245,63377,1,10,0:0:0:0:
442,243,63714,1,10,0:0:0:0:
509,172,64051,2,0,P|497:123|482:75,1,100,12|0,0:0|1:0,0:0:0:0:
457,32,64556,1,2,1:2:0:0:
385,101,64893,1,12,0:3:0:0:
299,48,65231,2,0,P|291:71|286:96,1,50,0|0,1:0|1:0,0:0:0:0:
246,127,65568,6,0,P|204:101|154:101,1,100,12|0,0:0|1:0,0:0:0:0:
119,136,66073,1,2,3:2:0:0:
119,136,66242,2,0,P|69:136|27:110,1,100,8|0,0:0|1:0,0:0:0:0:
17,61,66747,1,10,0:0:0:0:
105,13,67084,1,10,0:0:0:0:
154,100,67422,2,0,P|168:147|180:196,1,100,10|8,0:0|0:0,0:0:0:0:
159,241,67927,1,2,1:2:0:0:
256,264,68264,6,0,P|270:216|282:167,1,100,12|0,0:0|1:0,0:0:0:0:
300,69,68938,2,0,P|276:76|251:82,2,50,8|10|0,0:0|0:0|1:0,0:0:0:0:
342,96,69444,2,0,P|384:70|434:70,1,100,12|8,0:0|0:0,0:0:0:0:
474,100,69950,1,0,1:0:0:0:
474,100,70118,2,0,P|459:147|447:196,1,100,12|8,0:0|0:0,0:0:0:0:
472,240,70624,1,0,1:0:0:0:
399,309,70961,6,0,P|352:294|303:282,1,100,12|0,0:0|1:0,0:0:0:0:
256,264,71466,1,10,0:0:0:0:
173,320,71804,2,0,P|167:295|160:271,1,50,8|0,0:0|1:0,0:0:0:0:
146,223,72141,2,0,P|96:222|54:196,1,100,2|8,0:0|0:0,0:0:0:0:
33,156,72646,1,0,1:0:0:0:
33,156,72815,2,0,P|48:109|60:60,1,100,10|8,0:0|0:0,0:0:0:0:
67,10,73320,1,2,1:2:0:0:
150,67,73657,6,0,P|197:52|246:40,1,100,12|0,0:0|1:0,0:0:0:0:
298,54,74163,1,8,0:0:0:0:
298,54,74332,1,0,1:0:0:0:
321,151,74669,2,0,P|271:150|229:124,1,100,10|0,0:0|1:0,0:0:0:0:
190,155,75174,1,8,0:0:0:0:
190,155,75343,2,0,P|205:202|217:251,1,100,0|2,1:0|1:2,0:0:0:0:
234,299,75848,1,2,1:2:0:0:
234,299,86804,5,0,1:0:0:0:
320,248,87141,5,12,0:0:0:0:
232,199,87478,2,0,P|183:188|135:173,1,100,2|8,1:2|0:0,0:0:0:0:
62,104,88152,1,0,1:0:0:0:
62,104,88320,2,0,P|36:145|37:194,1,100,10|8,0:0|0:0,0:0:0:0:
66,235,88826,1,0,1:0:0:0:
47,333,89163,2,0,P|22:338|-1:345,2,50,8|8|0,0:0|0:0|1:0,0:0:0:0:
142,301,89837,5,10,0:0:0:0:
218,367,90174,1,0,1:0:0:0:
218,367,90343,2,0,P|267:368|309:342,1,100,2|8,0:0|0:0,0:0:0:0:
358,347,90848,1,0,1:0:0:0:
358,347,91017,2,0,P|337:274|319:202,1,150,10|0,0:0|1:0,0:0:0:0:
256,123,91860,1,10,0:0:0:0:
312,39,92197,1,2,1:2:0:0:
409,66,92534,5,10,0:0:0:0:
413,166,92871,2,0,P|365:181|319:201,1,100,0|10,1:0|0:0,0:0:0:0:
256,123,93545,1,2,1:2:0:0:
196,202,93882,2,0,P|188:225|183:250,2,50,10|8|0,0:0|0:0|1:0,0:0:0:0:
133,124,94556,1,10,0:0:0:0:
73,203,94893,1,2,1:2:0:0:
10,125,95231,6,0,P|20:76|36:28,1,100,10|0,0:0|1:0,0:0:0:0:
83,8,95736,2,0,P|132:6|174:32,1,100,10|8,0:0|0:0,0:0:0:0:
215,64,96242,1,0,1:0:0:0:
215,64,96410,2,0,P|262:50|311:39,1,100,10|10,0:0|0:0,0:0:0:0:
354,12,96916,1,0,1:0:0:0:
437,66,97253,1,0,1:0:0:0:
383,149,97590,2,0,P|375:172|369:196,1,50,0|8,1:0|0:3,0:0:0:0:
356,245,97927,5,12,0:0:0:0:
439,299,98264,1,2,1:2:0:0:
385,382,98601,1,10,0:0:0:0:
385,382,98770,2,0,P|335:383|293:357,1,100,8|10,0:0|0:0,0:0:0:0:
224,285,99444,2,0,P|176:299|127:310,1,100,8|2,0:0|0:0,0:0:0:0:
84,336,99950,2,0,P|92:359|98:383,2,50,8|8|2,0:0|0:0|1:2,0:0:0:0:
13,264,100624,5,10,0:0:0:0:
83,192,100961,1,0,1:0:0:0:
83,192,101129,2,0,P|131:181|179:165,1,100,2|8,0:0|0:0,0:0:0:0:
212,203,101635,1,2,1:2:0:0:
212,203,101804,2,0,P|260:213|308:229,1,100,10|8,0:0|0:0,0:0:0:0:
356,245,102309,1,0,1:0:0:0:
416,324,102646,2,0,P|409:348|403:372,2,50,10|10|0,0:0|0:0|1:0,0:0:0:0:
495,264,103320,5,10,0:0:0:0:
435,185,103657,2,0,P|409:144|410:95,1,100,2|8,1:2|0:0,0:0:0:0:
478,20,104332,1,0,1:0:0:0:
389,67,104669,2,0,P|364:62|341:54,2,50,10|8|2,0:0|0:0|1:2,0:0:0:0:
326,144,105343,2,0,P|277:154|229:170,1,100,8|2,0:0|1:2,0:0:0:0:
152,105,106017,6,0,P|137:152|126:201,1,100,10|0,0:0|1:0,0:0:0:0:
83,228,106523,2,0,P|97:275|108:324,1,100,10|10,0:0|0:0,0:0:0:0:
150,352,107028,1,0,1:0:0:0:
150,352,107197,2,0,P|191:326|240:327,1,100,12|8,0:0|0:3,0:0:0:0:
283,353,107702,1,8,0:3:0:0:
352,280,108040,1,8,0:3:0:0:
425,349,108377,2,0,P|449:355|473:361,1,50,8|0,0:3|1:0,0:0:0:0:
506,324,108714,6,0,L|488:225,1,100,12|2,0:0|0:0,0:0:0:0:
396,188,109388,2,0,L|378:89,1,100,2|2,0:0|0:0,0:0:0:0:
286,52,110062,2,0,L|277:2,2,50,2|0|2,0:0|0:0|0:0,0:0:0:0:
208,114,110736,1,2,0:0:0:0:
116,78,111073,1,10,0:0:0:0:
38,140,111410,6,0,L|55:238,1,100,12|2,0:0|1:2,0:0:0:0:
148,275,112084,1,2,1:2:0:0:
225,212,112422,2,0,L|207:113,1,100,12|0,0:0|1:0,0:0:0:0:
286,52,113096,1,8,0:0:0:0:
286,52,113264,2,0,P|327:78|376:77,1,100,10|8,0:0|0:0,0:0:0:0:
420,51,113770,1,2,1:2:0:0:
476,133,114107,6,0,P|502:174|501:223,1,100,12|0,0:0|1:0,0:0:0:0:
460,254,114613,1,8,0:0:0:0:
460,254,114781,2,0,P|413:239|364:228,1,100,2|0,0:0|1:0,0:0:0:0:
263,235,115455,2,0,P|237:276|238:325,1,100,10|0,0:0|1:0,0:0:0:0:
279,356,115961,1,8,0:0:0:0:
279,356,116129,2,0,P|326:341|375:330,1,100,2|0,0:0|1:2,0:0:0:0:
363,227,116804,6,0,P|347:179|336:130,1,100,12|0,0:0|1:0,0:0:0:0:
366,91,117309,1,4,0:3:0:0:
366,91,117478,2,0,P|317:80|269:64,1,100,0|0,1:0|1:0,0:0:0:0:
196,0,118152,1,0,1:0:0:0:
100,26,118489,1,0,1:0:0:0:
4,52,118826,1,4,1:2:0:0:
74,123,119163,2,0,P|80:147|86:171,1,50,8|0,1:0|0:0,0:0:0:0:
52,208,119500,6,0,P|101:206|143:232,1,100,12|0,0:0|1:0,0:0:0:0:
160,279,120006,1,2,3:2:0:0:
160,279,120174,2,0,P|208:290|256:304,1,100,8|0,0:0|1:0,0:0:0:0:
295,336,120680,1,10,0:0:0:0:
368,268,121017,1,8,0:0:0:0:
300,195,121354,2,0,P|298:146|324:104,1,100,10|8,0:0|0:0,0:0:0:0:
369,82,121860,1,0,1:0:0:0:
404,175,122197,5,10,0:0:0:0:
503,177,122534,2,0,P|488:224|477:273,1,100,0|8,1:0|0:0,0:0:0:0:
481,323,123040,1,10,0:0:0:0:
386,360,123377,2,0,P|337:362|295:336,1,100,12|8,0:0|0:0,0:0:0:0:
265,295,123882,1,2,1:2:0:0:
265,295,124051,2,0,P|216:293|174:319,1,100,10|8,0:0|0:0,0:0:0:0:
148,361,124556,1,2,1:2:0:0:
60,312,124893,6,0,P|35:316|11:323,2,50,12|0|0,0:0|0:0|1:0,0:0:0:0:
90,271,125399,2,0,P|74:223|63:174,1,100,10|8,0:0|0:0,0:0:0:0:
81,127,125905,1,0,1:0:0:0:
170,171,126242,6,0,P|174:195|181:219,2,50,10|10|0,0:0|0:0|1:0,0:0:0:0:
187,123,126747,2,0,P|228:96|278:98,1,100,10|8,0:0|0:0,0:0:0:0:
322,121,127253,1,2,1:2:0:0:
271,207,127590,6,0,P|269:256|295:298,1,100,12|0,0:0|1:0,0:0:0:0:
341,317,128096,1,10,0:0:0:0:
341,317,128264,2,0,P|334:340|329:365,2,50,0|10|0,1:0|0:0|1:0,0:0:0:0:
380,286,128770,2,0,P|428:274|476:260,1,100,12|0,0:0|1:0,0:0:0:0:
512,226,129275,1,2,1:2:0:0:
434,162,129612,1,12,0:3:0:0:
498,84,129950,2,0,P|502:59|509:35,1,50,0|0,1:0|1:0,0:0:0:0:
460,26,130287,6,0,P|410:25|368:0,1,100,12|0,0:0|1:0,0:0:0:0:
320,11,130792,1,2,3:2:0:0:
320,11,130961,2,0,P|305:58|294:107,1,100,8|0,0:0|1:0,0:0:0:0:
300,156,131466,1,10,0:0:0:0:
208,115,131803,1,8,0:0:0:0:
219,214,132141,2,0,P|234:261|245:310,1,100,10|8,0:0|0:0,0:0:0:0:
236,359,132646,1,2,1:2:0:0:
149,309,132983,6,0,P|99:309|56:335,1,100,12|0,0:0|1:0,0:0:0:0:
61,235,133657,2,0,P|85:229|109:222,2,50,8|10|0,0:0|0:0|1:0,0:0:0:0:
25,200,134163,2,0,P|0:157|-1:107,1,100,12|8,0:0|0:0,0:0:0:0:
25,65,134669,1,0,1:0:0:0:
25,65,134837,2,0,P|72:80|121:91,1,100,12|8,0:0|0:0,0:0:0:0:
158,125,135343,1,0,1:0:0:0:
252,91,135680,6,0,P|300:80|348:64,1,100,12|0,0:0|1:0,0:0:0:0:
390,38,136185,1,10,0:0:0:0:
476,88,136523,2,0,P|482:112|488:136,1,50,8|0,0:0|1:0,0:0:0:0:
459,177,136860,2,0,P|416:151|367:150,1,100,2|8,0:0|0:0,0:0:0:0:
326,179,137365,1,0,1:0:0:0:
326,179,137534,2,0,P|310:226|299:275,1,100,10|8,0:0|0:0,0:0:0:0:
324,319,138040,1,2,1:2:0:0:
245,381,138377,6,0,P|197:365|148:354,1,100,12|0,0:0|1:0,0:0:0:0:
98,350,138882,1,8,0:0:0:0:
98,350,139051,1,0,1:0:0:0:
112,251,139388,2,0,P|160:240|208:224,1,100,10|0,0:0|1:0,0:0:0:0:
243,189,139893,1,8,0:0:0:0:
243,189,140062,2,0,P|242:139|216:97,1,100,0|2,1:0|1:2,0:0:0:0:
172,74,140567,1,2,1:2:0:0:
110,151,140905,6,0,P|42:33|172:73,1,350,12|0,0:0|1:0,0:0:0:0:
213,164,142422,6,0,P|260:179|309:191,1,100,12|0,0:0|1:0,0:0:0:0:
360,276,143096,2,0,P|336:282|312:289,2,50,10|10|0,0:0|0:0|1:0,0:0:0:0:
404,254,143601,2,0,P|415:205|431:157,1,100,10|8,0:0|0:0,0:0:0:0:
454,113,144107,1,0,1:0:0:0:
454,113,144275,2,0,P|404:111|362:85,1,100,10|8,0:0|0:0,0:0:0:0:
336,43,144781,1,0,1:0:0:0:
247,89,145118,6,0,P|198:100|150:116,1,100,10|0,0:0|1:0,0:0:0:0:
72,54,145792,2,0,P|78:30|85:6,2,50,10|8|0,0:0|0:0|1:0,0:0:0:0:
32,85,146298,2,0,P|47:132|59:181,1,100,12|10,0:0|0:0,0:0:0:0:
105,200,146804,1,0,1:0:0:0:
105,200,146972,2,0,P|130:242|132:291,1,100,10|8,0:0|0:0,0:0:0:0:
107,334,147478,1,0,1:0:0:0:
196,379,147815,6,0,P|243:364|292:352,1,100,12|10,0:0|1:2,0:0:0:0:
360,276,148489,2,0,P|383:283|408:289,2,50,10|8|0,0:0|0:0|1:0,0:0:0:0:
333,233,148995,1,10,0:0:0:0:
333,233,149163,2,0,P|286:248|237:260,1,100,10|2,0:0|1:2,0:0:0:0:
192,235,149669,1,8,0:0:0:0:
192,235,149837,2,0,P|186:210|178:186,1,50,10|10,0:0|0:0,0:0:0:0:
155,142,150174,1,0,1:2:0:0:
254,148,150511,6,0,P|303:146|346:121,1,100,10|2,0:0|1:2,0:0:0:0:
416,50,151186,2,0,P|423:26|429:1,2,50,10|8|0,0:0|0:0|1:0,0:0:0:0:
441,92,151691,1,12,0:0:0:0:
346,121,152028,2,0,P|353:144|359:169,1,50,0|2,1:0|1:2,0:0:0:0:
352,218,152365,2,0,P|399:202|448:190,1,100,8|10,0:3|0:0,0:0:0:0:
497,184,152871,1,10,0:0:0:0:
452,273,153208,5,12,0:0:0:0:
474,374,153545,1,2,1:2:0:0:
474,374,153714,2,0,P|431:348|381:346,1,100,10|10,0:0|0:0,0:0:0:0:
338,369,154219,1,0,1:0:0:0:
267,297,154556,2,0,P|291:291|315:283,2,50,10|8|0,0:0|0:0|1:0,0:0:0:0:
226,326,155062,2,0,P|214:277|198:230,1,100,10|10,0:0|0:0,0:0:0:0:
176,184,155568,1,0,1:0:0:0:
103,252,155905,5,10,0:0:0:0:
15,203,156242,1,0,1:0:0:0:
34,104,156579,2,0,P|28:79|20:55,2,50,10|10|2,0:0|0:0|1:2,0:0:0:0:
80,122,157084,2,0,P|129:124|171:98,1,100,12|8,0:0|0:0,0:0:0:0:
193,53,157590,1,0,1:0:0:0:
193,53,157759,2,0,P|240:69|289:81,1,100,10|8,0:0|0:0,0:0:0:0:
338,82,158264,1,2,1:2:0:0:
271,156,158601,6,0,P|222:167|175:183,1,100,12|0,0:0|1:0,0:0:0:0:
103,252,159275,2,0,P|95:275|89:299,2,50,10|10|0,0:0|0:0|1:0,0:0:0:0:
149,269,159781,2,0,P|190:295|240:293,1,100,10|8,0:0|0:0,0:0:0:0:
273,330,160287,1,0,1:0:0:0:
273,330,160455,2,0,P|314:303|364:305,1,100,10|10,0:0|0:0,0:0:0:0:
411,323,160961,1,2,1:2:0:0:
462,237,161298,6,0,P|437:230|414:223,1,50,10|2,0:0|0:0,0:0:0:0:
364,212,161635,1,2,1:2:0:0:
288,146,161972,2,0,P|264:153|240:159,2,50,10|10|0,0:0|0:0|1:0,0:0:0:0:
329,118,162478,2,0,P|330:68|304:26,1,100,12|0,0:0|1:0,0:0:0:0:
259,5,162983,1,0,1:0:0:0:
186,74,163320,1,12,0:3:0:0:
88,43,163657,2,0,P|63:50|40:58,1,50,4|0,0:3|1:0,0:0:0:0:
0,87,163995,5,12,0:0:0:0:
0,87,174781,6,0,P|13:135|25:183,1,100,4|8,3:1|0:0,0:0:0:0:
52,225,175287,2,0,P|101:227|142:200,1,100,2|0,0:0|0:0,0:0:0:0:
192,204,175792,1,10,0:0:0:0:
192,204,175961,2,0,P|179:252|166:300,1,100,0|0,1:0|0:0,0:0:0:0:
147,346,176466,1,10,0:0:0:0:
245,325,176804,1,10,0:0:0:0:
328,379,177141,1,10,0:0:0:0:
334,281,177478,6,0,P|382:268|430:255,1,100,10|10,0:0|0:0,0:0:0:0:
480,258,177983,2,0,P|507:299|505:348,1,100,0|0,1:0|0:0,0:0:0:0:
470,384,178489,1,10,0:0:0:0:
470,384,178657,2,0,P|421:370|373:358,1,100,4|2,1:2|1:2,0:0:0:0:
328,379,179163,1,8,0:0:0:0:
245,325,179500,2,0,P|238:300|232:276,1,50,10|0,0:0|1:0,0:0:0:0:
256,233,179837,2,0,P|249:208|243:184,1,50,0|0,1:0|1:0,0:0:0:0:
246,134,180174,6,0,P|197:147|149:159,1,100,12|0,0:0|1:0,0:0:0:0:
112,192,180680,1,10,0:0:0:0:
112,192,180848,2,0,P|63:178|15:166,1,100,2|0,0:0|1:0,0:0:0:0:
11,66,181523,2,0,P|59:79|107:91,1,100,10|0,0:0|1:0,0:0:0:0:
144,58,182028,1,10,0:0:0:0:
144,58,182197,2,0,P|192:44|240:32,1,100,2|0,0:0|1:0,0:0:0:0:
317,95,182871,6,0,P|366:92|407:119,1,100,12|0,0:0|1:0,0:0:0:0:
455,134,183377,1,10,0:0:0:0:
455,134,183545,2,0,P|482:92|479:43,1,100,2|2,1:2|1:2,0:0:0:0:
383,17,184219,1,2,1:2:0:0:
317,95,184556,1,2,1:2:0:0:
339,194,184893,1,2,1:2:0:0:
339,194,186748,5,2,1:2:0:0:
317,95,187085,1,2,1:2:0:0:
383,17,187422,1,2,1:2:0:0:
284,0,187759,1,10,0:0:0:0:
284,0,187927,2,0,P|259:6|235:12,1,50,8|0,0:0|1:0,0:0:0:0:
185,18,188264,5,10,0:0:0:0:
137,106,188601,2,0,P|186:103|227:130,1,100,2|10,1:2|0:0,0:0:0:0:
256,171,189107,1,10,0:0:0:0:
160,204,189444,2,0,P|145:251|134:300,1,100,12|4,0:0|0:3,0:0:0:0:
120,348,189950,1,4,1:2:0:0:
120,348,190119,2,0,P|70:350|29:323,1,100,0|0,1:0|1:0,0:0:0:0:
10,278,190624,1,10,0:0:0:0:
14,178,190961,6,0,P|7:153|1:129,2,50,12|0|0,0:0|0:0|1:0,0:0:0:0:
63,177,191466,2,0,P|110:192|159:203,1,100,10|8,0:0|0:0,0:0:0:0:
207,189,191972,1,0,1:0:0:0:
182,287,192309,2,0,P|157:293|133:299,2,50,10|8|0,0:0|0:0|1:0,0:0:0:0:
230,273,192815,2,0,P|278:283|326:299,1,100,10|8,0:0|0:0,0:0:0:0:
358,337,193320,1,2,1:2:0:0:
445,288,193657,6,0,P|447:238|420:197,1,100,12|0,0:0|1:0,0:0:0:0:
394,154,194163,1,10,0:0:0:0:
394,154,194332,2,0,P|400:129|406:105,2,50,0|10|0,1:0|0:0|1:0,0:0:0:0:
347,172,194837,2,0,P|299:156|250:145,1,100,12|0,0:0|1:0,0:0:0:0:
200,142,195342,1,2,1:2:0:0:
256,59,195679,1,12,0:3:0:0:
173,3,196017,2,0,P|148:9|124:13,1,50,0|0,1:0|1:0,0:0:0:0:
76,27,196354,6,0,P|86:75|102:123,1,100,12|0,0:0|1:0,0:0:0:0:
118,170,196860,1,2,3:2:0:0:
118,170,197028,2,0,P|68:167|27:194,1,100,8|0,0:0|1:0,0:0:0:0:
6,239,197534,1,10,0:0:0:0:
66,318,197870,1,10,0:0:0:0:
152,264,198208,2,0,P|201:261|242:288,1,100,10|8,0:0|0:0,0:0:0:0:
271,329,198714,1,2,1:2:0:0:
320,242,199051,6,0,P|334:194|345:145,1,100,12|0,0:0|1:0,0:0:0:0:
279,72,199724,2,0,P|255:79|230:85,2,50,8|10|0,0:0|0:0|1:0,0:0:0:0:
320,42,200231,2,0,P|361:69|410:66,1,100,12|8,0:0|0:0,0:0:0:0:
455,45,200736,1,0,1:0:0:0:
455,45,200905,2,0,P|470:92|481:141,1,100,12|8,0:0|0:0,0:0:0:0:
473,190,201410,1,0,1:0:0:0:
410,266,201747,6,0,P|368:238|319:241,1,100,12|0,0:0|1:0,0:0:0:0:
275,264,202253,1,10,0:0:0:0:
224,177,202590,2,0,P|199:171|175:164,1,50,8|0,0:0|1:0,0:0:0:0:
157,117,202927,2,0,P|109:131|60:142,1,100,2|8,0:0|0:0,0:0:0:0:
12,128,203433,1,0,1:0:0:0:
12,128,203601,2,0,P|40:170|37:219,1,100,10|8,0:0|0:0,0:0:0:0:
15,262,204107,1,2,1:2:0:0:
48,356,204444,6,0,P|95:342|144:331,1,100,12|0,0:0|1:0,0:0:0:0:
183,299,204950,1,8,0:0:0:0:
183,299,205118,1,0,1:0:0:0:
275,264,205455,2,0,P|288:311|299:360,1,100,10|2,0:0|1:2,0:0:0:0:
345,380,205961,1,8,0:0:0:0:
345,380,206129,2,0,P|370:373|394:367,1,50,0|8,1:0|0:0,0:0:0:0:
408,319,206466,2,0,P|433:313|457:305,1,50,2|10,1:2|0:0,0:0:0:0:
473,258,206804,1,2,1:2:0:0:
385,209,207141,5,12,0:3:0:0:
457,139,207478,1,4,1:2:0:0:
457,139,207646,2,0,P|408:128|360:114,1,100,2|8,0:0|0:0,0:0:0:0:
280,54,208320,2,0,P|238:82|189:79,1,100,10|8,0:0|0:0,0:0:0:0:
152,45,208826,1,0,1:0:0:0:
152,45,208995,2,0,P|102:42|62:70,1,100,10|8,0:0|0:0,0:0:0:0:
39,113,209500,1,0,1:0:0:0:
103,189,209837,5,10,0:0:0:0:
32,259,210174,2,0,P|81:270|129:284,1,100,0|8,1:0|0:0,0:0:0:0:
169,313,210680,1,10,0:0:0:0:
207,220,211017,2,0,P|247:192|296:195,1,100,12|8,0:0|0:0,0:0:0:0:
334,227,211523,1,2,1:2:0:0:
334,227,211691,2,0,P|381:240|430:251,1,100,10|8,0:0|0:0,0:0:0:0:
480,251,212197,1,2,1:2:0:0:
425,334,212534,6,0,P|431:358|437:382,2,50,12|0|0,0:0|0:0|1:0,0:0:0:0:
377,316,213040,2,0,P|336:343|286:341,1,100,10|8,0:0|0:0,0:0:0:0:
264,296,213545,1,0,1:0:0:0:
169,313,213882,2,0,P|163:337|157:361,2,50,10|8|0,0:0|0:0|1:0,0:0:0:0:
170,262,214388,2,0,P|121:251|73:237,1,100,10|8,0:0|0:0,0:0:0:0:
29,214,214893,1,2,1:2:0:0:
98,141,215231,6,0,P|99:91|72:50,1,100,12|0,0:0|1:0,0:0:0:0:
30,24,215736,1,10,0:0:0:0:
0,119,216073,1,10,0:0:0:0:
98,141,216410,2,0,P|146:127|194:116,1,100,12|0,0:0|1:0,0:0:0:0:
244,125,216916,1,2,1:2:0:0:
320,60,217253,1,12,0:3:0:0:
381,139,217590,2,0,P|405:133|429:127,1,50,0|0,1:0|1:0,0:0:0:0:
478,135,217927,6,0,P|505:175|502:224,1,100,12|0,0:0|1:0,0:0:0:0:
456,244,218433,1,2,3:2:0:0:
456,244,218601,2,0,P|442:292|431:340,1,100,8|0,0:0|1:0,0:0:0:0:
399,379,219107,1,10,0:0:0:0:
317,321,219444,1,10,0:0:0:0:
225,363,219781,2,0,P|214:314|200:266,1,100,10|8,0:0|0:0,0:0:0:0:
183,218,220287,1,2,1:2:0:0:
281,236,220624,6,0,P|329:239|370:211,1,100,12|0,0:0|1:0,0:0:0:0:
381,114,221298,2,0,P|405:121|430:127,2,50,8|10|0,0:0|0:0|1:0,0:0:0:0:
343,80,221804,2,0,P|294:93|246:104,1,100,12|8,0:0|0:0,0:0:0:0:
206,134,222309,1,0,1:0:0:0:
206,134,222478,2,0,P|195:85|181:37,1,100,12|8,0:0|0:0,0:0:0:0:
146,2,222983,1,0,1:0:0:0:
71,68,223320,6,0,P|84:115|95:164,1,100,12|0,0:0|1:0,0:0:0:0:
90,214,223825,1,10,0:0:0:0:
189,221,224163,2,0,P|182:245|176:270,1,50,8|0,0:0|1:0,0:0:0:0:
157,315,224500,2,0,P|205:325|253:339,1,100,2|8,0:0|0:0,0:0:0:0:
293,369,225006,1,0,1:0:0:0:
293,369,225174,2,0,P|333:340|382:343,1,100,10|8,0:0|0:0,0:0:0:0:
427,364,225680,1,2,1:2:0:0:
476,277,226017,6,0,P|427:265|379:249,1,100,12|0,0:0|1:0,0:0:0:0:
334,229,226523,1,8,0:0:0:0:
334,229,226691,1,0,1:0:0:0:
262,300,227028,2,0,P|236:257|235:208,1,100,10|0,0:0|1:0,0:0:0:0:
249,160,227534,1,10,0:0:0:0:
249,160,227702,2,0,P|297:148|345:132,1,100,0|2,1:0|1:2,0:0:0:0:
387,105,228207,1,2,1:2:0:0:
276,2,228714,6,0,P|323:17|372:28,2,100,12|2|10,0:0|1:2|0:0,0:0:0:0:
243,39,229556,1,8,0:0:0:0:
243,39,229725,2,0,P|203:10|154:12,1,100,2|10,1:2|0:0,0:0:0:0:
115,44,230231,1,8,0:0:0:0:
16,29,230568,2,0,P|30:76|42:125,1,100,10|8,0:0|0:0,0:0:0:0:
81,156,231073,1,0,1:0:0:0:
180,151,231410,6,0,P|172:174|166:199,2,50,10|8|2,0:0|0:0|1:2,0:0:0:0:
256,87,232084,2,0,P|248:63|242:38,2,50,10|8|2,0:0|0:0|1:2,0:0:0:0:
337,143,232759,2,0,P|329:166|323:191,2,50,10|8|0,0:0|0:0|1:0,0:0:0:0:
369,105,233264,2,0,P|418:103|457:132,1,100,10|8,0:0|0:0,0:0:0:0:
483,175,233770,1,2,1:2:0:0:
423,255,234107,6,0,P|438:302|449:351,2,100,10|2|10,0:0|1:2|0:0,0:0:0:0:
384,222,234950,1,8,0:0:0:0:
384,222,235118,2,0,P|336:237|287:248,1,100,2|10,1:2|0:0,0:0:0:0:
239,233,235624,1,8,0:0:0:0:
221,331,235961,2,0,P|181:360|132:358,1,100,10|8,0:0|0:0,0:0:0:0:
86,338,236466,1,0,1:0:0:0:
17,265,236804,6,0,P|24:241|30:216,1,50,10|10,0:0|0:0,0:0:0:0:
20,167,237141,1,2,1:2:0:0:
119,153,237478,2,0,P|112:128|105:104,2,50,10|0|2,0:0|1:0|1:2,0:0:0:0:
129,202,237983,1,10,0:0:0:0:
223,168,238320,2,0,P|246:175|271:181,2,50,2|2|2,1:2|1:2|1:2,0:0:0:0:
212,118,238826,2,0,P|210:68|239:29,1,100,0|0,1:0|1:0,0:0:0:0:
285,9,239332,5,10,0:0:0:0:
374,54,239669,2,0,P|398:47|422:40,2,50,2|2|2,1:2|1:2|1:2,0:0:0:0:
345,95,240174,2,0,P|330:143|319:192,1,100,8|0,0:3|1:0,0:0:0:0:
357,283,240848,5,12,0:0:0:0:
256,192,240933,12,8,243545,0:0:0:0:
