osu file format v14

[General]
AudioFilename: audio.mp3
AudioLeadIn: 0
PreviewTime: 94795
Countdown: 0
SampleSet: None
StackLeniency: 0.2
Mode: 0
LetterboxInBreaks: 0
WidescreenStoryboard: 1

[Editor]
Bookmarks: 55003,94794,121774,151253,165003,191461,218753
DistanceSpacing: 1.6
BeatDivisor: 4
GridSize: 16
TimelineZoom: 1.4

[Metadata]
Title:Disarm You ft. Ilsey (Grey Remix)
TitleUnicode:Disarm You ft. Ilsey (Grey Remix)
Artist:Kaskade
ArtistUnicode:Kaskade
Creator:Orenjijusu
Version:o
Source:
Tags:
BeatmapID:1589265
BeatmapSetID:754862

[Difficulty]
HPDrainRate:6
CircleSize:4
OverallDifficulty:8
ApproachRate:9.6
SliderMultiplier:1.5
SliderTickRate:1

[Events]
//Background and Video events
0,0,"67870146_p0.jpg",0,0
//Break Periods
2,151453,164494
//Storyboard Layer 0 (Background)
//Storyboard Layer 1 (Fail)
//Storyboard Layer 2 (Pass)
//Storyboard Layer 3 (Foreground)
//Storyboard Sound Samples

[TimingPoints]
27920,416.666666666667,4,1,0,65,1,0
41044,-66.6666666666667,4,1,0,30,0,0
54169,-100,4,1,0,30,0,0
55003,-100,4,3,0,80,0,0
68336,-80,4,1,0,30,0,0
69586,-163.265306122449,4,1,0,30,0,0
70211,-64.5161290322581,4,1,0,30,0,0
70628,-80,4,1,0,30,0,0
71670,-68.9655172413793,4,1,0,30,0,0
72920,-163.265306122449,4,1,0,30,0,0
73545,-60.6060606060606,4,1,0,30,0,0
73961,-80,4,1,0,30,0,0
75003,-250,4,1,0,30,0,0
75628,-80,4,1,0,30,0,0
76253,-250,4,1,0,30,0,0
76878,-60.6060606060606,4,1,0,30,0,0
77295,-80,4,1,0,30,0,0
78336,-60.6060606060606,4,1,0,30,0,0
81461,-57.1428571428571,4,1,0,30,0,0
82086,-80,4,3,0,75,0,0
82920,-133.333333333333,4,1,0,30,0,0
83545,-57.1428571428571,4,1,0,30,0,0
84586,-57.1428571428571,4,3,0,75,0,0
85628,-80,4,3,0,75,0,0
86253,-250,4,1,0,30,0,0
86878,-50,4,1,0,30,0,0
87295,-80,4,3,0,75,0,0
88336,-45.4545454545455,4,1,0,30,0,0
88961,-66.6666666666667,4,3,0,75,0,0
89586,-43.4782608695652,4,1,0,30,0,0
90211,-133.333333333333,4,1,0,30,0,0
90628,-66.6666666666667,4,3,0,75,0,0
91670,-43.4782608695652,4,1,0,30,0,0
92295,-57.1428571428571,4,3,0,75,0,0
94170,-40,4,1,0,30,0,0
94795,-250,4,1,0,30,0,1
96878,-41.6666666666667,4,1,0,30,0,1
97711,-31.25,4,1,0,30,0,1
98336,-250,4,1,0,30,0,1
100211,-62.5,4,1,0,30,0,1
100836,-41.6666666666667,4,1,0,30,0,1
101670,-250,4,1,0,30,0,1
103545,-31.25,4,1,0,30,0,1
104586,-62.5,4,1,0,30,0,1
105003,-250,4,1,0,30,0,1
106253,-166.666666666667,4,1,0,30,0,1
106670,-100,4,1,0,30,0,1
108128,-250,4,1,0,30,0,1
108961,-50,4,1,0,30,0,1
109170,-41.6666666666667,4,1,0,30,0,1
109378,-35.7142857142857,4,1,0,30,0,1
109586,-250,4,1,0,30,0,1
110420,-40,4,1,0,30,0,1
110836,-33.3333333333333,4,1,0,30,0,1
111045,-28.5714285714286,4,1,0,30,0,1
111253,-25,4,1,0,30,0,1
111670,-250,4,1,0,30,0,1
112295,-33.3333333333333,4,1,0,30,0,1
112503,-28.5714285714286,4,1,0,30,0,1
112711,-25,4,1,0,30,0,1
112920,-200,4,1,0,30,0,1
113545,-25,4,1,0,30,0,1
113961,-33.3333333333333,4,1,0,30,0,1
114170,-28.5714285714286,4,1,0,30,0,1
114378,-25,4,1,0,30,0,1
114586,-22.2222222222222,4,1,0,30,0,1
114795,-20,4,1,0,30,0,1
115003,-250,4,1,0,30,0,1
117086,-33.3333333333333,4,1,0,30,0,1
118336,-250,4,1,0,30,0,1
120211,-50,4,1,0,30,0,1
120628,-100,4,1,0,30,0,1
121045,-50,4,1,0,30,0,1
121461,-133.333333333333,4,1,0,30,0,0
121774,-100,4,1,0,30,0,0
165003,-66.6666666666667,4,1,0,30,0,0
166253,-133.333333333333,4,1,0,30,0,0
168336,-57.1428571428571,4,1,0,30,0,0
169586,-250,4,1,0,30,0,0
171670,-50,4,1,0,30,0,0
172920,-333.333333333333,4,1,0,30,0,0
174586,-100,4,1,0,30,0,0
175003,-50,4,1,0,30,0,0
176253,-250,4,1,0,30,0,0
176670,-50,4,1,0,30,0,0
178128,-100,4,1,0,30,0,0
179586,-250,4,1,0,30,0,0
180211,-40,4,1,0,30,0,0
181253,-100,4,1,0,30,0,0
181670,-55.5555555555556,4,1,0,30,0,0
182920,-250,4,1,0,30,0,0
183545,-41.6666666666667,4,1,0,30,0,0
183961,-50,4,1,0,30,0,0
185003,-45.4545454545455,4,1,0,30,0,0
186253,-250,4,1,0,30,0,0
186878,-30.3030303030303,4,1,0,30,0,0
187920,-50,4,1,0,30,0,0
189586,-50,4,1,0,30,0,0
190836,-200,4,1,0,30,0,0
191461,-250,4,1,0,30,0,1
192920,-125,4,1,0,30,0,1
193545,-62.5,4,1,0,30,0,1
193961,-62.5,4,1,0,30,0,1
195003,-250,4,1,0,30,0,1
195628,-57.1428571428571,4,1,0,30,0,1
196670,-33.3333333333333,4,1,0,30,0,1
197295,-100,4,1,0,30,0,1
198336,-250,4,1,0,30,0,1
200211,-40,4,1,0,30,0,1
201670,-250,4,1,0,30,0,1
202295,-100,4,1,0,30,0,1
204795,-250,4,1,0,30,0,1
206670,-50,4,1,0,30,0,1
208336,-250,4,1,0,30,0,1
210003,-29.4117647058824,4,1,0,30,0,1
211670,-181.818181818182,4,1,0,30,0,1
215628,-100,4,1,0,30,0,1
216670,-66.6666666666667,4,1,0,30,0,1
218128,-55.5555555555556,4,1,0,30,0,0

[HitObjects]
160,67,28336,6,0,L|149:167,2,75
260,222,28961,1,0,0:0:0:0:
260,222,29065,1,0,0:0:0:0:
260,222,29169,2,0,L|271:322,1,75
348,137,29586,6,0,L|336:78,1,37.5
431,71,29794,2,0,L|443:12,1,37.5
446,175,30003,1,0,0:0:0:0:
298,250,30211,1,0,0:0:0:0:
417,136,30419,5,0,0:0:0:0:
321,280,30627,1,0,0:0:0:0:
378,117,30836,5,0,0:0:0:0:
365,297,31044,1,0,0:0:0:0:
325,117,31253,6,0,L|352:169,1,37.5
407,287,31461,2,0,L|379:234,1,37.5
288,156,31669,6,0,L|197:164,2,75
452,146,32294,1,0,0:0:0:0:
379,293,32503,2,0,L|325:217,1,75
246,107,32919,2,0,L|184:150,2,75
366,20,33544,5,0,0:0:0:0:
335,182,33753,1,0,0:0:0:0:
338,20,33961,1,0,0:0:0:0:
372,198,34170,1,0,0:0:0:0:
383,30,34378,1,0,0:0:0:0:
345,225,34586,2,0,L|345:306,2,75
212,173,35211,6,0,L|154:230,1,75
102,280,35524,1,0,0:0:0:0:
74,305,35628,1,0,0:0:0:0:
60,339,35732,1,0,0:0:0:0:
62,376,35836,6,0,L|119:318,1,75
215,204,36253,1,0,0:0:0:0:
62,376,36461,1,0,0:0:0:0:
260,212,36669,1,0,0:0:0:0:
186,383,36878,2,0,L|285:362,1,75
406,337,37294,1,0,0:0:0:0:
406,337,37503,6,0,L|385:290,1,37.5
459,243,37711,2,0,L|480:196,1,37.5
321,214,37919,2,0,L|300:167,1,37.5
453,119,38128,2,0,L|474:72,1,37.5
363,23,38336,1,0,0:0:0:0:
129,111,38544,6,0,L|177:129,1,37.5
264,163,38753,1,0,0:0:0:0:
456,237,38961,2,0,L|408:255,1,37.5
321,289,39170,1,0,0:0:0:0:
129,215,39378,2,0,L|177:197,1,37.5
319,142,39586,1,0,0:0:0:0:
424,295,39794,5,0,0:0:0:0:
233,254,40003,1,0,0:0:0:0:
447,237,40211,5,0,0:0:0:0:
219,285,40420,1,0,0:0:0:0:
456,295,40628,5,0,0:0:0:0:
196,240,40837,1,0,0:0:0:0:
490,226,41044,6,0,L|410:244,1,56.2500021457673
183,290,41253,1,0,0:0:0:0:
183,290,41461,1,0,0:0:0:0:
183,290,41669,6,0,B|200:237|170:199|170:199|231:203|278:163|278:163|229:108|286:41,1,337.500012874604
416,62,42503,6,0,L|427:135,1,56.2500021457673
449,230,42711,1,0,0:0:0:0:
313,174,42919,2,0,L|302:247,1,56.2500021457673
280,342,43127,1,0,0:0:0:0:
253,102,43336,6,0,L|272:172,1,56.2500021457673
229,218,43544,2,0,L|209:288,1,56.2500021457673
166,308,43753,6,0,L|139:240,1,56.2500021457673
45,121,43961,2,0,L|113:94,1,56.2500021457673
232,0,44169,6,0,L|259:68,1,56.2500021457673
353,187,44378,2,0,L|285:214,1,56.2500021457673
166,308,44586,6,0,L|121:196,2,112.500004291535
305,360,45211,2,0,L|349:248,2,112.500004291535
143,308,45836,6,0,L|87:285,1,56.2500021457673
0,246,46044,1,0,0:0:0:0:
164,179,46253,2,0,L|219:156,1,56.2500021457673
308,115,46461,1,0,0:0:0:0:
291,271,46669,2,0,L|405:220,2,112.500004291535
131,321,47294,5,0,0:0:0:0:
131,321,47503,2,0,L|14:276,2,112.500004291535
296,383,48128,1,0,0:0:0:0:
253,208,48336,2,0,L|236:143,1,56.2500021457673
215,62,48544,1,0,0:0:0:0:
414,155,48753,1,0,0:0:0:0:
208,136,48961,5,0,0:0:0:0:
420,80,49170,1,0,0:0:0:0:
251,198,49378,5,0,0:0:0:0:
377,19,49587,1,0,0:0:0:0:
323,217,49794,5,0,0:0:0:0:
304,0,50003,1,0,0:0:0:0:
390,185,50211,5,0,0:0:0:0:
236,31,50420,1,0,0:0:0:0:
422,117,50628,6,0,P|332:107|332:107,1,56.2500021457673
204,99,50836,2,0,P|294:108|294:108,1,56.2500021457673
403,46,51044,6,0,P|328:96|328:96,1,56.2500021457673
224,170,51253,2,0,P|149:220|149:220,1,56.2500021457673
60,268,51462,1,0,0:0:0:0:
122,125,51669,6,0,P|161:44|161:44,1,56.2500021457673
185,0,51878,1,0,0:0:0:0:
177,201,52086,2,0,P|216:120|216:120,1,56.2500021457673
240,76,52295,1,0,0:0:0:0:
232,277,52503,2,0,P|312:113|312:113,1,168.750006437302
346,35,52919,1,0,0:0:0:0:
411,241,53128,5,0,0:0:0:0:
490,141,53336,2,0,P|384:190|384:190,2,112.500004291535
490,141,53961,1,0,0:0:0:0:
237,194,54169,6,0,P|240:117|273:196,1,225.000008583069
375,75,55003,6,0,L|278:68,1,75
248,128,55315,1,0,0:0:0:0:
326,194,55419,2,0,L|332:251,1,37.5
215,254,55628,2,0,L|209:311,1,37.5
306,361,55836,2,0,L|312:304,3,37.5
324,196,56253,5,0,0:0:0:0:
324,196,56357,1,0,0:0:0:0:
324,196,56461,1,0,0:0:0:0:
324,196,56669,5,0,0:0:0:0:
156,286,56982,1,0,0:0:0:0:
88,244,57086,2,0,L|82:187,1,37.5
189,98,57294,2,0,L|195:155,1,37.5
88,244,57503,2,0,L|73:188,1,37.5
219,139,57711,5,0,0:0:0:0:
219,139,57815,1,0,0:0:0:0:
219,139,57919,2,0,L|256:182,1,37.5
189,272,58128,1,0,0:0:0:0:
106,48,58336,5,0,0:0:0:0:
164,166,58649,1,0,0:0:0:0:
238,185,58753,2,0,L|285:152,1,37.5
251,38,58961,2,0,L|298:70,1,37.5
281,199,59169,2,0,L|336:184,1,37.5
290,41,59378,1,0,0:0:0:0:
290,41,59482,1,0,0:0:0:0:
290,41,59586,2,0,L|369:56,1,75
512,77,60003,5,0,0:0:0:0:
400,265,60315,1,0,0:0:0:0:
400,265,60419,2,0,L|363:206|363:206,1,37.5
302,133,60628,1,0,0:0:0:0:
259,234,60836,5,0,0:0:0:0:
244,245,60940,1,0,0:0:0:0:
252,288,61044,5,0,0:0:0:0:
237,299,61148,1,0,0:0:0:0:
245,342,61253,6,0,L|186:379|186:379,1,37.5
370,220,61669,5,0,0:0:0:0:
212,77,61982,1,0,0:0:0:0:
212,77,62086,2,0,L|197:146,1,37.5
170,237,62294,1,0,0:0:0:0:
333,231,62503,5,0,0:0:0:0:
344,246,62607,1,0,0:0:0:0:
387,238,62711,5,0,0:0:0:0:
398,253,62815,1,0,0:0:0:0:
441,245,62920,6,0,L|478:304|478:304,1,37.5
511,355,63128,1,0,0:0:0:0:
328,353,63336,5,0,0:0:0:0:
379,172,63649,1,0,0:0:0:0:
379,172,63753,2,0,L|310:190,1,37.5
216,211,63961,1,0,0:0:0:0:
264,51,64169,5,0,0:0:0:0:
264,51,64274,1,0,0:0:0:0:
264,51,64378,1,0,0:0:0:0:
264,51,64482,1,0,0:0:0:0:
264,51,64586,2,0,L|200:66,1,37.5
102,90,64794,1,0,0:0:0:0:
286,222,65003,5,0,0:0:0:0:
77,185,65315,1,0,0:0:0:0:
77,185,65419,2,0,L|144:171,1,37.5
260,256,65628,2,0,L|193:270,1,37.5
116,155,65836,5,0,0:0:0:0:
116,155,65940,1,0,0:0:0:0:
116,155,66044,1,0,0:0:0:0:
116,155,66149,1,0,0:0:0:0:
116,155,66253,2,0,L|172:115,1,37.5
229,77,66461,1,0,0:0:0:0:
292,292,66669,5,0,0:0:0:0:
380,92,66878,5,0,0:0:0:0:
380,92,66982,1,0,0:0:0:0:
380,92,67086,1,0,0:0:0:0:
380,92,67191,1,0,0:0:0:0:
380,92,67295,2,0,L|323:52,2,37.5
228,239,67711,5,0,0:0:0:0:
261,247,67815,2,0,L|300:190,1,37.5
326,207,68024,1,0,0:0:0:0:
326,207,68128,1,0,0:0:0:0:
429,210,68336,6,0,B|383:263|383:263|246:298,1,187.5
429,210,68961,2,0,L|346:209,1,46.875
269,292,69169,2,0,L|354:291,1,46.875
429,210,69378,2,0,L|351:180,1,46.875
269,292,69586,2,0,L|356:331,1,91.8750008761883
122,241,70211,6,0,B|179:205|179:205|216:126,1,116.250000886917
122,241,70628,2,0,L|122:159,1,46.875
199,160,70836,2,0,L|199:78,1,46.875
122,241,71045,2,0,L|93:163,1,46.875
165,335,71253,1,0,0:0:0:0:
165,335,71461,1,0,0:0:0:0:
352,220,71670,6,0,B|327:161|327:161|160:130,1,217.500006637573
352,220,72295,2,0,L|352:287,1,54.3750016593934
176,132,72503,2,0,L|176:199,1,54.3750016593934
352,220,72711,2,0,L|374:282,1,54.3750016593934
176,132,72920,2,0,L|140:230,1,91.8750008761883
99,342,73545,6,0,B|180:345|180:345|216:298,1,123.750001180172
253,211,73961,2,0,L|278:162,1,46.875
313,128,74170,2,0,L|288:177,1,46.875
221,213,74378,2,0,L|246:164,1,46.875
345,126,74586,2,0,L|320:175,1,46.875
176,226,74795,2,0,L|201:177,1,46.875
390,113,75003,6,0,B|384:147|384:147|356:166,1,60
272,299,75628,2,0,L|246:222,1,46.875
352,186,75836,2,0,L|378:109,1,46.875
272,299,76045,2,0,L|210:245,1,46.875
352,186,76253,2,0,L|403:134,1,60
485,171,76878,6,0,B|421:235|421:235|400:302,1,123.750001180172
485,171,77295,2,0,L|485:118,1,46.875
411,266,77503,2,0,L|411:319,1,46.875
485,171,77711,2,0,L|485:118,1,46.875
366,155,77920,1,0,0:0:0:0:
366,155,78128,1,0,0:0:0:0:
366,155,78336,6,0,B|295:168|295:168|204:230|204:230|118:238,1,247.500002360344
366,155,78961,2,0,L|288:155,1,61.875000590086
139,236,79170,2,0,L|217:236,1,61.875000590086
366,155,79378,2,0,L|290:175,1,61.875000590086
139,236,79586,2,0,L|214:215,1,61.875000590086
366,155,79795,2,0,L|298:193,1,61.875000590086
170,261,80003,5,0,0:0:0:0:
170,261,80211,2,0,L|237:222,1,61.875000590086
364,147,80628,2,0,L|296:185,1,61.875000590086
170,261,81045,2,0,L|237:222,1,61.875000590086
449,90,81461,6,0,B|400:301|400:301|477:269|477:269,1,262.500002503395
449,90,82086,2,0,L|371:135,1,46.875
442,284,82295,2,0,L|364:239,1,46.875
369,118,82503,2,0,L|291:73,1,46.875
362,256,82711,2,0,L|284:301,1,46.875
291,184,82920,6,0,L|166:184,1,112.500004291535
49,184,83545,2,0,B|92:92|92:92|141:81|141:81,1,131.250001251698
49,184,83961,2,0,L|49:267,1,65.6250006258488
120,85,84170,2,0,L|120:2,1,65.6250006258488
49,184,84378,2,0,L|49:267,1,65.6250006258488
50,347,84586,5,0,0:0:0:0:
103,323,84690,1,0,0:0:0:0:
140,367,84795,1,0,0:0:0:0:
184,330,84899,1,0,0:0:0:0:
228,293,85003,2,0,B|208:240|208:240|446:269,1,262.500002503395
228,293,85628,6,0,L|228:355,1,46.875
412,264,85836,2,0,L|412:202,1,46.875
228,293,86045,2,0,L|196:346,1,46.875
412,264,86253,2,0,B|418:225|418:225|440:205,1,60
422,106,86878,6,0,B|353:162|353:162|225:150,1,150
176,232,87295,2,0,L|150:162,1,46.875
292,156,87503,2,0,L|317:86,1,46.875
138,196,87711,2,0,L|125:123,1,46.875
261,122,87920,2,0,L|273:49,1,46.875
149,98,88128,2,0,L|149:24,1,46.875
247,57,88336,6,0,B|288:22|288:22|309:230|309:230|371:159,1,330.000010070801
247,57,88961,2,0,L|190:0,1,56.2500021457673
353,179,89170,2,0,L|409:235,1,56.2500021457673
238,68,89378,1,0,0:0:0:0:
212,107,89482,1,0,0:0:0:0:
216,155,89586,2,0,B|270:185|270:185|281:215|281:215|313:219|313:219|321:245|321:245|356:248|356:248|363:272|363:272|396:276|396:276|406:308|406:308|435:320|435:320|465:343|465:343,1,345.000006580353
216,155,90211,6,0,L|174:200,1,56.2500021457673
70,294,90628,2,0,L|11:233,1,56.2500021457673
17,77,90836,2,0,L|76:138,1,56.2500021457673
30,253,91045,2,0,L|70:294,1,56.2500021457673
128,347,91253,1,0,0:0:0:0:
176,300,91357,1,0,0:0:0:0:
224,253,91461,1,0,0:0:0:0:
271,301,91565,1,0,0:0:0:0:
319,254,91670,6,0,B|336:207|336:207|399:168|399:168|266:138|266:138|161:57,1,345.000006580353
319,254,92295,2,0,L|437:254|437:254,1,65.6250006258488
199,86,92503,2,0,L|80:85|80:85,1,65.6250006258488
356,284,92711,2,0,L|474:284|474:284,1,65.6250006258488
162,56,92920,2,0,L|43:55|43:55,1,65.6250006258488
255,166,93128,2,0,L|255:248,1,65.6250006258488
258,345,93336,5,0,0:0:0:0:
258,345,93753,1,0,0:0:0:0:
242,229,94170,2,0,P|278:102|275:230,1,375
204,38,94795,6,0,L|204:102,1,60
302,318,95420,1,0,0:0:0:0:
86,284,95628,5,0,0:0:0:0:
383,212,95836,1,0,0:0:0:0:
86,284,96045,5,0,0:0:0:0:
383,212,96253,2,0,L|319:201,1,60
36,298,96878,6,0,B|67:284|67:284|93:283|93:283|115:274|115:274|145:279|145:279|173:264|173:264|194:269|194:269|210:262,1,179.999994506836
412,219,97295,1,0,0:0:0:0:
308,30,97503,1,0,0:0:0:0:
201,192,97711,2,0,B|182:267|182:267|97:316|97:316|71:378,2,240
308,30,98336,6,0,L|341:85,1,60
457,267,98961,5,0,0:0:0:0:
177,277,99170,1,0,0:0:0:0:
308,30,99378,1,0,0:0:0:0:
177,277,99586,6,0,L|241:275,1,60
457,267,100211,6,0,B|426:232|426:232|434:197|434:197|391:156|391:156|391:156,1,120
298,3,100628,1,0,0:0:0:0:
177,277,100836,6,0,L|111:166,1,89.9999972534181
63,89,101045,1,0,0:0:0:0:
17,12,101253,2,0,L|82:122,1,89.9999972534181
130,199,101461,1,0,0:0:0:0:
241,380,101670,6,0,L|275:322,1,60
393,89,102295,1,0,0:0:0:0:
137,43,102503,1,0,0:0:0:0:
215,333,102711,1,0,0:0:0:0:
512,372,102920,2,0,L|441:362|441:362,1,60
215,333,103545,6,0,B|250:290|250:290|289:318|289:318|344:255|344:255|277:208,1,240
109,106,103961,1,0,0:0:0:0:
336,0,104169,1,0,0:0:0:0:
442,227,104378,1,0,0:0:0:0:
442,227,104586,6,0,L|321:286,1,120
174,357,105003,6,0,L|144:296,1,60
27,45,105628,1,0,0:0:0:0:
1,328,105836,1,0,0:0:0:0:
284,302,106045,1,0,0:0:0:0:
310,19,106253,2,0,L|303:91,1,67.4999979400635
241,325,106670,2,0,L|234:252,1,37.5
269,217,106879,5,0,0:0:0:0:
292,234,106983,1,0,0:0:0:0:
430,226,107086,5,0,2:0:0:0:
403,237,107190,1,0,2:0:0:0:
341,360,107295,5,0,2:0:0:0:
345,332,107399,1,0,2:0:0:0:
350,272,107503,6,0,L|332:191,1,75
301,37,107919,1,0,0:0:0:0:
121,196,108128,2,0,L|92:133,1,60
193,345,108753,1,0,0:0:0:0:
491,61,108961,6,0,P|447:99|394:102,1,75
251,125,109170,2,0,P|295:163|370:172,1,89.9999972534181
512,211,109378,2,0,P|464:247|369:262,1,104.999996795654
186,311,109586,6,0,P|208:327|251:334,1,60
122,154,110211,5,0,0:0:0:0:
271,54,110420,2,0,B|322:30|322:30|398:53,1,93.75
488,103,110628,2,0,L|468:220,1,93.75
415,359,110836,2,0,L|400:244,1,112.500004291535
357,40,111045,2,0,L|318:171,1,131.250001251698
260,352,111253,2,0,L|210:185,2,150
138,39,111670,6,0,L|119:102,1,60
65,281,112295,2,0,B|111:320|111:320|160:272,1,112.500004291535
250,173,112503,2,0,B|296:128|296:128|347:170,1,131.250001251698
431,255,112711,2,0,B|482:308|482:308|433:366,1,150
431,255,112920,6,0,L|487:314,1,75
272,83,113545,6,0,B|250:108|250:108|234:121|234:121|220:141|220:141|198:158|198:158|191:177|191:177|171:186|171:186|160:201,2,150
397,143,113961,6,0,P|407:193|380:175,1,112.500004291535
276,225,114170,2,0,P|297:279|307:235,1,131.250001251698
236,113,114378,2,0,P|182:87|206:126,1,150
157,309,114586,2,0,P|224:318|185:284,1,168.750006437302
83,168,114795,2,0,P|25:118|42:174,1,187.5
32,347,115003,6,0,L|92:335,1,60
412,253,115628,1,0,0:0:0:0:
77,178,115836,1,0,0:0:0:0:
410,229,116045,1,0,0:0:0:0:
69,241,116253,2,0,L|141:236,1,60
454,214,116878,1,0,0:0:0:0:
236,363,117086,6,0,L|193:118,3,225.000008583069
172,5,117920,2,0,L|215:250,1,225.000008583069
236,363,118336,2,0,L|175:373,1,60
488,323,118961,5,0,0:0:0:0:
98,297,119170,1,0,0:0:0:0:
487,308,119378,5,0,0:0:0:0:
74,239,119586,2,0,L|131:236,1,45
312,220,120003,1,0,0:0:0:0:
185,122,120211,6,0,L|173:37,1,75
259,313,120420,1,0,0:0:0:0:
382,73,120628,2,0,B|409:62|409:62|445:68|445:68|467:61,1,75
98,300,121045,6,0,L|110:385,1,75
161,118,121253,1,0,0:0:0:0:
344,216,121461,2,0,L|425:205,1,56.2500021457673
470,199,121774,6,0,B|478:296|304:190|444:63|581:129|505:262|505:262|409:333|341:224|341:224|375:323|335:363|335:363|286:288|195:306|195:306|276:242|212:165|212:165|180:232|138:232,1,1087.5
62,283,125003,6,0,B|93:231|48:185|48:185|151:240|216:166|216:166|121:170|80:87|132:26|132:26|177:120|276:87|276:87|332:174|281:261|224:265|224:265|218:219|272:169|388:185|429:138|429:138,1,1125
480,98,128336,6,0,B|480:300|480:300|480:349|420:349|420:300|420:300|419:238|364:238|364:300|364:300|364:346|364:346|364:390|296:390|296:346|296:346|296:300|296:300|296:248|235:248|235:300|235:300|235:349|168:349|168:300|168:300|168:106|168:106|168:58|232:58|232:106|232:106|232:205|232:205|106:205|106:205|106:168|106:168|106:115|41:115|41:168|41:168|41:267|41:267|41:305|41:305|41:349|111:351|111:306|111:306|111:268|111:268,1,1800
222,180,135003,6,0,B|320:163|358:298|358:298|538:72|224:-129|15:-2|14:213|63:347|273:357,1,1125
429,347,138336,6,0,B|455:300|514:299|514:299|389:233|365:71|450:57|545:74|505:213|395:265|395:265|321:178|341:99|404:38|404:38|255:39|270:206|113:120,1,1125
54,55,141670,6,0,B|73:94|141:94|141:94|34:169|58:288|58:288|126:184|176:171|176:171|257:134|258:21|258:21|251:199|356:324|356:324|272:273|177:294|177:294|306:273|369:152|369:152|314:93|358:11|358:11|403:113|473:118|473:118,1,1725
510,147,146670,6,0,B|463:180|404:158|404:158|429:227|388:277|388:277|341:184|235:186|235:186|345:145|355:87|355:87,1,562.5
256,192,148336,12,0,151253,0:0:0:0:
105,158,165003,6,0,B|273:158|273:158|317:205,1,225.000008583069
311,199,165628,1,0,0:0:0:0:
105,158,165836,1,0,0:0:0:0:
311,199,166045,1,0,0:0:0:0:
105,158,166253,6,0,L|223:158|223:158,1,112.500004291535
471,158,166878,1,0,0:0:0:0:
471,39,167295,5,0,0:0:0:0:
471,338,167503,1,0,0:0:0:0:
471,39,167711,1,0,0:0:0:0:
471,338,167919,1,0,0:0:0:0:
285,338,168128,1,0,0:0:0:0:
99,338,168336,6,0,B|99:266|99:266|78:212|78:212|99:163|99:163|99:57|99:57,1,262.500002503395
99,338,168961,1,0,0:0:0:0:
99,83,169170,1,0,0:0:0:0:
99,338,169378,1,0,0:0:0:0:
99,83,169586,2,0,L|99:146,1,60
99,370,170211,1,0,0:0:0:0:
373,349,170420,1,0,0:0:0:0:
161,296,170628,5,0,0:0:0:0:
331,254,170836,1,0,0:0:0:0:
213,225,171045,1,0,0:0:0:0:
296,205,171253,1,0,0:0:0:0:
242,183,171461,1,0,0:0:0:0:
242,18,171670,6,0,B|242:108|242:108|170:249|170:249|170:341|170:341,1,300
242,18,172295,1,0,0:0:0:0:
170,300,172503,1,0,0:0:0:0:
242,18,172711,1,0,0:0:0:0:
170,300,172920,2,0,L|170:253,1,44.999998626709
420,300,173545,5,0,0:0:0:0:
268,148,173961,1,0,0:0:0:0:
116,300,174170,1,0,0:0:0:0:
268,148,174378,1,0,0:0:0:0:
268,363,174586,2,0,L|268:316,1,37.5
268,363,174795,2,0,L|268:316,1,37.5
268,363,175003,6,0,B|268:300|268:300|246:234|246:234|290:199|290:199|268:140|268:140|268:51,1,300
268,363,175628,1,0,0:0:0:0:
268,92,175836,1,0,0:0:0:0:
268,363,176045,1,0,0:0:0:0:
268,92,176253,2,0,L|268:136,1,45
375,171,176670,6,0,L|383:266,1,75
375,171,176878,2,0,L|383:266,1,75
394,348,177086,1,0,0:0:0:0:
288,182,177295,6,0,L|280:88,1,75
206,285,177503,1,0,0:0:0:0:
70,195,177711,2,0,L|78:101,1,75
133,347,177920,1,0,0:0:0:0:
307,337,178128,6,0,L|375:13,1,225.000008583069
307,337,178961,1,0,0:0:0:0:
353,116,179170,1,0,0:0:0:0:
307,337,179378,1,0,0:0:0:0:
353,116,179586,2,0,L|341:179,1,60
307,337,180211,6,0,B|159:337|159:337|60:286|60:286,1,187.5
307,337,180628,1,0,0:0:0:0:
123,318,180836,1,0,0:0:0:0:
307,337,181045,1,0,0:0:0:0:
123,318,181253,2,0,P|231:323|231:323,1,75
363,342,181670,6,0,B|182:128|182:128,1,269.999991760254
363,342,182295,1,0,0:0:0:0:
188,135,182503,1,0,0:0:0:0:
363,342,182711,1,0,0:0:0:0:
188,135,182920,2,0,L|235:190,1,60
277,242,183545,6,0,L|456:84,1,179.999994506836
277,242,183961,2,0,L|277:150,1,75
458,84,184170,2,0,L|458:-8,1,75
277,242,184378,2,0,L|277:150,1,75
458,84,184586,2,0,L|458:-8,1,75
277,242,184795,1,0,0:0:0:0:
458,84,185003,6,0,L|153:303,1,330.000010070801
458,84,185628,1,0,0:0:0:0:
189,276,185836,1,0,0:0:0:0:
458,84,186045,1,0,0:0:0:0:
189,276,186253,2,0,L|190:207,1,60
310,377,186878,6,0,B|288:310|288:310|248:263|248:263|261:223|261:223|228:181|228:181|191:79,1,247.500002360344
310,377,187295,1,0,0:0:0:0:
219,158,187503,1,0,0:0:0:0:
310,377,187711,1,0,0:0:0:0:
219,158,187920,2,0,L|255:255,1,75
219,158,188128,2,0,L|255:255,1,75
175,14,188336,6,0,B|344:332|344:332,1,300
175,14,188961,1,0,0:0:0:0:
315,278,189170,1,0,0:0:0:0:
175,14,189378,1,0,0:0:0:0:
175,14,189586,6,0,L|213:86,1,75
175,14,189795,2,0,L|213:86,1,75
315,266,190003,6,0,L|243:304,1,75
146,347,190211,1,0,0:0:0:0:
159,233,190420,6,0,L|231:194,1,75
328,152,190628,1,0,0:0:0:0:
173,46,190836,2,0,L|166:122|166:122,1,75
155,319,191461,6,0,L|216:319,1,60
316,338,192086,1,0,0:0:0:0:
182,34,192295,5,0,0:0:0:0:
316,338,192503,1,0,0:0:0:0:
182,34,192711,5,0,0:0:0:0:
316,338,192920,2,0,L|377:338,1,60
512,151,193336,5,0,0:0:0:0:
190,257,193545,2,0,B|287:257|287:257|317:290,1,120
356,335,193961,5,0,0:0:0:0:
376,356,194065,1,0,0:0:0:0:
393,365,194169,1,0,0:0:0:0:
400,336,194273,1,0,0:0:0:0:
408,307,194377,1,0,0:0:0:0:
415,278,194481,1,0,0:0:0:0:
422,249,194586,6,0,P|399:150|399:150,1,60
377,82,194795,5,0,0:0:0:0:
389,91,194899,1,0,0:0:0:0:
404,100,195003,6,0,L|343:105,1,60
196,105,195628,5,0,0:0:0:0:
165,112,195732,1,0,0:0:0:0:
155,142,195836,2,0,L|226:137,1,65.6250006258488
326,147,196045,1,0,0:0:0:0:
357,142,196149,1,0,0:0:0:0:
377,165,196253,2,0,L|309:187,1,65.6250006258488
241,219,196461,1,0,0:0:0:0:
207,225,196565,1,0,0:0:0:0:
179,213,196670,6,0,L|179:362,1,112.500004291535
244,370,196878,5,0,0:0:0:0:
249,374,196982,1,0,0:0:0:0:
254,378,197086,1,0,0:0:0:0:
178,350,197295,6,0,L|116:348,1,37.5
41,290,197503,2,0,L|102:291,1,37.5
242,218,197711,2,0,L|180:219,1,37.5
36,141,197920,2,0,L|97:139,1,37.5
234,64,198128,2,0,L|172:65,1,37.5
113,7,198336,6,0,L|180:16,1,60
415,29,198961,5,0,0:0:0:0:
116,117,199170,1,0,0:0:0:0:
415,29,199378,5,0,0:0:0:0:
116,117,199586,2,0,L|180:98,1,60
512,121,200211,6,0,L|371:162,1,93.75
320,178,200420,1,0,0:0:0:0:
201,309,200628,5,0,0:0:0:0:
207,313,200732,1,0,0:0:0:0:
213,317,200836,1,0,0:0:0:0:
313,265,200940,5,0,0:0:0:0:
319,269,201044,1,0,0:0:0:0:
325,273,201148,1,0,0:0:0:0:
234,196,201253,6,0,B|308:195|308:195|371:157,1,93.75
397,128,201461,1,0,0:0:0:0:
491,10,201670,6,0,L|425:14,1,60
365,75,202295,6,0,L|365:122,1,37.5
475,226,202503,2,0,L|475:273,1,37.5
275,154,202711,2,0,L|275:201,1,37.5
355,306,202920,2,0,L|355:353,1,37.5
429,123,203128,2,0,L|429:170,1,37.5
236,37,203336,6,0,L|236:105,1,37.5
243,162,203545,5,0,0:0:0:0:
220,145,203649,1,0,0:0:0:0:
235,244,203753,5,0,0:0:0:0:
212,227,203857,1,0,0:0:0:0:
227,326,203961,5,0,0:0:0:0:
204,309,204065,1,0,0:0:0:0:
200,384,204170,6,0,L|139:329,1,75
10,236,204586,1,0,0:0:0:0:
204,236,204795,2,0,L|213:175,1,60
341,351,205420,1,0,0:0:0:0:
266,282,205628,5,0,0:0:0:0:
227,319,205732,1,0,0:0:0:0:
256,261,205836,5,0,0:0:0:0:
216,298,205940,1,0,0:0:0:0:
245,240,206045,5,0,0:0:0:0:
206,277,206149,1,0,0:0:0:0:
234,219,206253,5,0,0:0:0:0:
195,256,206357,1,0,0:0:0:0:
222,198,206461,5,0,0:0:0:0:
183,235,206565,1,0,0:0:0:0:
184,127,206670,6,0,L|238:71,1,75
302,11,206878,5,0,0:0:0:0:
326,31,206982,1,0,0:0:0:0:
350,51,207086,1,0,0:0:0:0:
374,71,207190,1,0,0:0:0:0:
320,154,207295,5,0,0:0:0:0:
300,178,207399,1,0,0:0:0:0:
280,202,207503,1,0,0:0:0:0:
260,226,207607,1,0,0:0:0:0:
245,311,207711,5,0,0:0:0:0:
254,320,207815,1,0,0:0:0:0:
177,251,207920,6,0,B|131:223|131:223|119:172,1,75
117,101,208128,1,0,0:0:0:0:
169,1,208336,6,0,L|238:1,1,60
344,22,208961,1,0,0:0:0:0:
353,54,209065,1,0,0:0:0:0:
387,74,209170,1,0,0:0:0:0:
378,106,209274,1,0,0:0:0:0:
345,137,209378,5,0,0:0:0:0:
357,167,209482,1,0,0:0:0:0:
385,191,209586,1,0,0:0:0:0:
373,221,209690,1,0,0:0:0:0:
352,253,209795,5,0,0:0:0:0:
340,286,209899,1,0,0:0:0:0:
301,365,210003,6,0,L|161:354,1,127.50000243187
66,344,210211,1,0,0:0:0:0:
66,344,210315,1,0,0:0:0:0:
66,344,210420,1,0,0:0:0:0:
66,344,210524,1,0,0:0:0:0:
154,307,210628,6,0,B|218:278|218:278|271:194,1,127.50000243187
273,174,210836,5,0,0:0:0:0:
241,117,210940,1,0,0:0:0:0:
208,172,211045,1,0,0:0:0:0:
273,174,211149,5,0,0:0:0:0:
333,174,211253,1,0,0:0:0:0:
303,227,211357,1,0,0:0:0:0:
366,227,211461,5,0,0:0:0:0:
335,281,211565,1,0,0:0:0:0:
397,281,211670,2,0,L|445:198,1,82.5000025177003
493,77,212295,5,0,0:0:0:0:
420,358,212503,1,0,0:0:0:0:
493,77,212711,5,0,0:0:0:0:
420,358,212920,2,0,L|324:340,1,82.5000025177003
0,276,213545,5,0,0:0:0:0:
0,276,213753,5,0,0:0:0:0:
207,192,213961,1,0,0:0:0:0:
232,155,214065,1,0,0:0:0:0:
251,195,214170,1,0,0:0:0:0:
196,150,214274,1,0,0:0:0:0:
263,154,214378,1,0,0:0:0:0:
225,210,214483,1,0,0:0:0:0:
228,180,214586,5,0,0:0:0:0:
245,191,214795,1,0,0:0:0:0:
262,203,215003,6,0,L|261:293,1,82.5000025177003
262,358,215628,2,0,L|195:358,1,37.5
415,281,215836,2,0,L|482:281,1,37.5
285,198,216045,2,0,L|285:131,1,37.5
98,282,216253,2,0,L|98:349,1,37.5
37,133,216461,2,0,L|-30:133,1,37.5
210,240,216670,6,0,B|174:184|174:184|108:157,1,112.500004291535
193,14,217086,1,0,0:0:0:0:
454,31,217295,6,0,B|429:84|429:84|380:109,1,112.500004291535
316,361,217711,6,0,B|281:313|281:313|284:258,1,112.500004291535
103,110,218128,6,0,B|161:104|161:104|175:132|212:138|212:138|152:145|133:177|133:177|213:203|180:279|180:279|137:260|90:286,1,404.999987640381
