osu file format v14

[General]
AudioFilename: audio.mp3
AudioLeadIn: 0
PreviewTime: -1
Countdown: 1
SampleSet: Normal
StackLeniency: 0.7
Mode: 0
LetterboxInBreaks: 0
WidescreenStoryboard: 0

[Editor]
DistanceSpacing: 1
BeatDivisor: 4
GridSize: 8
TimelineZoom: 1

[Metadata]
Title:Disarm You (Sound Rush Remix)
TitleUnicode:Disarm You (Sound Rush Remix)
Artist:Kaskade
ArtistUnicode:Kaskade
Creator:AustinsGuitar
Version:Insane
Source:
Tags:
BeatmapID:1475717
BeatmapSetID:696729

[Difficulty]
HPDrainRate:5.5
CircleSize:4.2
OverallDifficulty:5.5
ApproachRate:10
SliderMultiplier:1.4
SliderTickRate:1

[Events]
//Background and Video events
0,0,"Capture.PNG",0,0
//Break Periods
//Storyboard Layer 0 (Background)
//Storyboard Layer 1 (Fail)
//Storyboard Layer 2 (Pass)
//Storyboard Layer 3 (Foreground)
//Storyboard Sound Samples

[TimingPoints]
20,400,4,1,0,95,1,0
812,-50,4,1,0,95,0,0
11212,-100,4,1,0,95,0,0
12808,-133.333333333333,4,1,0,95,0,0
24612,-50,4,1,0,95,0,0
31228,400,4,1,0,95,1,0
36814,-50,4,1,0,95,0,0
58620,400,4,1,0,95,1,0
58820,-66.6666666666667,4,1,0,95,0,0
70420,-50,4,1,0,95,0,0
108820,-50,4,1,0,95,0,1
116820,-50,4,1,0,95,0,0

[HitObjects]
48,24,1620,6,0,P|100:37|176:92,1,140
320,232,2020,1,0,0:0:0:0:
320,56,2220,1,0,0:0:0:0:
184,144,2420,1,0,0:0:0:0:
448,144,2820,1,0,0:0:0:0:
208,240,3220,1,0,0:0:0:0:
368,240,3420,1,0,0:0:0:0:
344,108,3620,1,0,0:0:0:0:
208,320,3820,1,0,0:0:0:0:
116,88,4020,1,0,0:0:0:0:
216,176,4420,1,0,0:0:0:0:
272,64,4620,1,0,0:0:0:0:
280,104,4720,1,0,0:0:0:0:
304,136,4820,2,0,B|376:224|464:176|464:24,1,280
376,112,5420,2,0,P|320:64|264:200,1,280
104,160,6020,1,0,0:0:0:0:
264,64,6420,1,0,0:0:0:0:
416,112,6620,1,0,0:0:0:0:
264,64,6820,1,0,0:0:0:0:
376,256,7020,1,0,0:0:0:0:
264,64,7220,1,0,0:0:0:0:
264,312,7420,1,0,0:0:0:0:
152,76,7620,1,0,0:0:0:0:
372,60,8020,1,0,0:0:0:0:
320,216,8420,1,0,0:0:0:0:
96,220,8820,1,0,0:0:0:0:
204,72,9220,1,0,0:0:0:0:
432,88,9620,1,0,0:0:0:0:
400,264,9820,2,0,P|363:185|296:168,1,140
112,264,10220,2,0,P|148:185|216:168,1,140
320,168,10620,1,0,0:0:0:0:
256,296,10820,1,0,0:0:0:0:
192,168,11020,1,0,0:0:0:0:
128,40,11220,2,0,P|232:48|256:96,1,140
408,192,11820,2,0,P|320:216|272:192,1,140
120,116,12420,1,0,0:0:0:0:
256,56,12820,2,0,L|368:56,1,105.000004005432
256,328,13620,2,0,L|144:328,1,105.000004005432
72,72,14420,1,0,0:0:0:0:
336,72,14820,1,0,0:0:0:0:
132,192,15220,1,0,0:0:0:0:
440,72,15620,1,0,0:0:0:0:
72,72,16020,1,0,0:0:0:0:
384,100,16420,1,0,0:0:0:0:
216,224,16820,1,0,0:0:0:0:
192,56,17220,1,0,0:0:0:0:
344,328,17620,1,0,0:0:0:0:
384,80,18020,1,0,0:0:0:0:
152,188,18420,1,0,0:0:0:0:
196,48,18820,1,0,0:0:0:0:
356,48,19220,1,0,0:0:0:0:
376,72,19420,1,0,0:0:0:0:
392,104,19620,1,0,0:0:0:0:
400,136,19820,1,0,0:0:0:0:
392,168,20020,1,0,0:0:0:0:
376,192,20220,1,0,0:0:0:0:
352,216,20420,1,0,0:0:0:0:
320,232,20620,1,0,0:0:0:0:
272,240,20820,1,0,0:0:0:0:
216,240,21020,1,0,0:0:0:0:
168,224,21220,1,0,0:0:0:0:
128,192,21420,1,0,0:0:0:0:
104,144,21620,1,0,0:0:0:0:
72,104,21820,1,0,0:0:0:0:
48,56,22020,1,0,0:0:0:0:
32,0,22220,1,0,0:0:0:0:
320,72,22420,1,0,0:0:0:0:
328,80,22520,5,0,0:0:0:0:
336,88,22620,1,0,0:0:0:0:
344,96,22720,1,0,0:0:0:0:
352,104,22820,5,0,0:0:0:0:
360,112,22920,1,0,0:0:0:0:
368,120,23020,1,0,0:0:0:0:
376,128,23120,5,0,0:0:0:0:
376,144,23220,1,0,0:0:0:0:
376,168,23320,1,0,0:0:0:0:
376,192,23420,5,0,0:0:0:0:
376,216,23520,1,0,0:0:0:0:
376,240,23620,1,0,0:0:0:0:
376,264,23720,5,0,0:0:0:0:
376,288,23820,1,0,0:0:0:0:
376,312,23920,1,0,0:0:0:0:
296,320,24020,6,0,P|311:262|288:200,1,105.000004005432
128,208,24820,2,0,P|104:56|240:80,1,280
256,192,25620,1,0,0:0:0:0:
256,192,25720,12,0,30820,0:0:0:0:
192,208,31228,5,0,0:0:0:0:
96,68,32028,6,0,P|204:100|224:124,1,140
264,52,32828,1,0,0:0:0:0:
336,48,33028,1,0,0:0:0:0:
408,48,33228,1,0,0:0:0:0:
480,48,33428,1,0,0:0:0:0:
480,120,33628,1,0,0:0:0:0:
480,192,33828,1,0,0:0:0:0:
408,192,34028,1,0,0:0:0:0:
336,192,34228,1,0,0:0:0:0:
264,192,34428,1,0,0:0:0:0:
192,192,34628,1,0,0:0:0:0:
232,272,34828,1,0,0:0:0:0:
304,272,35028,1,0,0:0:0:0:
376,272,35228,2,0,P|394:197|376:112,1,140
352,32,35828,1,0,0:0:0:0:
256,192,36028,1,0,0:0:0:0:
112,96,37628,6,0,B|192:56|232:64|232:64|248:64|232:80,1,140
204,176,38028,1,0,0:0:0:0:
284,208,38228,1,0,0:0:0:0:
344,292,38428,1,0,0:0:0:0:
208,320,38828,1,0,0:0:0:0:
328,192,39028,1,0,0:0:0:0:
344,64,39228,2,0,P|255:75|208:96,1,140
112,224,39628,2,0,B|176:192|208:272|152:368|112:360|112:360|-16:376,1,280
108,48,41028,1,0,0:0:0:0:
240,48,41228,1,0,0:0:0:0:
240,216,41428,1,0,0:0:0:0:
368,216,41628,1,0,0:0:0:0:
368,352,41828,1,0,0:0:0:0:
504,216,42028,1,0,0:0:0:0:
256,64,42428,1,0,0:0:0:0:
324,72,45294,1,0,0:0:0:0:
320,80,45494,1,0,0:0:0:0:
288,120,45694,1,0,0:0:0:0:
264,148,45894,1,0,0:0:0:0:
256,152,46094,1,0,0:0:0:0:
132,152,46294,1,0,0:0:0:0:
132,152,46494,1,0,0:0:0:0:
216,208,46694,1,0,0:0:0:0:
328,288,46894,2,0,P|376:208|368:152,1,140
236,56,48028,1,0,0:0:0:0:
304,136,48494,1,0,0:0:0:0:
312,196,48694,1,0,0:0:0:0:
216,240,48894,1,0,0:0:0:0:
112,184,49094,1,0,0:0:0:0:
172,72,49294,1,0,0:0:0:0:
272,168,49494,1,0,0:0:0:0:
352,60,49694,1,0,0:0:0:0:
444,136,49894,1,0,0:0:0:0:
400,276,50094,1,0,0:0:0:0:
112,84,50928,1,0,0:0:0:0:
296,236,51728,1,0,0:0:0:0:
136,172,51928,1,0,0:0:0:0:
260,68,52128,1,0,0:0:0:0:
408,128,52328,1,0,0:0:0:0:
376,248,52528,1,0,0:0:0:0:
228,264,52728,1,0,0:0:0:0:
80,176,52928,1,0,0:0:0:0:
148,96,53128,1,0,0:0:0:0:
284,64,53328,1,0,0:0:0:0:
104,80,54928,1,0,0:0:0:0:
120,204,55128,1,0,0:0:0:0:
352,96,55328,1,0,0:0:0:0:
272,244,55528,1,0,0:0:0:0:
480,128,55728,1,0,0:0:0:0:
272,244,55928,1,0,0:0:0:0:
80,80,56128,1,0,0:0:0:0:
188,24,57361,1,0,0:0:0:0:
396,188,57628,1,0,0:0:0:0:
168,252,57894,1,0,0:0:0:0:
332,128,58161,1,0,0:0:0:0:
176,96,58428,2,0,P|96:128|80:184,1,140
336,232,58820,2,0,L|232:184,1,105
96,156,59220,1,0,0:0:0:0:
264,48,59420,1,0,0:0:0:0:
96,156,59620,1,0,0:0:0:0:
408,56,59820,2,0,B|408:184|408:184|288:184,1,210.000008010865
108,176,60420,1,0,0:0:0:0:
280,304,60620,1,0,0:0:0:0:
304,32,60820,2,0,B|176:56|184:88|216:104,1,105.000004005432
280,196,61220,1,0,0:0:0:0:
416,224,61420,2,0,P|400:288|368:304,1,105.000004005432
160,172,61820,1,0,0:0:0:0:
240,84,62020,1,0,0:0:0:0:
76,176,62220,1,0,0:0:0:0:
144,296,62420,2,0,B|224:272|224:272|320:296|360:264,1,210.000008010865
384,104,63020,1,0,0:0:0:0:
152,204,63620,1,0,0:0:0:0:
312,280,63820,1,0,0:0:0:0:
328,112,64020,2,0,B|384:64|368:48|440:136,1,105.000004005432
152,116,64420,1,0,0:0:0:0:
192,248,64620,1,0,0:0:0:0:
336,288,64820,2,0,P|400:224|440:240,1,105.000004005432
384,104,65220,1,0,0:0:0:0:
104,144,65420,1,0,0:0:0:0:
136,176,65520,1,0,0:0:0:0:
168,208,65620,1,0,0:0:0:0:
276,80,65820,1,0,0:0:0:0:
424,180,66020,1,0,0:0:0:0:
236,240,66220,2,0,P|208:288|216:320,1,52.5000020027161
192,384,66420,1,0,0:0:0:0:
376,256,66620,1,0,0:0:0:0:
128,152,66820,1,0,0:0:0:0:
336,8,67020,1,0,0:0:0:0:
272,144,67220,1,0,0:0:0:0:
224,304,67420,1,0,0:0:0:0:
432,240,67620,1,0,0:0:0:0:
224,304,67820,1,0,0:0:0:0:
352,72,68020,2,0,P|192:64|168:72,1,157.500006008148
112,104,68420,1,0,0:0:0:0:
212,232,68620,1,0,0:0:0:0:
384,304,68820,1,0,0:0:0:0:
288,96,69220,2,0,L|224:88,1,52.5000020027161
40,16,69620,1,0,0:0:0:0:
480,368,70020,1,0,0:0:0:0:
96,72,70420,2,0,P|216:136|248:192,1,140
376,92,70820,1,0,0:0:0:0:
144,240,71220,2,0,P|248:248|272:280,1,140
424,136,71620,1,0,0:0:0:0:
64,56,72020,2,0,L|160:80,1,70
368,120,72220,2,0,L|288:148,1,70
120,192,72420,1,0,0:0:0:0:
512,160,72620,2,0,B|512:272|512:272|416:272,1,140
304,320,73020,1,0,0:0:0:0:
184,48,73220,1,0,0:0:0:0:
48,200,73420,1,0,0:0:0:0:
328,272,73620,2,0,B|419:281|448:296|448:240,1,140
364,96,74020,1,0,0:0:0:0:
128,240,74220,2,0,B|208:240|208:240|240:160,1,140
112,80,74620,1,0,0:0:0:0:
388,184,74820,1,0,0:0:0:0:
300,344,75020,1,0,0:0:0:0:
296,96,75220,2,0,B|216:112|184:160|128:168|128:168|312:264,1,350
416,280,75820,1,2,0:0:0:0:
104,128,76420,1,0,0:0:0:0:
364,116,76620,1,0,0:0:0:0:
280,276,76820,2,0,B|152:272|152:272|88:208|160:128,1,280
212,20,77620,5,4,0:0:0:0:
60,220,78020,1,0,0:0:0:0:
344,100,78420,2,0,L|280:136,1,70
180,192,78620,2,0,L|272:224,1,70
416,280,78820,2,0,L|360:216,1,70
240,72,79020,1,2,0:0:0:0:
64,64,79620,5,0,0:0:0:0:
116,252,79820,1,0,0:0:0:0:
300,104,80020,2,0,P|240:40|216:104,1,140
240,296,80420,1,0,0:0:0:0:
444,116,80620,1,2,0:0:0:0:
160,56,81020,5,0,0:0:0:0:
232,236,81220,1,0,0:0:0:0:
160,56,81420,1,0,0:0:0:0:
416,224,81620,2,0,P|352:280|280:280,1,140
72,232,82020,1,0,0:0:0:0:
344,72,82220,1,4,0:0:0:0:
144,36,82820,5,0,0:0:0:0:
296,204,83020,1,0,0:0:0:0:
316,52,83220,1,8,0:0:0:0:
128,232,83620,1,0,0:0:0:0:
424,156,84020,1,8,0:0:0:0:
100,56,84420,1,0,0:0:0:0:
96,376,84620,1,0,0:0:0:0:
96,376,84720,1,0,0:0:0:0:
96,376,84820,5,8,0:0:0:0:
352,96,85020,1,0,0:0:0:0:
96,192,85220,1,0,0:0:0:0:
272,264,85420,1,0,0:0:0:0:
200,80,85620,1,8,0:0:0:0:
392,320,85820,1,0,0:0:0:0:
456,144,86020,1,8,0:0:0:0:
184,272,86220,5,0,0:0:0:0:
144,68,86420,1,8,0:0:0:0:
356,164,86620,1,0,0:0:0:0:
212,288,86820,1,8,0:0:0:0:
340,92,87020,1,0,0:0:0:0:
56,180,87220,1,8,0:0:0:0:
216,208,87420,1,0,0:0:0:0:
372,244,87620,1,8,0:0:0:0:
232,48,87820,1,0,0:0:0:0:
140,136,88020,5,8,0:0:0:0:
232,328,88220,1,0,0:0:0:0:
408,148,88420,1,8,0:0:0:0:
108,80,88620,1,0,0:0:0:0:
304,192,88820,1,8,0:0:0:0:
108,80,89020,1,0,0:0:0:0:
160,272,89220,1,8,0:0:0:0:
344,108,89420,1,0,0:0:0:0:
192,176,89620,2,0,P|248:64|264:32,1,140
368,216,90020,1,0,0:0:0:0:
272,72,90220,1,0,0:0:0:0:
104,72,90420,2,0,P|32:152|24:200,1,140
208,280,90820,1,0,0:0:0:0:
316,64,91020,1,0,0:0:0:0:
316,64,91120,1,0,0:0:0:0:
316,64,91220,1,8,0:0:0:0:
432,208,91420,5,0,0:0:0:0:
232,144,91620,1,8,0:0:0:0:
80,272,91820,1,0,0:0:0:0:
80,112,92020,1,8,0:0:0:0:
320,192,92220,1,0,0:0:0:0:
220,8,92420,1,8,0:0:0:0:
80,224,92620,1,0,0:0:0:0:
404,168,92820,5,8,0:0:0:0:
168,292,93220,1,0,0:0:0:0:
456,232,93420,1,2,0:0:0:0:
120,64,93820,1,0,0:0:0:0:
316,176,94020,1,0,0:0:0:0:
72,152,94220,1,0,0:0:0:0:
176,328,94420,5,2,0:0:0:0:
344,80,94820,1,0,0:0:0:0:
72,152,95020,1,4,0:0:0:0:
344,248,95420,1,0,0:0:0:0:
160,224,95620,1,0,0:0:0:0:
152,40,95820,1,0,0:0:0:0:
344,64,96020,5,4,0:0:0:0:
152,40,96820,1,4,0:0:0:0:
132,176,97620,5,0,0:0:0:0:
376,80,97820,1,0,0:0:0:0:
144,272,98020,1,0,0:0:0:0:
440,144,98220,1,0,0:0:0:0:
152,80,98820,5,0,0:0:0:0:
316,232,99020,1,0,0:0:0:0:
152,304,99220,1,0,0:0:0:0:
296,96,99620,1,0,0:0:0:0:
56,192,99820,1,0,0:0:0:0:
328,280,100220,1,0,0:0:0:0:
172,100,100420,1,0,0:0:0:0:
448,64,100620,1,0,0:0:0:0:
264,88,100820,1,0,0:0:0:0:
264,88,101020,5,0,0:0:0:0:
208,352,101420,1,0,0:0:0:0:
212,24,102020,1,0,0:0:0:0:
28,160,102220,1,0,0:0:0:0:
208,268,102420,5,0,0:0:0:0:
368,124,102820,1,0,0:0:0:0:
128,100,103220,1,0,0:0:0:0:
344,244,103620,1,0,0:0:0:0:
280,68,104020,5,0,0:0:0:0:
148,160,104220,1,0,0:0:0:0:
396,136,104420,1,0,0:0:0:0:
148,160,104620,1,0,0:0:0:0:
432,248,104820,1,0,0:0:0:0:
256,312,105020,1,0,0:0:0:0:
256,72,105220,1,0,0:0:0:0:
328,256,105420,1,0,0:0:0:0:
140,160,105620,5,0,0:0:0:0:
412,96,106020,1,0,0:0:0:0:
168,232,106220,1,0,0:0:0:0:
216,36,106620,1,0,0:0:0:0:
376,192,106820,1,0,0:0:0:0:
104,288,107020,1,0,0:0:0:0:
224,160,107220,5,0,0:0:0:0:
232,176,107320,1,0,0:0:0:0:
240,192,107420,1,0,0:0:0:0:
248,208,107520,1,0,0:0:0:0:
256,224,107620,1,0,0:0:0:0:
264,240,107720,1,0,0:0:0:0:
272,256,107820,1,0,0:0:0:0:
296,256,107920,1,0,0:0:0:0:
328,256,108020,1,0,0:0:0:0:
392,360,108220,5,0,0:0:0:0:
504,80,108420,1,0,0:0:0:0:
504,80,108620,1,0,0:0:0:0:
144,72,108820,5,0,0:0:0:0:
136,256,109220,1,0,0:0:0:0:
328,64,109620,1,0,0:0:0:0:
320,256,110020,1,0,0:0:0:0:
80,192,110420,5,0,0:0:0:0:
248,120,110620,1,0,0:0:0:0:
80,192,110820,1,0,0:0:0:0:
392,232,111020,1,0,0:0:0:0:
80,192,111220,5,0,0:0:0:0:
504,352,111420,1,0,0:0:0:0:
256,328,111620,1,0,0:0:0:0:
336,192,111820,1,0,0:0:0:0:
256,48,112020,5,0,0:0:0:0:
104,192,112420,1,0,0:0:0:0:
256,48,112620,1,0,0:0:0:0:
392,192,113020,1,0,0:0:0:0:
256,48,113220,1,0,0:0:0:0:
256,336,113420,1,0,0:0:0:0:
256,192,113620,5,0,0:0:0:0:
381,132,113820,2,0,B|293:164|268:171|237:204|237:220,1,140
120,272,114220,2,0,P|184:312|248:288,1,140
400,200,114620,1,0,0:0:0:0:
120,32,114820,1,0,0:0:0:0:
120,272,115020,1,0,0:0:0:0:
480,200,115220,2,0,P|464:120|320:176,1,280
320,296,115820,1,0,0:0:0:0:
112,296,116020,2,0,B|112:136|112:136|256:136,1,280
384,64,116820,2,0,L|416:144,1,70
424,160,117020,2,0,L|344:192,1,70
296,208,117220,1,0,0:0:0:0:
200,104,117420,2,0,P|152:168|160:240,1,140
256,312,117820,1,0,0:0:0:0:
288,120,118020,1,0,0:0:0:0:
56,120,118220,2,0,L|-32:144,4,70
256,48,118820,1,0,0:0:0:0:
400,232,119020,1,0,0:0:0:0:
128,240,119220,1,0,0:0:0:0:
400,64,119420,1,0,0:0:0:0:
256,320,119620,1,0,0:0:0:0:
120,64,119820,1,0,0:0:0:0:
