osu file format v14

[General]
AudioFilename: writeoncerunmelos192.mp3
AudioLeadIn: 0
PreviewTime: 318361
Countdown: 1
SampleSet: Soft
StackLeniency: 0.7
Mode: 0
LetterboxInBreaks: 0
WidescreenStoryboard: 1

[Editor]
Bookmarks: 392162
DistanceSpacing: 1
BeatDivisor: 4
GridSize: 4
TimelineZoom: 2.5

[Metadata]
Title:Write Once, Run Melos
TitleUnicode:Write Once, Run Melos
Artist:Kashiwa Daisuke
ArtistUnicode:Kashiwa Daisuke
Creator:regN
Version:Marathon
Source:
Tags:
BeatmapID:967939
BeatmapSetID:451197

[Difficulty]
HPDrainRate:5
CircleSize:4.1
OverallDifficulty:7.5
ApproachRate:9
SliderMultiplier:1.8
SliderTickRate:1

[Events]
//Background and Video events
0,0,"wallhaven1.jpg",0,0
//Break Periods
//Storyboard Layer 0 (Background)
//Storyboard Layer 1 (Fail)
//Storyboard Layer 2 (Pass)
//Storyboard Layer 3 (Foreground)
//Storyboard Sound Samples

[TimingPoints]
823,522.4,4,2,0,35,1,0
5002,461.6,4,2,0,35,1,0
7310,460,4,2,0,35,1,0
9610,469.7,4,2,0,35,1,0
11958,449,4,2,0,35,1,0
14203,465.8,4,2,0,35,1,0
16532,465,4,2,0,35,1,0
18857,460,4,2,0,35,1,0
21157,472.7,4,2,0,35,1,0
22575,439.3,4,2,0,35,1,0
22575,-142.857142857143,4,2,0,20,0,0
22794,-142.857142857143,4,2,0,5,0,0
23014,-142.857142857143,4,2,0,20,0,0
23233,-100,4,2,0,5,0,0
23453,464.7,4,2,0,5,1,0
23453,-200,4,2,0,30,0,0
25776,459.4,4,2,0,30,1,0
25776,-166.666666666667,4,2,0,40,0,0
28073,451,4,2,0,40,1,0
210982,340.909090909091,4,2,0,40,1,0
211663,299.909090909091,4,2,0,40,1,0
212262,340.909090909091,4,2,0,40,1,0
233990,340.909090909091,4,2,0,70,1,0
233990,-142.857142857143,4,2,0,70,0,0
255804,-117.647058823529,4,2,0,70,0,0
261259,-111.111111111111,4,2,0,70,0,0
266714,-105.263157894737,4,2,0,70,0,0
272170,-100,4,2,0,70,0,0
299444,-100,4,2,0,70,0,0
317171,338.983050847458,4,2,0,70,1,0
320560,-100,4,2,0,70,0,0
320645,-100,4,2,0,5,0,0
320730,-100,4,2,0,70,0,0
320815,-100,4,2,0,5,0,0
320899,-100,4,2,0,70,0,0
320984,-100,4,2,0,5,0,0
321069,-100,4,2,0,70,0,0
321154,-100,4,2,0,5,0,0
321238,340.909090909091,4,2,0,70,1,0
321238,-83.3333333333333,4,2,0,70,0,1
341692,342.857142857143,4,2,0,70,1,1
341692,-83.3333333333333,4,2,0,70,0,1
343063,341.199886266705,4,2,0,70,1,1
343063,-83.3333333333333,4,2,0,70,0,1
368994,342.857142857143,4,2,0,70,1,1
368994,-83.3333333333333,4,2,0,70,0,1
370365,341.880341880342,4,2,0,70,1,1
370365,-83.3333333333333,4,2,0,70,0,1
371732,339.943342776204,4,2,0,70,1,1
374451,335.195530726257,4,2,0,70,1,1
375791,341.880341880342,4,2,0,70,1,1
375791,-83.3333333333333,4,2,0,70,0,1
378526,342.465753424658,4,2,0,70,1,1
378526,-83.3333333333333,4,2,0,70,0,1
384005,339.943342776204,4,2,0,70,1,1
384005,-83.3333333333333,4,2,0,70,0,1
385364,336.134453781513,4,2,0,70,1,1
385364,-83.3333333333333,4,2,0,70,0,1
386708,340.909090909091,4,2,0,70,1,1
386708,-83.3333333333333,4,2,0,70,0,1
392162,342.465753424658,4,2,0,70,1,1
392162,-83.3333333333333,4,2,0,70,0,1
397641,341.880341880342,4,2,0,70,1,1
397641,-83.3333333333333,4,2,0,70,0,1
400376,340.909090909091,4,2,0,70,1,1
400376,-83.3333333333333,4,2,0,70,0,1
408552,340.967210319941,4,2,0,70,1,1
408552,-100,4,2,0,70,0,0
674847,312.1325939259,4,2,0,40,1,0
674847,-166.666666666667,4,2,0,40,0,0
676096,253.566840219082,4,2,0,40,1,0
677110,269.06794862596,4,2,0,40,1,0
678186,326.498628705759,4,2,0,40,1,0
678186,-166.666666666667,4,2,0,40,0,0
678839,358.500035850004,4,2,0,40,1,0
680273,515.951500558947,4,2,0,40,1,0
680273,-125,4,2,0,40,0,0
680788,337.498924803441,4,2,0,40,1,0
681125,-166.666666666667,4,2,0,40,0,0
681800,340.909090909091,4,2,0,40,1,0
681800,-166.666666666667,4,2,0,40,0,0
691175,340.909090909091,4,2,0,70,1,0
693902,-83.3333333333333,4,2,0,70,0,0
694584,-100,4,2,0,70,0,0

[HitObjects]
128,336,233990,6,0,B|184:314|184:314|240:256,1,125.999996154785
240,152,234671,2,0,P|300:168|344:232,1,125.999996154785
324,372,235353,2,0,L|316:308,1,62.9999980773926
380,108,235865,6,0,B|392:132|392:132|396:172,1,62.9999980773926
316,276,236376,1,0,0:0:0:0:
256,348,236546,2,0,P|220:284|240:216,1,125.999996154785
316,164,237058,2,0,P|264:120|208:120,1,125.999996154785
76,232,237569,5,0,0:0:0:0:
120,56,238080,5,0,0:0:0:0:
428,12,238762,5,0,0:0:0:0:
372,280,239444,6,0,P|254:287|180:184,1,251.999992309571
244,76,240467,1,0,0:0:0:0:
304,172,240637,1,0,0:0:0:0:
104,292,240808,2,0,B|88:224|88:224|92:152,1,125.999996154785
184,40,241319,2,0,P|199:72|204:128,1,62.9999980773926
200,232,241830,1,0,0:0:0:0:
308,376,242171,6,0,P|341:343|356:264,1,125.999996154785
260,148,242683,1,0,0:0:0:0:
264,292,242853,1,0,0:0:0:0:
436,228,243024,2,0,L|376:180,1,62.9999980773926
260,112,243365,1,0,0:0:0:0:
128,312,243535,5,0,0:0:0:0:
400,128,244217,5,0,0:0:0:0:
112,52,244899,6,0,P|92:108|104:188,1,125.999996154785
176,260,245410,1,0,0:0:0:0:
284,384,245580,2,0,P|304:328|292:248,1,125.999996154785
244,160,246092,1,0,0:0:0:0:
144,352,246262,2,0,L|227:317,1,62.9999980773926
414,214,246603,2,0,L|290:266,1,125.999996154785
164,328,247115,1,0,0:0:0:0:
140,208,247285,1,0,0:0:0:0:
252,156,247455,1,0,0:0:0:0:
480,264,247626,6,0,P|492:201|460:148,1,125.999996154785
324,96,248137,1,0,0:0:0:0:
292,332,248308,2,0,P|360:260|368:220,1,125.999996154785
300,72,248819,5,0,0:0:0:0:
84,140,248990,2,0,L|172:140,1,62.9999980773926
328,240,249330,2,0,L|248:240,1,62.9999980773926
132,56,249671,5,0,0:0:0:0:
156,280,250353,5,0,0:0:0:0:
156,280,250438,1,0,0:0:0:0:
156,280,250524,1,0,0:0:0:0:
216,184,250694,1,0,0:0:0:0:
312,244,250865,1,0,0:0:0:0:
416,276,251035,2,0,P|412:196|364:152,1,125.999996154785
136,44,251717,6,0,P|119:104|131:165,1,125.999996154785
216,272,252228,1,0,0:0:0:0:
348,384,252399,2,0,P|364:323|352:262,1,125.999996154785
244,100,252910,1,0,0:0:0:0:
90,268,253080,6,0,B|142:264|142:264|186:272|186:272|235:271,1,125.999996154785
336,320,253592,1,0,0:0:0:0:
288,188,253762,2,0,L|225:188,1,62.9999980773926
88,120,254103,2,0,L|151:120,1,62.9999980773926
380,32,254444,6,0,P|408:88|392:164,1,125.999996154785
132,352,255126,6,0,P|104:296|120:220,1,125.999996154785
204,44,255808,5,0,0:0:0:0:
236,192,255978,1,0,0:0:0:0:
236,192,256063,1,0,0:0:0:0:
236,192,256149,1,0,0:0:0:0:
68,124,256319,2,0,P|102:108|168:104,1,76.5000014591217
388,200,256660,2,0,P|353:215|288:220,1,76.5000014591217
128,184,257001,1,0,0:0:0:0:
208,368,257171,6,0,B|216:332|216:332|208:304|208:304|220:208,1,153.000002918243
280,96,257683,1,0,0:0:0:0:
288,252,257853,1,0,0:0:0:0:
288,252,257938,1,0,0:0:0:0:
288,252,258024,1,0,0:0:0:0:
176,160,258194,1,0,0:0:0:0:
360,168,258365,1,0,0:0:0:0:
360,360,258535,5,0,0:0:0:0:
436,176,258705,2,0,P|431:136|392:96,1,76.5000014591217
228,292,259046,2,0,P|233:252|272:212,1,76.5000014591217
360,168,259387,1,0,0:0:0:0:
224,368,259558,2,0,P|180:352|160:320,1,76.5000014591217
40,112,259899,6,0,B|96:96|96:96|136:107|136:107|208:80,1,153.000002918243
480,92,260580,6,0,L|324:156,1,153.000002918243
152,272,261262,5,0,0:0:0:0:
232,136,261433,1,0,0:0:0:0:
232,136,261518,1,0,0:0:0:0:
232,136,261603,1,0,0:0:0:0:
224,328,261774,1,0,0:0:0:0:
68,304,261944,2,0,B|56:232|108:196|108:196|84:144,1,161.999995056153
44,72,262455,1,0,0:0:0:0:
172,144,262626,5,0,0:0:0:0:
184,164,262711,1,0,0:0:0:0:
184,188,262796,1,0,0:0:0:0:
144,320,262967,1,0,0:0:0:0:
268,164,263137,1,0,0:0:0:0:
368,216,263308,1,0,0:0:0:0:
444,144,263478,1,0,0:0:0:0:
440,292,263649,6,0,L|451:330,2,40.4999987640381
392,88,263990,1,0,0:0:0:0:
184,196,264160,2,0,P|232:196|288:184,1,80.9999975280763
408,50,264501,2,0,L|380:114,2,40.4999987640381
336,264,264842,1,0,0:0:0:0:
224,116,265012,2,0,P|176:116|120:128,1,80.9999975280763
76,348,265353,6,0,P|60:304|64:256,1,80.9999975280763
104,144,265694,1,0,0:0:0:0:
244,288,266035,6,0,P|284:287|321:272,1,80.9999975280763
404,168,266376,1,0,0:0:0:0:
172,364,266717,6,0,P|156:320|156:264,1,85.4999977169037
104,216,266972,2,0,L|80:272,1,42.7499988584519
232,300,267228,2,0,P|228:257|213:217,1,85.4999977169037
108,112,267569,1,0,0:0:0:0:
284,160,267740,1,0,0:0:0:0:
284,160,267825,1,0,0:0:0:0:
284,160,267910,1,0,0:0:0:0:
153,281,268080,5,0,0:0:0:0:
153,281,268166,1,0,0:0:0:0:
153,281,268251,1,0,0:0:0:0:
340,256,268421,1,0,0:0:0:0:
284,160,268592,1,0,0:0:0:0:
380,104,268762,1,0,0:0:0:0:
216,27,268933,2,0,P|204:68|212:112,1,85.4999977169037
256,236,269274,1,0,0:0:0:0:
276,72,269444,6,0,B|240:64|240:64|180:80|180:80|104:60,1,170.999995433807
8,88,269955,2,0,P|20:124|68:156,1,85.4999977169037
128,296,270296,2,0,P|152:256|156:212,1,85.4999977169037
84,80,270637,1,0,0:0:0:0:
220,284,270808,6,0,B|256:280|256:280|290:283|290:283|332:280,1,85.4999977169037
436,240,271149,1,0,0:0:0:0:
436,240,271234,1,0,0:0:0:0:
436,240,271319,1,0,0:0:0:0:
264,324,271490,6,0,P|256:280|272:216,1,85.4999977169037
320,116,271830,1,0,0:0:0:0:
320,116,271916,1,0,0:0:0:0:
320,116,272001,1,0,0:0:0:0:
176,240,272171,5,0,0:0:0:0:
132,249,272256,1,0,0:0:0:0:
92,231,272341,1,0,0:0:0:0:
69,193,272426,1,0,0:0:0:0:
73,149,272511,1,0,0:0:0:0:
224,24,272683,2,0,P|240:64|228:132,1,90
176,240,273024,1,0,0:0:0:0:
176,240,273109,1,0,0:0:0:0:
176,240,273194,1,0,0:0:0:0:
252,344,273365,1,0,0:0:0:0:
400,292,273535,6,0,L|360:244,1,45
300,264,273705,2,0,P|312:212|348:188,1,90
416,184,273961,1,0,0:0:0:0:
416,184,274046,2,0,P|396:137|340:112,1,90
284,136,274302,2,0,L|224:108,1,45
104,60,274558,1,0,0:0:0:0:
243,116,274728,1,0,0:0:0:0:
104,60,274899,6,0,P|91:80|88:104,1,45
136,224,275069,1,0,0:0:0:0:
173,239,275154,1,0,0:0:0:0:
213,236,275239,1,0,0:0:0:0:
248,216,275324,1,0,0:0:0:0:
270,183,275409,1,0,0:0:0:0:
298,154,275495,1,0,0:0:0:0:
335,139,275580,1,0,0:0:0:0:
376,140,275665,1,0,0:0:0:0:
412,156,275750,1,0,0:0:0:0:
439,186,275836,1,0,0:0:0:0:
452,224,275921,1,0,0:0:0:0:
449,264,276006,1,0,0:0:0:0:
430,300,276091,1,0,0:0:0:0:
398,325,276177,1,0,0:0:0:0:
359,335,276262,6,0,P|347:315|343:293,1,45
392,96,276433,1,0,0:0:0:0:
359,72,276518,1,0,0:0:0:0:
320,64,276603,1,0,0:0:0:0:
280,72,276688,1,0,0:0:0:0:
248,95,276773,1,0,0:0:0:0:
227,130,276859,1,0,0:0:0:0:
223,170,276944,1,0,0:0:0:0:
232,212,277029,1,0,0:0:0:0:
242,250,277114,1,0,0:0:0:0:
236,290,277199,1,0,0:0:0:0:
215,324,277284,1,0,0:0:0:0:
182,347,277369,1,0,0:0:0:0:
142,354,277455,1,0,0:0:0:0:
103,344,277540,1,0,0:0:0:0:
71,320,277626,6,0,P|59:300|64:212,1,90
168,64,277967,2,0,L|196:16,2,45
84,136,278308,2,0,P|128:168|184:168,1,90
304,96,278649,1,0,0:0:0:0:
332,132,278734,1,0,0:0:0:0:
332,176,278819,1,0,0:0:0:0:
376,352,278990,6,0,B|396:316|396:316|404:248,1,90
444,56,279330,1,0,0:0:0:0:
417,91,279415,1,0,0:0:0:0:
377,112,279500,1,0,0:0:0:0:
333,113,279585,1,0,0:0:0:0:
292,95,279670,1,0,0:0:0:0:
248,84,279757,1,0,0:0:0:0:
203,85,279842,1,0,0:0:0:0:
165,109,279927,1,0,0:0:0:0:
144,148,280012,1,0,0:0:0:0:
145,192,280097,1,0,0:0:0:0:
168,231,280183,1,0,0:0:0:0:
206,253,280268,1,0,0:0:0:0:
251,253,280353,6,0,P|296:244|360:272,1,90
424,344,280694,1,0,0:0:0:0:
384,365,280779,1,0,0:0:0:0:
340,368,280864,1,0,0:0:0:0:
298,352,280949,1,0,0:0:0:0:
256,328,281035,1,0,0:0:0:0:
211,326,281120,1,0,0:0:0:0:
170,344,281205,1,0,0:0:0:0:
128,360,281291,1,0,0:0:0:0:
85,351,281376,1,0,0:0:0:0:
62,314,281461,1,0,0:0:0:0:
74,272,281546,1,0,0:0:0:0:
113,252,281631,1,0,0:0:0:0:
153,268,281717,6,0,P|169:244|165:148,1,90
108,16,282058,2,0,P|92:40|96:136,1,90
200,252,282399,1,0,0:0:0:0:
243,261,282484,1,0,0:0:0:0:
288,260,282569,1,0,0:0:0:0:
332,249,282654,1,0,0:0:0:0:
371,228,282739,1,0,0:0:0:0:
405,198,282825,1,0,0:0:0:0:
430,161,282910,1,0,0:0:0:0:
446,119,282995,1,0,0:0:0:0:
452,74,283080,6,0,B|439:125|439:125|480:192|432:272,1,180
286,381,283592,1,0,0:0:0:0:
264,342,283677,1,0,0:0:0:0:
264,297,283762,1,0,0:0:0:0:
287,259,283847,1,0,0:0:0:0:
304,216,283933,1,0,0:0:0:0:
299,171,284018,1,0,0:0:0:0:
277,133,284103,1,0,0:0:0:0:
240,107,284188,1,0,0:0:0:0:
196,100,284273,1,0,0:0:0:0:
153,112,284359,1,0,0:0:0:0:
119,141,284444,6,0,B|135:161|135:161|115:197|131:249,1,90
176,352,284785,1,0,0:0:0:0:
204,208,284955,1,0,0:0:0:0:
204,208,285041,1,0,0:0:0:0:
204,208,285126,1,0,0:0:0:0:
32,240,285296,1,0,0:0:0:0:
32,240,285382,1,0,0:0:0:0:
32,240,285467,1,0,0:0:0:0:
240,288,285637,1,0,0:0:0:0:
240,288,285722,1,0,0:0:0:0:
240,288,285808,6,0,B|296:244|284:184|284:184|288:212|312:244,1,180
360,352,286319,1,0,0:0:0:0:
402,338,286404,1,0,0:0:0:0:
434,307,286489,1,0,0:0:0:0:
447,264,286574,1,0,0:0:0:0:
438,220,286659,1,0,0:0:0:0:
410,186,286745,1,0,0:0:0:0:
369,168,286830,1,0,0:0:0:0:
328,179,286916,1,0,0:0:0:0:
292,206,287001,1,0,0:0:0:0:
251,224,287086,1,0,0:0:0:0:
208,232,287171,6,0,P|148:232|112:208,1,90
168,44,287512,2,0,B|180:72|180:72|192:156,1,90
160,324,287853,1,0,0:0:0:0:
160,324,287938,1,0,0:0:0:0:
160,324,288024,1,0,0:0:0:0:
88,124,288194,1,0,0:0:0:0:
88,124,288279,1,0,0:0:0:0:
88,124,288365,1,0,0:0:0:0:
256,360,288535,6,0,P|261:320|253:260,1,90
164,128,288876,1,0,0:0:0:0:
328,168,289046,1,0,0:0:0:0:
184,312,289217,1,0,0:0:0:0:
184,312,289302,1,0,0:0:0:0:
184,312,289388,1,0,0:0:0:0:
256,112,289558,1,0,0:0:0:0:
256,112,289643,1,0,0:0:0:0:
256,112,289729,1,0,0:0:0:0:
88,360,289899,6,0,P|82:320|90:260,1,90
184,144,290240,1,0,0:0:0:0:
184,312,290410,2,0,P|228:292|260:248,1,90
264,104,290751,1,0,0:0:0:0:
264,104,290836,1,0,0:0:0:0:
264,104,290921,1,0,0:0:0:0:
408,252,291092,1,0,0:0:0:0:
316,44,291262,6,0,P|264:28|224:36,1,90
148,132,291603,1,0,0:0:0:0:
224,308,291774,2,0,P|240:256|232:216,1,90
172,96,292115,1,0,0:0:0:0:
312,192,292285,1,0,0:0:0:0:
200,60,292455,1,0,0:0:0:0:
380,144,292626,6,0,P|392:185|376:252,1,90
252,376,292967,2,0,P|239:334|256:268,1,90
312,92,293308,2,0,L|204:132,1,90
40,168,293649,1,0,0:0:0:0:
36,212,293734,1,0,0:0:0:0:
53,253,293819,1,0,0:0:0:0:
89,280,293904,1,0,0:0:0:0:
133,286,293990,6,0,B|164:240|164:240|144:204|144:144|188:96,1,180
304,28,294501,1,0,0:0:0:0:
348,27,294586,1,0,0:0:0:0:
385,51,294671,1,0,0:0:0:0:
404,91,294756,1,0,0:0:0:0:
398,135,294841,1,0,0:0:0:0:
376,176,294927,1,0,0:0:0:0:
366,219,295012,1,0,0:0:0:0:
386,258,295097,1,0,0:0:0:0:
426,276,295182,1,0,0:0:0:0:
469,264,295267,1,0,0:0:0:0:
494,228,295353,6,0,P|438:224|398:236,1,90
300,328,295694,2,0,P|244:332|204:320,1,90
96,200,296035,1,0,0:0:0:0:
132,174,296120,1,0,0:0:0:0:
175,160,296205,1,0,0:0:0:0:
220,159,296290,1,0,0:0:0:0:
263,171,296376,1,0,0:0:0:0:
308,175,296461,1,0,0:0:0:0:
352,169,296546,1,0,0:0:0:0:
394,152,296631,1,0,0:0:0:0:
432,128,296717,6,0,L|360:88,1,45
247,15,296887,1,0,0:0:0:0:
223,52,296972,1,0,0:0:0:0:
217,96,297057,1,0,0:0:0:0:
232,139,297142,1,0,0:0:0:0:
263,171,297228,1,0,0:0:0:0:
288,208,297313,1,0,0:0:0:0:
296,253,297398,1,0,0:0:0:0:
286,296,297483,1,0,0:0:0:0:
259,332,297568,1,0,0:0:0:0:
221,355,297654,1,0,0:0:0:0:
177,361,297739,1,0,0:0:0:0:
134,349,297824,1,0,0:0:0:0:
99,320,297909,1,0,0:0:0:0:
78,281,297995,1,0,0:0:0:0:
75,236,298080,6,0,L|104:192,1,45
144,56,298251,1,0,0:0:0:0:
187,65,298336,1,0,0:0:0:0:
216,99,298421,1,0,0:0:0:0:
221,143,298507,1,0,0:0:0:0:
204,184,298592,1,0,0:0:0:0:
213,227,298677,1,0,0:0:0:0:
244,258,298762,1,0,0:0:0:0:
288,266,298847,1,0,0:0:0:0:
329,247,298933,1,0,0:0:0:0:
352,210,299018,1,0,0:0:0:0:
350,165,299103,1,0,0:0:0:0:
323,130,299188,1,0,0:0:0:0:
282,115,299274,1,0,0:0:0:0:
241,142,299359,1,0,0:0:0:0:
197,143,299444,6,0,B|172:152|144:128|144:128|192:208|180:276,1,180
100,344,299955,1,0,0:0:0:0:
240,364,300126,2,0,P|254:328|257:275,1,90
197,143,300467,1,0,0:0:0:0:
197,143,300552,1,0,0:0:0:0:
197,143,300637,1,0,0:0:0:0:
348,312,300808,6,0,P|363:269|366:225,1,90
304,92,301149,1,0,0:0:0:0:
304,92,301234,1,0,0:0:0:0:
304,92,301319,2,0,L|280:204,2,90
192,12,301830,2,0,L|172:108,1,90
48,240,302171,6,0,P|112:300|220:284,1,180
384,224,302683,1,0,0:0:0:0:
148,216,302853,2,0,L|166:127,1,90
288,24,303194,2,0,L|306:112,1,90
432,240,303535,6,0,P|368:300|260:284,1,180
128,148,304046,1,0,0:0:0:0:
184,316,304217,1,0,0:0:0:0:
240,184,304387,1,0,0:0:0:0:
148,72,304558,2,0,P|94:75|62:103,1,90
76,320,304899,5,0,0:0:0:0:
114,343,304984,1,0,0:0:0:0:
158,348,305069,1,0,0:0:0:0:
200,335,305154,1,0,0:0:0:0:
234,305,305239,1,0,0:0:0:0:
272,164,305410,1,0,0:0:0:0:
412,128,305580,1,0,0:0:0:0:
400,172,305666,1,0,0:0:0:0:
388,216,305751,1,0,0:0:0:0:
344,368,305921,1,0,0:0:0:0:
332,324,306006,1,0,0:0:0:0:
320,280,306092,1,0,0:0:0:0:
292,48,306262,6,0,B|248:60|248:60|188:48|188:48|144:52|117:65,1,180
64,196,306774,1,0,0:0:0:0:
216,280,306944,2,0,L|184:192,1,90
264,88,307285,2,0,L|296:176,1,90
220,356,307626,6,0,P|173:343|136:288,1,90
28,272,307967,2,0,P|15:225|44:165,1,90
176,52,308308,1,0,0:0:0:0:
208,84,308393,1,0,0:0:0:0:
220,128,308478,1,0,0:0:0:0:
224,172,308563,1,0,0:0:0:0:
225,216,308648,1,0,0:0:0:0:
247,255,308733,1,0,0:0:0:0:
284,279,308818,1,0,0:0:0:0:
329,282,308903,1,0,0:0:0:0:
370,264,308990,6,0,B|382:208|382:208|340:84,1,180
190,43,309501,2,0,L|224:140,1,90
296,280,309842,1,0,0:0:0:0:
256,300,309927,1,0,0:0:0:0:
212,292,310012,1,0,0:0:0:0:
219,127,310183,1,0,0:0:0:0:
408,320,310353,6,0,P|364:340|308:324,1,90
160,352,310694,2,0,P|164:300|220:248,1,90
296,184,311035,2,0,P|276:128|216:112,1,90
116,144,311376,1,0,0:0:0:0:
268,256,311546,1,0,0:0:0:0:
48,344,311717,6,0,B|64:304|64:304|40:236|80:148,1,180
172,64,312228,1,0,0:0:0:0:
292,256,312399,2,0,P|244:236|204:188,1,90
172,64,312740,1,0,0:0:0:0:
140,252,312910,1,0,0:0:0:0:
172,64,313080,6,0,B|224:52|224:52|296:80|388:64,1,180
472,40,313592,2,0,B|476:76|476:76|456:156,1,90
368,208,313933,2,0,L|338:308,1,90
192,360,314274,1,0,0:0:0:0:
192,360,314444,6,0,P|136:284|168:180,1,180
244,72,314955,1,0,0:0:0:0:
388,212,315126,2,0,P|316:272|204:252,1,180
120,152,315637,1,0,0:0:0:0:
348,40,315808,6,0,P|356:88|340:152,1,90
236,300,316149,2,0,P|228:252|244:188,1,90
148,88,316490,2,0,P|140:132|146:176,1,90
72,356,316831,2,0,P|79:311|73:267,1,90
52,64,317171,5,0,0:0:0:0:
112,128,317340,1,0,0:0:0:0:
152,44,317509,1,0,0:0:0:0:
240,56,317679,1,0,0:0:0:0:
332,16,317848,1,0,0:0:0:0:
332,108,318018,1,0,0:0:0:0:
296,196,318187,1,0,0:0:0:0:
372,240,318357,1,0,0:0:0:0:
208,264,318526,5,0,0:0:0:0:
208,176,318696,1,0,0:0:0:0:
296,196,318865,1,0,0:0:0:0:
376,156,319035,1,0,0:0:0:0:
376,276,319204,5,0,0:0:0:0:
372,284,319289,1,0,0:0:0:0:
364,292,319374,1,0,0:0:0:0:
356,296,319459,1,0,0:0:0:0:
348,296,319543,1,0,0:0:0:0:
340,292,319628,1,0,0:0:0:0:
332,284,319713,1,0,0:0:0:0:
328,276,319798,1,0,0:0:0:0:
328,268,319882,5,0,0:0:0:0:
366,289,319967,1,0,0:0:0:0:
411,288,320052,1,0,0:0:0:0:
449,266,320137,1,0,0:0:0:0:
472,228,320221,1,0,0:0:0:0:
472,183,320306,1,0,0:0:0:0:
451,144,320391,1,0,0:0:0:0:
413,121,320476,1,0,0:0:0:0:
368,120,320560,6,0,L|344:160,1,45,2|0,0:0|0:0,0:0:0:0:
276,248,320730,2,0,L|252:209,1,45
216,104,320899,2,0,L|192:144,1,45,2|0,0:0|0:0,0:0:0:0:
124,232,321069,2,0,L|100:193,1,45,4|0,0:0|0:0,0:0:0:0:
160,48,321238,6,0,P|212:28|272:48,1,107.999996704102,4|0,0:0|0:0,0:0:0:0:
340,312,321578,2,0,L|360:205,1,107.999996704102
440,24,321919,2,0,P|472:66|481:119,1,107.999996704102
376,352,322260,2,0,P|343:309|334:256,1,107.999996704102
188,80,322601,6,0,B|124:84|124:84|68:76,1,107.999996704102
104,296,322942,2,0,P|144:252|152:180,1,107.999996704102
224,0,323283,2,0,P|264:44|272:116,1,107.999996704102
428,296,323624,2,0,P|388:252|380:180,1,107.999996704102
71,84,323965,6,0,P|44:130|38:183,1,107.999996704102
136,360,324306,2,0,P|163:313|169:260,1,107.999996704102
440,84,324647,2,0,P|467:130|473:183,1,107.999996704102
376,360,324988,2,0,P|348:313|342:260,1,107.999996704102
144,64,325328,6,0,B|192:56|192:56|264:64,1,107.999996704102
340,208,325669,1,0,0:0:0:0:
408,40,325840,1,0,0:0:0:0:
280,276,326010,2,0,P|254:226|260:172,1,107.999996704102
328,16,326351,1,0,0:0:0:0:
428,208,326522,1,0,0:0:0:0:
228,96,326692,6,0,L|96:112,1,107.999996704102
160,340,327033,2,0,P|192:292|200:232,1,107.999996704102
316,32,327374,2,0,P|326:84|360:132,1,107.999996704102
364,352,327715,2,0,L|396:224,1,107.999996704102
300,56,328056,6,0,L|168:72,1,107.999996704102
128,308,328397,2,0,P|176:260|196:204,1,107.999996704102
292,84,328738,1,0,0:0:0:0:
280,116,328823,1,0,0:0:0:0:
268,148,328908,1,0,0:0:0:0:
312,304,329078,1,0,0:0:0:0:
324,272,329164,1,0,0:0:0:0:
336,240,329249,1,0,0:0:0:0:
200,100,329419,6,0,B|72:136,1,107.999996704102
312,0,329760,1,0,0:0:0:0:
296,156,329931,1,0,0:0:0:0:
68,104,330101,2,0,L|204:67,1,107.999996704102
312,0,330442,1,0,0:0:0:0:
296,156,330613,1,0,0:0:0:0:
296,156,330698,1,0,0:0:0:0:
296,156,330783,6,0,L|348:176,1,53.9999983520508
472,188,330953,1,0,0:0:0:0:
472,241,331039,1,0,0:0:0:0:
448,289,331124,1,0,0:0:0:0:
405,320,331209,1,0,0:0:0:0:
352,328,331294,1,0,0:0:0:0:
302,311,331380,1,0,0:0:0:0:
264,273,331465,6,0,L|240:212,1,53.9999983520508
252,104,331635,1,0,0:0:0:0:
201,86,331720,1,0,0:0:0:0:
148,95,331806,1,0,0:0:0:0:
105,126,331891,1,0,0:0:0:0:
81,174,331976,1,0,0:0:0:0:
82,227,332061,1,0,0:0:0:0:
104,272,332147,6,0,P|132:220|136:168,1,107.999996704102
247,35,332488,2,0,P|253:89|280:136,1,107.999996704102
392,232,332828,1,0,0:0:0:0:
416,88,332999,1,0,0:0:0:0:
308,344,333169,2,0,L|296:228,1,107.999996704102
240,56,333510,5,0,0:0:0:0:
216,200,333681,1,0,0:0:0:0:
308,344,333851,2,0,L|319:236,1,107.999996704102
416,88,334192,2,0,B|353:75|353:75|300:76,1,107.999996704102
109,187,334533,2,0,B|172:199|172:199|225:199,1,107.999996704102
376,328,334874,6,0,L|344:196,1,107.999996704102
112,32,335215,2,0,L|144:164,1,107.999996704102
220,344,335556,1,0,0:0:0:0:
240,152,335726,1,0,0:0:0:0:
48,288,335897,2,0,B|108:284|108:284|188:260,1,107.999996704102
420,212,336238,6,0,P|364:188|312:180,1,107.999996704102
96,104,336578,2,0,P|136:84|208:76,1,107.999996704102
416,48,336919,2,0,B|424:88|424:88|412:120|412:120|452:196|424:288,1,215.999993408203
360,364,337431,1,0,0:0:0:0:
160,336,337601,6,0,L|136:192,1,107.999996704102
240,8,337942,2,0,L|264:152,1,107.999996704102
244,296,338283,1,0,0:0:0:0:
160,156,338453,1,0,0:0:0:0:
308,352,338624,2,0,P|322:294|304:236,1,107.999996704102
380,104,338965,6,0,P|392:155|428:195,1,107.999996704102
263,159,339306,2,0,P|211:170|160:156,1,107.999996704102
80,72,339646,1,0,0:0:0:0:
132,228,339816,1,0,0:0:0:0:
244,352,339987,2,0,B|236:284|236:284|220:228,1,107.999996704102
304,76,340328,6,0,B|312:144|312:144|328:200,1,107.999996704102
456,316,340669,2,0,B|448:248|448:248|432:192,1,107.999996704102
432,76,341010,1,0,0:0:0:0:
368,344,341181,1,0,0:0:0:0:
368,344,341266,1,0,0:0:0:0:
368,344,341351,6,0,L|356:280,1,53.9999983520508
260,200,341522,1,0,0:0:0:0:
260,200,341607,1,0,0:0:0:0:
259,199,341692,6,0,L|270:251,1,53.9999983520508
212,360,341864,1,0,0:0:0:0:
161,342,341949,1,0,0:0:0:0:
123,305,342034,1,0,0:0:0:0:
104,254,342120,1,0,0:0:0:0:
109,201,342206,1,0,0:0:0:0:
137,155,342292,1,0,0:0:0:0:
181,126,342377,6,0,L|248:120,1,53.9999983520508
348,64,342549,1,0,2:0:0:0:
382,103,342634,1,0,2:0:0:0:
397,154,342720,1,0,2:0:0:0:
388,208,342806,1,0,2:0:0:0:
357,251,342892,1,0,2:0:0:0:
310,277,342977,1,0,2:0:0:0:
260,264,343063,6,0,P|304:244|376:292,1,107.999996704102
172,352,343404,2,0,P|144:300|144:248,1,107.999996704102
96,68,343745,2,0,P|93:121|68:172,1,107.999996704102
240,144,344086,2,0,P|296:160|348:140,1,107.999996704102
424,232,344427,6,0,B|432:260|432:260|424:284|424:284|436:348,1,107.999996704102
312,288,344768,6,0,L|288:160,1,107.999996704102
272,20,345110,2,0,P|223:35|168:100,1,107.999996704102
88,296,345451,2,0,P|137:281|192:216,1,107.999996704102
336,80,345792,5,0,0:0:0:0:
436,200,345963,1,0,0:0:0:0:
320,304,346133,2,0,L|316:156,1,107.999996704102
292,64,346474,1,0,0:0:0:0:
172,200,346645,1,0,0:0:0:0:
320,304,346816,2,0,B|347:316|347:316|379:305|455:306,1,107.999996704102
240,260,347157,5,0,0:0:0:0:
140,332,347327,1,0,0:0:0:0:
188,140,347498,1,0,0:0:0:0:
312,228,347669,1,0,0:0:0:0:
136,212,347839,1,0,0:0:0:0:
232,64,348010,1,0,0:0:0:0:
304,304,348180,1,0,0:0:0:0:
116,140,348351,1,0,0:0:0:0:
344,376,348522,6,0,P|380:328|360:248,1,107.999996704102
424,56,348863,2,0,P|364:52|312:88,1,107.999996704102
184,288,349204,2,0,P|248:288|288:264,1,107.999996704102
340,152,349545,1,0,0:0:0:0:
56,364,349716,6,0,B|64:340|64:340|54:311|54:311|68:260,1,107.999996704102
168,136,350057,5,0,0:0:0:0:
296,360,350228,2,0,P|328:324|328:252,1,107.999996704102
312,64,350569,2,0,P|364:64|420:108,1,107.999996704102
448,256,350910,1,0,0:0:0:0:
344,376,351081,1,0,0:0:0:0:
80,344,351251,6,0,B|120:340|120:340|160:352|187:344,1,107.999996704102
344,268,351592,1,0,0:0:0:0:
280,128,351763,1,0,0:0:0:0:
152,40,351934,2,0,B|142:89|142:89|148:152,1,107.999996704102
236,344,352275,1,0,0:0:0:0:
277,309,352360,1,0,0:0:0:0:
298,260,352445,1,0,0:0:0:0:
297,207,352531,1,0,0:0:0:0:
271,160,352616,6,0,B|252:136|252:136|243:114,1,53.9999983520508
225,2,352787,1,0,0:0:0:0:
278,2,352872,1,0,0:0:0:0:
325,27,352957,1,0,0:0:0:0:
355,71,353043,1,0,0:0:0:0:
360,125,353128,1,0,0:0:0:0:
338,174,353213,1,0,0:0:0:0:
297,207,353298,6,0,B|288:228|288:228|269:252,1,53.9999983520508
236,376,353469,1,0,0:0:0:0:
183,376,353554,1,0,0:0:0:0:
136,351,353640,1,0,0:0:0:0:
106,307,353725,1,0,0:0:0:0:
101,253,353810,1,0,0:0:0:0:
123,204,353896,1,0,0:0:0:0:
168,176,353981,6,0,B|244:156|208:188|292:172,1,107.999996704102
416,84,354322,1,0,0:0:0:0:
320,272,354493,1,0,0:0:0:0:
256,104,354663,1,0,0:0:0:0:
456,160,354834,1,0,0:0:0:0:
308,360,355004,2,0,P|256:332|232:280,1,107.999996704102
152,28,355346,6,0,B|160:48|160:48|148:80|148:80|144:96|148:136,1,107.999996704102
271,283,355687,1,0,0:0:0:0:
284,60,355857,1,0,0:0:0:0:
152,232,356028,1,0,0:0:0:0:
152,232,356113,1,0,0:0:0:0:
152,232,356199,1,0,0:0:0:0:
356,376,356369,2,0,P|364:320|340:236,1,107.999996704102
216,108,356710,1,0,0:0:0:0:
68,272,356881,6,0,P|164:308|284:276,1,215.999993408203
464,356,357393,2,0,P|476:244|432:132,1,215.999993408203
296,48,357905,1,0,0:0:0:0:
40,152,358075,2,0,P|128:184|276:144,1,215.999993408203
372,96,358587,1,0,0:0:0:0:
396,300,358758,2,0,B|360:296|360:296|336:308|336:308|264:288|184:308,1,215.999993408203
64,372,359269,1,0,0:0:0:0:
248,360,359440,6,0,P|260:304|228:240,1,107.999996704102
96,40,359781,2,0,P|84:96|116:160,1,107.999996704102
416,208,360122,6,0,P|362:186|294:206,1,107.999996704102
184,332,360464,2,0,P|145:289|136:220,1,107.999996704102
248,64,360805,5,0,0:0:0:0:
348,192,360975,1,0,0:0:0:0:
260,368,361146,2,0,L|268:228,1,107.999996704102
360,84,361487,1,0,0:0:0:0:
266,260,361658,1,0,0:0:0:0:
416,364,361828,2,0,P|432:312|416:252,1,107.999996704102
331,66,362170,6,0,L|316:120,1,53.9999983520508
300,172,362340,1,0,0:0:0:0:
352,188,362426,1,0,0:0:0:0:
368,136,362511,1,0,0:0:0:0:
136,156,362681,6,0,L|92:104,1,53.9999983520508
64,76,362852,1,0,0:0:0:0:
104,40,362937,1,0,0:0:0:0:
140,80,363023,1,0,0:0:0:0:
196,268,363193,6,0,L|216:352,1,53.9999983520508
224,372,363364,1,0,0:0:0:0:
276,352,363449,1,0,0:0:0:0:
260,300,363534,1,0,0:0:0:0:
184,148,363705,5,0,0:0:0:0:
202,98,363790,1,0,0:0:0:0:
251,81,363876,1,0,0:0:0:0:
296,108,363961,1,0,0:0:0:0:
304,159,364046,1,0,0:0:0:0:
269,199,364132,1,0,0:0:0:0:
260,251,364217,1,0,0:0:0:0:
279,300,364302,1,0,0:0:0:0:
323,331,364387,1,0,0:0:0:0:
376,333,364473,1,0,0:0:0:0:
422,306,364558,1,0,0:0:0:0:
446,259,364643,1,0,0:0:0:0:
440,206,364729,1,0,0:0:0:0:
407,164,364814,1,0,0:0:0:0:
356,148,364899,6,0,B|308:156|308:156|204:144,1,107.999996704102
88,56,365240,1,0,0:0:0:0:
152,240,365411,1,0,0:0:0:0:
232,64,365582,1,0,0:0:0:0:
16,156,365752,1,0,0:0:0:0:
212,156,365923,1,0,0:0:0:0:
196,352,366093,1,0,0:0:0:0:
292,56,366264,5,0,0:0:0:0:
436,208,366435,1,0,0:0:0:0:
232,260,366605,1,0,0:0:0:0:
388,80,366776,1,0,0:0:0:0:
336,312,366946,1,0,0:0:0:0:
268,84,367117,1,0,0:0:0:0:
468,220,367288,1,0,0:0:0:0:
280,368,367458,1,0,0:0:0:0:
104,100,367629,5,0,0:0:0:0:
252,248,367799,1,0,0:0:0:0:
288,40,367970,1,0,0:0:0:0:
144,272,368141,1,0,0:0:0:0:
338,350,368311,1,0,0:0:0:0:
289,144,368482,1,0,0:0:0:0:
228,352,368652,1,0,0:0:0:0:
440,300,368823,1,0,0:0:0:0:
148,380,368994,6,0,B|140:356|140:356|148:332|148:332|156:296|148:240,1,107.999996704102
184,96,369336,1,0,0:0:0:0:
272,256,369508,1,0,0:0:0:0:
428,184,369679,2,0,P|364:176|292:192,1,107.999996704102
188,264,370022,2,0,P|134:270|81:262,1,107.999996704102
324,20,370365,6,0,P|334:73|324:156,1,107.999996704102
264,284,370706,1,0,0:0:0:0:
248,104,370877,1,0,0:0:0:0:
404,192,371048,1,0,0:0:0:0:
188,228,371219,1,0,0:0:0:0:
224,32,371390,1,0,0:0:0:0:
316,212,371561,1,0,0:0:0:0:
56,80,371732,5,0,0:0:0:0:
160,272,371901,1,0,0:0:0:0:
236,76,372071,1,0,0:0:0:0:
76,244,372241,1,0,0:0:0:0:
256,356,372411,1,0,0:0:0:0:
176,132,372581,1,0,0:0:0:0:
112,352,372751,1,0,0:0:0:0:
280,172,372921,1,0,0:0:0:0:
424,336,373091,5,0,0:0:0:0:
420,96,373261,1,0,0:0:0:0:
332,256,373431,1,0,0:0:0:0:
476,164,373601,1,0,0:0:0:0:
340,348,373771,1,0,0:0:0:0:
320,168,373941,1,0,0:0:0:0:
480,264,374111,1,0,0:0:0:0:
256,304,374281,1,0,0:0:0:0:
276,80,374451,5,0,0:0:0:0:
200,244,374618,1,0,0:0:0:0:
128,80,374786,1,0,0:0:0:0:
284,208,374953,1,0,0:0:0:0:
204,28,375121,1,0,0:0:0:0:
384,160,375288,1,0,0:0:0:0:
272,300,375456,1,0,0:0:0:0:
328,48,375624,1,0,0:0:0:0:
224,376,375791,6,0,P|194:331|191:277,1,107.999996704102
268,128,376133,1,0,0:0:0:0:
272,300,376304,1,0,0:0:0:0:
428,228,376475,1,0,0:0:0:0:
200,220,376646,1,0,0:0:0:0:
384,128,376817,1,0,0:0:0:0:
376,328,376988,1,0,0:0:0:0:
256,144,377158,5,0,0:0:0:0:
88,148,377329,1,0,0:0:0:0:
280,32,377500,1,0,0:0:0:0:
232,248,377671,1,0,0:0:0:0:
176,36,377842,1,0,0:0:0:0:
324,216,378013,1,0,0:0:0:0:
164,124,378184,1,0,0:0:0:0:
96,280,378355,1,0,0:0:0:0:
320,108,378526,5,0,0:0:0:0:
448,200,378697,1,0,0:0:0:0:
308,272,378868,1,0,0:0:0:0:
336,80,379039,1,0,0:0:0:0:
476,220,379210,1,0,0:0:0:0:
296,304,379382,1,0,0:0:0:0:
356,48,379553,1,0,0:0:0:0:
400,280,379724,1,0,0:0:0:0:
48,328,379895,5,0,0:0:0:0:
196,164,380067,1,0,0:0:0:0:
12,216,380238,1,0,0:0:0:0:
172,72,380409,1,0,0:0:0:0:
172,284,380580,1,0,0:0:0:0:
48,100,380752,1,0,0:0:0:0:
256,240,380923,1,0,0:0:0:0:
48,328,381094,1,0,0:0:0:0:
192,0,381265,6,0,P|232:28|240:108,1,107.999996704102
132,236,381608,1,0,0:0:0:0:
168,80,381779,1,0,0:0:0:0:
304,248,381950,2,0,P|344:220|352:140,1,107.999996704102
320,8,382293,1,0,0:0:0:0:
280,168,382464,1,0,0:0:0:0:
232,368,382635,6,0,B|228:352|228:352|212:336|212:336|196:252,1,107.999996704102
248,28,382978,2,0,L|269:133,1,107.999996704102
416,328,383320,2,0,L|394:222,1,107.999996704102
452,64,383662,2,0,P|380:44|332:64,1,107.999996704102
121,174,384005,6,0,P|141:194|173:206,1,53.9999983520508
276,240,384174,1,0,0:0:0:0:
269,292,384259,1,0,0:0:0:0:
233,331,384344,1,0,0:0:0:0:
181,343,384429,1,0,0:0:0:0:
132,323,384514,1,0,0:0:0:0:
103,278,384599,1,0,0:0:0:0:
106,225,384684,6,0,P|120:164|108:140,1,53.9999983520508
60,68,384854,1,0,0:0:0:0:
88,23,384939,1,0,0:0:0:0:
137,2,385024,1,0,0:0:0:0:
189,14,385109,1,0,0:0:0:0:
225,53,385194,1,0,0:0:0:0:
232,106,385279,1,0,0:0:0:0:
256,152,385364,6,0,P|276:172|308:184,1,53.9999983520508
380,300,385532,1,0,0:0:0:0:
380,300,385616,1,0,0:0:0:0:
380,300,385700,6,0,P|399:280|411:248,1,53.9999983520508
508,152,385868,1,0,0:0:0:0:
508,152,385952,1,0,0:0:0:0:
508,152,386036,6,0,P|488:132|456:120,1,53.9999983520508
352,32,386204,1,0,0:0:0:0:
352,32,386288,1,0,0:0:0:0:
352,32,386372,6,0,P|332:52|320:84,1,53.9999983520508
344,220,386540,1,0,0:0:0:0:
304,256,386624,1,0,0:0:0:0:
248,252,386708,6,0,L|232:124,1,107.999996704102
144,28,387048,1,0,0:0:0:0:
116,224,387219,1,0,0:0:0:0:
252,64,387389,1,0,0:0:0:0:
48,140,387560,1,0,0:0:0:0:
136,336,387730,1,0,0:0:0:0:
176,108,387901,1,0,0:0:0:0:
444,216,388071,6,0,L|324:168,1,107.999996704102
160,56,388412,1,0,0:0:0:0:
212,256,388583,1,0,0:0:0:0:
352,72,388753,1,0,0:0:0:0:
360,328,388923,1,0,0:0:0:0:
180,152,389094,1,0,0:0:0:0:
484,120,389264,1,0,0:0:0:0:
199,45,389435,6,0,L|175:177,1,107.999996704102
128,348,389776,1,0,0:0:0:0:
60,144,389946,1,0,0:0:0:0:
264,216,390117,1,0,0:0:0:0:
52,304,390287,1,0,0:0:0:0:
124,80,390458,1,0,0:0:0:0:
216,360,390628,1,0,0:0:0:0:
408,339,390798,6,0,L|396:232,1,107.999996704102
300,44,391140,1,0,0:0:0:0:
320,268,391310,1,0,0:0:0:0:
208,84,391480,1,0,0:0:0:0:
440,160,391651,1,0,0:0:0:0:
236,288,391821,1,0,0:0:0:0:
392,72,391992,1,0,0:0:0:0:
112,48,392162,6,0,L|132:172,1,107.999996704102
174,372,392504,2,0,P|214:336|238:252,1,107.999996704102
280,60,392846,1,0,0:0:0:0:
172,236,393018,1,0,0:0:0:0:
379,102,393189,2,0,L|274:57,1,107.999996704102
96,32,393531,5,0,0:0:0:0:
284,248,393703,1,0,0:0:0:0:
66,130,393874,2,0,P|67:77|96:32,1,107.999996704102
328,24,394216,1,0,0:0:0:0:
484,172,394388,1,0,0:0:0:0:
386,375,394559,2,0,L|372:268,1,107.999996704102
220,40,394901,6,0,L|234:147,1,107.999996704102
100,384,395244,2,0,L|86:277,1,107.999996704102
144,60,395586,1,0,0:0:0:0:
340,120,395757,1,0,0:0:0:0:
228,352,395929,2,0,P|208:292|216:224,1,107.999996704102
404,44,396271,5,0,0:0:0:0:
200,172,396442,1,0,0:0:0:0:
368,380,396614,2,0,P|388:320|380:252,1,107.999996704102
304,60,396956,1,0,0:0:0:0:
468,236,397127,1,0,0:0:0:0:
212,84,397298,2,0,P|144:106|108:160,1,107.999996704102
232,356,397641,6,0,L|220:244,1,107.999996704102
72,56,397982,2,0,P|32:115|40:176,1,107.999996704102
148,288,398324,1,0,0:0:0:0:
396,200,398495,1,0,0:0:0:0:
352,384,398666,2,0,P|296:352|272:311,1,107.999996704102
276,108,399008,5,0,0:0:0:0:
368,292,399179,1,0,0:0:0:0:
383,105,399350,2,0,P|332:100|258:113,1,107.999996704102
136,204,399692,1,0,0:0:0:0:
212,20,399863,1,0,0:0:0:0:
264,308,400034,2,0,P|269:257|256:183,1,107.999996704102
64,24,400376,6,0,P|59:75|72:149,1,107.999996704102
204,364,400716,2,0,P|144:372|52:356,1,107.999996704102
12,240,401057,1,0,0:0:0:0:
160,120,401228,1,0,0:0:0:0:
348,148,401398,2,0,P|376:204|376:280,1,107.999996704102
272,384,401739,6,0,P|244:328|244:252,1,107.999996704102
380,248,402080,2,0,P|408:192|408:116,1,107.999996704102
300,40,402421,1,0,0:0:0:0:
148,96,402591,1,0,0:0:0:0:
296,296,402762,2,0,L|272:176,1,107.999996704102
112,64,403103,6,0,L|136:184,1,107.999996704102
304,368,403444,2,0,P|328:332|328:252,1,107.999996704102
224,80,403785,1,0,0:0:0:0:
152,324,403955,1,0,0:0:0:0:
432,264,404126,2,0,P|416:204|368:160,1,107.999996704102
40,60,404466,6,0,P|56:120|104:164,1,107.999996704102
328,344,404807,2,0,L|284:216,1,107.999996704102
136,88,405148,1,0,0:0:0:0:
236,336,405319,1,0,0:0:0:0:
448,52,405489,2,0,P|396:40|332:52,1,107.999996704102
30,111,405830,5,0,0:0:0:0:
54,158,405915,1,0,0:0:0:0:
99,186,406001,1,0,0:0:0:0:
152,185,406086,1,0,0:0:0:0:
197,157,406171,1,0,0:0:0:0:
220,108,406256,1,0,0:0:0:0:
271,97,406341,1,0,0:0:0:0:
311,132,406427,1,0,0:0:0:0:
310,184,406512,1,0,0:0:0:0:
267,215,406597,1,0,0:0:0:0:
218,201,406682,1,0,0:0:0:0:
197,157,406768,1,0,0:0:0:0:
155,124,406853,1,0,0:0:0:0:
102,122,406938,1,0,0:0:0:0:
58,152,407023,1,0,0:0:0:0:
40,202,407108,1,0,0:0:0:0:
48,256,407194,5,0,0:0:0:0:
72,268,407279,1,0,0:0:0:0:
96,280,407364,1,0,0:0:0:0:
120,292,407449,1,0,0:0:0:0:
144,304,407535,1,0,0:0:0:0:
168,316,407620,1,0,0:0:0:0:
192,324,407705,1,0,0:0:0:0:
432,256,407876,5,0,0:0:0:0:
368,312,408046,5,0,0:0:0:0:
228,240,408216,5,0,0:0:0:0:
96,48,408552,5,0,0:0:0:0:
