osu file format v14

[General]
AudioFilename: output.mp3
AudioLeadIn: 0
PreviewTime: 240428
Countdown: 0
SampleSet: Soft
StackLeniency: 0.3
Mode: 0
LetterboxInBreaks: 0
WidescreenStoryboard: 1

[Editor]
Bookmarks: 16470,48451,80445,112469,144437,176450,192447,208449,224441,240444,272462,312540
DistanceSpacing: 0.2
BeatDivisor: 8
GridSize: 32
TimelineZoom: 3.3

[Metadata]
Title:Red Skirts
TitleUnicode:Red Skirts
Artist:KASHIWA Daisuke
ArtistUnicode:KASHIWA Daisuke
Creator:hehe
Version:Plaid Jazz
Source:
Tags:flake virgin babylon records jazz instrumental japanese 柏大輔
BeatmapID:3682744
BeatmapSetID:1745894

[Difficulty]
HPDrainRate:5.5
CircleSize:4
OverallDifficulty:8
ApproachRate:9.4
SliderMultiplier:2.42999990463257
SliderTickRate:1

[Events]
//Background and Video events
0,0,"bg.jpg",0,0
//Break Periods
//Storyboard Layer 0 (Background)
//Storyboard Layer 1 (Fail)
//Storyboard Layer 2 (Pass)
//Storyboard Layer 3 (Foreground)
//Storyboard Layer 4 (Overlay)
//Storyboard Sound Samples

[TimingPoints]
492,483.870967741935,4,2,1,40,1,0
492,-100,4,2,1,40,0,0
814,-83.3333333333333,4,2,1,40,0,0
1137,-71.4285714285714,4,2,1,40,0,0
1459,508.474576271187,4,2,1,40,1,0
1459,-62.5,4,2,1,40,0,0
1797,-71.4285714285714,4,2,1,40,0,0
2136,-83.3333333333333,4,2,1,40,0,0
2475,504.201680672269,4,2,1,40,1,0
2475,-500,4,2,1,40,0,0
4492,483.870967741935,4,2,1,40,1,0
4492,-100,4,2,1,40,0,0
4814,-83.3333333333333,4,2,1,40,0,0
5137,-71.4285714285714,4,2,1,40,0,0
5459,508.474576271187,4,2,1,40,1,0
5459,-62.5,4,2,1,40,0,0
5797,-71.4285714285714,4,2,1,40,0,0
6136,-83.3333333333333,4,2,1,40,0,0
6475,504.201680672269,4,2,1,40,1,0
6475,-500,4,2,1,40,0,0
8492,483.870967741935,4,2,1,40,1,0
8492,-100,4,2,1,40,0,0
8814,-83.3333333333333,4,2,1,40,0,0
9137,-71.4285714285714,4,2,1,40,0,0
9459,508.474576271187,4,2,1,40,1,0
9459,-62.5,4,2,1,40,0,0
9797,-71.4285714285714,4,2,1,40,0,0
10136,-83.3333333333333,4,2,1,40,0,0
10475,504.201680672269,4,2,1,40,1,0
10475,-500,4,2,1,40,0,0
12492,500,4,2,1,50,1,0
12492,-166.666666666667,4,2,1,20,0,0
12742,-166.666666666667,4,2,2,25,0,0
12992,-166.666666666667,4,2,1,30,0,0
13242,-166.666666666667,4,2,2,35,0,0
13492,-166.666666666667,4,2,1,40,0,0
13742,-166.666666666667,4,2,2,45,0,0
13992,-166.666666666667,4,2,1,50,0,0
14242,-166.666666666667,4,2,2,55,0,0
14492,-166.666666666667,4,2,1,60,0,0
14742,-166.666666666667,4,2,2,65,0,0
14992,-166.666666666667,4,2,1,70,0,0
15242,-166.666666666667,4,2,2,75,0,0
15492,-166.666666666667,4,2,1,80,0,0
15742,-166.666666666667,4,2,2,85,0,0
15992,-166.666666666667,4,2,1,90,0,0
16241,-166.666666666667,4,2,2,95,0,0
16470,500,4,2,1,80,1,0
16470,-66.6666666666667,4,2,1,80,0,0
20720,-76.9230769230769,4,2,1,80,0,0
20970,-90.9090909090909,4,2,1,80,0,0
21470,-66.6666666666667,4,2,1,80,0,0
21720,-125,4,2,1,80,0,0
21970,491.803278688525,4,2,1,80,1,0
21970,-66.6666666666667,4,2,1,80,0,0
23445,512.820512820513,4,2,1,80,1,0
23445,-66.6666666666667,4,2,1,80,0,0
24470,500,4,2,1,80,1,0
24470,-133.333333333333,4,2,1,80,0,0
24845,-66.6666666666667,4,2,1,80,0,0
27470,-200,4,2,1,80,0,0
27720,-66.6666666666667,4,2,1,80,0,0
31470,470.588235294118,4,2,1,80,1,0
31470,-66.6666666666667,4,2,1,80,0,0
32411,517.241379310345,4,2,1,80,1,0
32411,-66.6666666666667,4,2,1,80,0,0
33704,-50,4,2,1,80,0,0
34479,491.803278688525,4,2,1,80,1,0
34479,-66.6666666666667,4,2,1,80,0,0
36036,-50,4,2,1,80,0,0
36446,500,4,2,1,80,1,0
36446,-66.6666666666667,4,2,1,80,0,0
38446,508.474576271186,4,2,1,80,1,0
38446,-50,4,2,1,80,0,0
38954,-66.6666666666667,4,2,1,80,0,0
40479,495.867768595041,4,2,1,80,1,0
40479,-66.6666666666667,4,2,1,80,0,0
43950,-50,4,2,1,80,0,0
44445,504.201680672269,4,2,1,80,1,0
44445,-66.6666666666667,4,2,1,80,0,0
47470,491.803278688525,4,2,1,80,1,0
48451,506.329113924051,4,2,1,60,1,0
50476,503.14465408805,4,2,1,60,1,0
52488,476.190476190476,4,2,1,60,1,0
53440,524.017467248908,4,2,1,60,1,0
54488,461.538461538462,4,2,1,60,1,0
55180,530.973451327434,4,2,1,60,1,0
55711,515.021459227468,4,2,1,60,1,0
56483,483.870967741935,4,2,1,60,1,0
57450,521.739130434783,4,2,1,60,1,0
58495,454.545454545455,4,2,1,60,1,0
58949,489.795918367347,4,2,1,60,1,0
59193,491.803278688525,4,2,1,60,1,0
59439,524.475524475524,4,2,1,60,1,0
60488,500,4,2,1,60,1,0
61488,451.127819548872,4,2,1,60,1,0
61939,548.947849954254,4,2,1,60,1,0
62488,606.060606060606,4,2,1,60,1,0
62690,550.45871559633,4,2,1,60,1,0
62965,493.827160493827,4,2,1,60,1,0
63459,485.82995951417,4,2,1,60,1,0
63701,517.241379310345,4,2,1,60,1,0
63959,566.037735849057,4,2,1,60,1,0
64431,510.421097405359,4,2,1,60,1,0
66472,459.770114942529,4,2,1,60,1,0
66931,490.998363338789,4,2,1,60,1,0
67667,512.820512820513,4,2,1,60,1,0
68439,507.185122569738,4,2,1,60,1,0
69706,554.016620498615,4,2,1,60,1,0
70167,600,4,2,1,60,1,0
70350,705.882352941176,4,2,1,60,1,0
70467,507.185122569738,4,2,1,60,1,0
72496,481.927710843374,4,2,1,60,1,0
74423,477.707006369427,4,2,1,60,1,0
75139,530.973451327434,4,2,1,60,1,0
75404,461.538461538462,4,2,1,60,1,0
75634,576.923076923077,4,2,1,60,1,0
75922,410.116199589884,4,2,1,60,1,0
76260,507.185122569738,4,2,1,60,1,0
76429,488.599348534202,4,2,1,60,1,0
77406,507.185122569738,4,2,1,60,1,0
78420,506.329113924051,4,2,1,60,1,0
80445,510.63829787234,4,2,5,70,1,0
80445,-66.6666666666667,4,2,5,70,0,0
80827,-66.6666666666667,4,2,6,70,0,0
81210,-66.6666666666667,4,2,7,70,0,0
81466,-66.6666666666667,4,2,8,70,0,0
81849,-66.6666666666667,4,2,6,70,0,0
82232,-66.6666666666667,4,2,7,70,0,0
82487,497.100248550124,4,2,8,70,1,0
82487,-66.6666666666667,4,2,8,70,0,0
82859,-66.6666666666667,4,2,6,70,0,0
84475,502.933780385583,4,2,5,70,1,0
84475,-66.6666666666667,4,2,5,70,0,0
84852,-66.6666666666667,4,2,6,70,0,0
85229,-66.6666666666667,4,2,7,70,0,0
85480,-66.6666666666667,4,2,5,70,0,0
85858,-66.6666666666667,4,2,6,70,0,0
86235,-66.6666666666667,4,2,7,70,0,0
86486,495.867768595041,4,2,5,70,1,0
86486,-66.6666666666667,4,2,5,70,0,0
88469,491.803278688525,4,2,5,70,1,0
88469,-66.6666666666667,4,2,5,70,0,0
88837,-66.6666666666667,4,2,6,70,0,0
89206,-66.6666666666667,4,2,7,70,0,0
89452,-66.6666666666667,4,2,8,70,0,0
89821,-66.6666666666667,4,2,6,70,0,0
90190,-66.6666666666667,4,2,7,70,0,0
90436,505.902192242833,4,2,1,70,1,0
90436,-66.6666666666667,4,2,8,70,0,0
90815,-66.6666666666667,4,2,6,70,0,0
92459,-66.6666666666667,4,2,1,70,0,0
94483,502.092050209205,4,2,1,70,1,0
94483,-66.6666666666667,4,2,1,70,0,0
96491,493.015612161052,4,2,5,70,1,0
96491,-66.6666666666667,4,2,5,70,0,0
96860,-66.6666666666667,4,2,6,70,0,0
97230,-66.6666666666667,4,2,7,70,0,0
97477,459.066564651875,4,2,8,70,1,0
97477,-100,4,2,8,70,0,0
97661,-66.6666666666667,4,2,6,70,0,0
97821,-66.6666666666667,4,2,6,70,0,0
97936,485.044462409054,4,2,6,70,1,0
97936,-66.6666666666667,4,2,6,70,0,0
98178,573.065902578797,4,2,7,70,1,0
98178,-100,4,2,7,70,0,0
98463,483.870967741935,4,2,8,70,1,0
98463,-66.6666666666667,4,2,8,70,0,0
98825,-66.6666666666667,4,2,6,70,0,0
99430,517.241379310345,4,2,1,70,1,0
99430,-66.6666666666667,4,2,1,70,0,0
100464,493.015612161052,4,2,1,70,1,0
100464,-66.6666666666667,4,2,5,70,0,0
100833,-66.6666666666667,4,2,6,70,0,0
101203,-66.6666666666667,4,2,7,70,0,0
101450,-66.6666666666667,4,2,5,70,0,0
101819,-66.6666666666667,4,2,6,70,0,0
102189,-66.6666666666667,4,2,7,70,0,0
102436,509.770603228547,4,2,1,70,1,0
102436,-66.6666666666667,4,2,1,70,0,0
104475,500,4,2,5,70,1,0
104475,-66.6666666666667,4,2,5,70,0,0
104850,-66.6666666666667,4,2,6,70,0,0
105225,-66.6666666666667,4,2,7,70,0,0
105475,-66.6666666666667,4,2,8,70,0,0
105850,-66.6666666666667,4,2,6,70,0,0
106225,-66.6666666666667,4,2,7,70,0,0
106475,497.92531120332,4,2,8,70,1,0
106475,-66.6666666666667,4,2,8,70,0,0
106848,-66.6666666666667,4,2,6,70,0,0
110458,502.933780385583,4,2,1,70,1,0
110458,-66.6666666666667,4,2,1,70,0,0
112469,480,4,2,1,50,1,0
113429,576.923076923077,4,2,1,50,1,0
113717,512.820512820513,4,2,1,50,1,0
114485,500,4,2,1,50,1,0
118485,495.867768595041,4,2,1,50,1,0
120468,504.201680672269,4,2,1,50,1,0
120972,-133.333333333333,4,2,1,50,0,0
121476,483.870967741935,4,2,1,50,1,0
121476,-100,4,2,1,50,0,0
121959,526.315789473684,4,2,1,50,1,0
122484,480,4,2,1,50,1,0
123444,500,4,2,1,50,1,0
124446,491.803278688525,4,2,1,50,1,0
125921,550.45871559633,4,2,1,50,1,0
126471,502.092050209205,4,2,1,50,1,0
130487,488.997555012225,4,2,1,50,1,0
132442,502.933780385583,4,2,1,50,1,0
138477,500,4,2,1,50,1,0
140977,480,4,2,1,50,1,0
141937,540.54054054054,4,2,1,50,1,0
142477,490.196078431373,4,2,1,50,1,0
144437,508.474576271186,4,2,1,50,1,0
144437,-66.6666666666667,4,2,1,70,0,0
146470,500,4,2,1,70,1,0
146470,-66.6666666666667,4,2,1,70,0,0
150470,495.867768595041,4,2,1,70,1,0
150470,-66.6666666666667,4,2,1,70,0,0
152453,502.092050209205,4,2,1,70,1,0
152453,-66.6666666666667,4,2,1,70,0,0
156469,494.641384995878,4,2,1,70,1,0
156469,-66.6666666666667,4,2,1,70,0,0
158447,500.834724540902,4,2,1,70,1,0
158447,-66.6666666666667,4,2,1,70,0,0
160450,508.474576271186,4,2,1,70,1,0
160450,-66.6666666666667,4,2,1,70,0,0
162483,489.795918367347,4,2,1,70,1,0
162483,-66.6666666666667,4,2,1,70,0,0
164442,508.474576271186,4,2,1,70,1,0
164442,-66.6666666666667,4,2,1,70,0,0
166475,495.867768595041,4,2,1,70,1,0
166475,-66.6666666666667,4,2,1,70,0,0
168458,504.201680672269,4,2,1,70,1,0
168458,-66.6666666666667,4,2,1,70,0,0
170474,491.803278688525,4,2,1,70,1,0
170474,-66.6666666666667,4,2,1,70,0,0
171703,425.531914893617,4,2,1,70,1,0
171703,-66.6666666666667,4,2,1,70,0,0
171915,519.480519480519,4,2,1,70,1,0
171915,-66.6666666666667,4,2,1,70,0,0
172175,530.973451327434,4,2,1,70,1,0
172175,-66.6666666666667,4,2,1,70,0,0
172441,519.480519480519,4,2,1,70,1,0
172441,-66.6666666666667,4,2,1,70,0,0
173479,481.927710843374,4,2,1,70,1,0
173479,-66.6666666666667,4,2,1,70,0,0
174442,485.82995951417,4,2,1,70,1,0
174442,-66.6666666666667,4,2,1,70,0,0
175170,446.096654275093,4,2,1,70,1,0
175318,421.052631578947,4,2,1,70,1,0
175459,495.867768595041,4,2,1,70,1,0
175459,-66.6666666666667,4,2,1,70,0,0
176450,504.201680672269,4,2,1,80,1,0
176450,-66.6666666666667,4,2,1,80,0,0
178466,497.512437810945,4,2,1,80,1,0
178466,-66.6666666666667,4,2,1,80,0,0
179212,-50,4,2,1,80,0,0
179461,-66.6666666666667,4,2,1,80,0,0
180456,501.25313283208,4,2,1,80,1,0
180456,-66.6666666666667,4,2,1,80,0,0
181458,-50,4,2,1,80,0,0
182461,496.688741721854,4,2,1,80,1,0
182461,-66.6666666666667,4,2,1,80,0,0
184447,500,4,2,1,80,1,0
184447,-50,4,2,1,80,0,0
184947,-66.6666666666667,4,2,1,80,0,0
185447,-50,4,2,1,80,0,0
188447,-66.6666666666667,4,2,1,80,0,0
188947,-50,4,2,1,80,0,0
189947,-66.6666666666667,4,2,1,80,0,0
191697,-133.333333333333,4,2,1,80,0,0
192447,506.329113924051,4,2,1,70,1,0
192447,-100,4,2,1,70,0,0
194472,503.355704697987,4,2,1,70,1,0
196485,501.25313283208,4,2,1,70,1,0
198490,500,4,2,1,70,1,0
204490,493.421052631579,4,2,1,70,1,0
206463,496.688741721854,4,2,1,70,1,0
208449,514.579759862779,4,2,20,50,1,0
208449,-100,4,2,20,50,0,0
208706,-100,4,2,1,50,0,0
209478,498.338870431894,4,2,1,50,1,0
210476,492.610837438424,4,2,20,50,1,0
210476,-100,4,2,20,50,0,0
210722,-100,4,2,1,50,0,0
211461,504.201680672269,4,2,1,50,1,0
212469,502.51256281407,4,2,20,50,1,0
212469,-100,4,2,20,50,0,0
212720,-100,4,2,1,50,0,0
214479,496.277915632754,4,2,20,50,1,0
214479,-100,4,2,20,50,0,0
214727,-100,4,2,1,50,0,0
216464,502.933780385583,4,2,20,50,1,0
216464,-100,4,2,20,50,0,0
216715,-100,4,2,1,50,0,0
217469,-83.3333333333333,4,2,1,50,0,0
218475,501.672240802676,4,2,20,50,1,0
218725,-100,4,2,1,50,0,0
220481,491.803278688525,4,2,20,50,1,0
220481,-100,4,2,20,50,0,0
220726,-100,4,2,1,50,0,0
222448,498.338870431894,4,2,1,50,1,0
222946,480,4,2,1,50,1,0
223426,538.599640933573,4,2,1,50,1,0
223829,606.060606060606,4,2,1,50,1,0
223930,511.073253833049,4,2,1,50,1,0
224441,508.474576271186,4,2,1,50,1,0
224441,-83.3333333333333,4,2,1,70,0,0
226474,495.867768595041,4,2,1,70,1,0
226474,-83.3333333333333,4,2,1,70,0,0
228457,504.201680672269,4,2,1,70,1,0
228457,-83.3333333333333,4,2,1,70,0,0
230473,497.100248550124,4,2,1,70,1,0
230473,-83.3333333333333,4,2,1,70,0,0
232461,500,4,2,1,70,1,0
232461,-83.3333333333333,4,2,1,70,0,0
235461,483.870967741935,4,2,1,70,1,0
235461,-83.3333333333333,4,2,1,70,0,0
236428,512.820512820513,4,2,1,70,1,0
236428,-83.3333333333333,4,2,1,70,0,0
237966,476.190476190476,4,2,1,70,1,0
237966,-83.3333333333333,4,2,1,70,0,0
238444,500,4,2,1,70,1,0
240444,508.474576271187,4,2,5,90,1,1
240444,-66.6666666666667,4,2,5,90,0,1
240698,-66.6666666666667,4,2,1,90,0,1
240867,-66.6666666666667,4,2,6,90,0,1
241206,-66.6666666666667,4,2,7,90,0,1
241460,-66.6666666666667,4,2,8,90,0,1
241715,-66.6666666666667,4,2,1,90,0,1
241884,-66.6666666666667,4,2,6,90,0,1
242223,-66.6666666666667,4,2,7,90,0,1
242477,500,4,2,1,90,1,1
242477,-66.6666666666667,4,2,1,90,0,1
243477,-58.8235294117647,4,2,1,90,0,1
243727,-52.6315789473684,4,2,1,90,0,1
243977,-47.6190476190476,4,2,1,90,0,1
244477,495.867768595041,4,2,5,90,1,1
244477,-66.6666666666667,4,2,5,90,0,1
244724,-66.6666666666667,4,2,1,90,0,1
244890,-66.6666666666667,4,2,6,90,0,1
245220,-66.6666666666667,4,2,7,90,0,1
245468,-66.6666666666667,4,2,8,90,0,1
245716,-66.6666666666667,4,2,1,90,0,1
245881,-66.6666666666667,4,2,6,90,0,1
246212,-66.6666666666667,4,2,7,90,0,1
246460,-66.6666666666667,4,2,1,90,0,1
248443,512.820512820513,4,2,5,90,1,1
248443,-66.6666666666667,4,2,5,90,0,1
248699,-66.6666666666667,4,2,1,90,0,1
248870,-66.6666666666667,4,2,6,90,0,1
249212,-66.6666666666667,4,2,7,90,0,1
249468,-66.6666666666667,4,2,8,90,0,1
249725,-66.6666666666667,4,2,1,90,0,1
249895,-66.6666666666667,4,2,6,90,0,1
250237,-66.6666666666667,4,2,7,90,0,1
250494,489.795918367347,4,2,8,90,1,1
250494,-66.6666666666667,4,2,8,90,0,1
250738,-66.6666666666667,4,2,1,90,0,1
250902,-66.6666666666667,4,2,6,90,0,1
251228,-66.6666666666667,4,2,1,90,0,1
251718,-55.5555555555556,4,2,1,90,0,1
251963,-66.6666666666667,4,2,1,90,0,1
252453,502.933780385583,4,2,1,90,1,1
252453,-66.6666666666667,4,2,1,90,0,1
254464,496.688741721854,4,2,1,90,1,1
254464,-66.6666666666667,4,2,1,90,0,1
255457,-100,4,2,1,90,0,1
255954,-66.6666666666667,4,2,1,90,0,1
256450,500,4,2,5,90,1,1
256450,-66.6666666666667,4,2,5,90,0,1
256700,-66.6666666666667,4,2,1,90,0,1
256866,-66.6666666666667,4,2,6,90,0,1
257200,-66.6666666666667,4,2,7,90,0,1
257450,-66.6666666666667,4,2,8,90,0,1
257700,-66.6666666666667,4,2,1,90,0,1
257866,-66.6666666666667,4,2,6,90,0,1
258200,-66.6666666666667,4,2,7,90,0,1
258450,494.641384995878,4,2,1,90,1,1
258450,-66.6666666666667,4,2,1,90,0,1
259439,548.947849954254,4,2,1,90,1,1
259439,-58.8235294117647,4,2,1,90,0,1
259713,460.475825019186,4,2,1,90,1,1
259713,-52.6315789473684,4,2,1,90,0,1
259943,554.016620498615,4,2,1,90,1,1
259943,-52.6315789473684,4,2,1,90,0,1
260312,695.249130938586,4,2,1,90,1,1
260428,512.820512820513,4,2,1,90,1,1
260428,-66.6666666666667,4,2,5,90,0,1
260684,-66.6666666666667,4,2,1,90,0,1
260855,-66.6666666666667,4,2,6,90,0,1
261197,-66.6666666666667,4,2,7,90,0,1
261453,-66.6666666666667,4,2,8,90,0,1
261710,-66.6666666666667,4,2,1,90,0,1
261880,-66.6666666666667,4,2,6,90,0,1
262222,-66.6666666666667,4,2,7,90,0,1
262479,491.803278688525,4,2,1,90,1,1
262479,-66.6666666666667,4,2,1,90,0,1
264446,508.474576271186,4,2,5,90,1,1
264446,-66.6666666666667,4,2,5,90,0,1
264700,-66.6666666666667,4,2,1,90,0,1
264869,-66.6666666666667,4,2,6,90,0,1
265208,-66.6666666666667,4,2,7,90,0,1
265462,-58.8235294117647,4,2,8,90,0,1
265717,-52.6315789473684,4,2,1,90,0,1
265971,-47.6190476190476,4,2,1,90,0,1
266479,500,4,2,1,90,1,1
266479,-66.6666666666667,4,2,1,90,0,1
270479,495.867768595041,4,2,1,90,1,1
270479,-66.6666666666667,4,2,1,90,0,1
270974,-58.8235294117647,4,2,1,90,0,1
271470,-52.6315789473684,4,2,1,90,0,1
271966,-47.6190476190476,4,2,1,90,0,1
272462,517.241379310345,4,2,1,90,1,0
273737,510.63829787234,4,2,1,40,1,0
275738,510.63829787234,4,2,1,40,1,0
276489,504.201680672269,4,2,1,40,1,0
277737,515.021459227468,4,2,1,40,1,0
279737,493.827160493827,4,2,1,40,1,0
281776,485.044462409054,4,2,1,40,1,0
283737,493.015612161052,4,2,1,40,1,0
284478,504.201680672269,4,2,1,40,1,0
284478,-250,4,2,1,40,0,0
286494,500,4,2,1,40,1,0
286494,-250,4,2,1,40,0,0
295761,500,4,2,1,40,1,0
297744,500,4,2,1,40,1,0
299774,480,4,2,1,40,1,0
300494,500,4,2,1,40,1,0
300994,-250,4,2,1,40,0,0
304494,502.933780385583,4,2,1,40,1,0
304494,-588.235294117647,4,2,1,40,0,0

[Colours]
Combo1 : 160,207,207
Combo2 : 106,145,175
Combo3 : 255,103,124
Combo4 : 235,24,53
Combo5 : 156,243,43
Combo6 : 12,227,76
Combo7 : 255,162,40
Combo8 : 255,232,8

[HitObjects]
64,11,492,118,0,B|50:37|65:68|65:68|36:48|5:54,1,121.499995231629,2|0,0:0|0:0,0:0:0:0:
226,34,814,2,0,B|192:48|181:89|181:89|173:48|135:29,1,145.799989828492,2|0,0:0|0:0,0:0:0:0:
334,172,1137,2,0,B|293:159|252:188|252:188|276:145|257:100,1,170.09998813324,2|0,0:0|0:0,0:0:0:0:
323,360,1459,6,0,B|297:319|241:315|241:315|292:296|308:243,1,194.399992370606,2|0,0:0|0:0,0:0:0:0:
481,306,1797,2,0,B|462:342|482:385|482:385|446:356|400:366,1,170.09998813324,2|0,0:0|0:0,0:0:0:0:
370,202,2136,2,0,B|404:200|427:166|427:166|421:206|449:235,1,145.799989828492,2|0,0:0|0:0,0:0:0:0:
318,375,2475,102,0,P|255:341|139:329,1,186.299992688497,4|0,0:0|0:0,0:0:0:0:
61,313,4492,6,0,B|71:350|96:362|96:362|131:356|143:330,1,121.499995231629,2|0,0:0|0:0,0:0:0:0:
78,174,4814,2,0,B|48:154|6:174|6:174|-9:214|19:249,1,145.799989828492,2|0,0:0|0:0,0:0:0:0:
205,281,5137,2,0,B|245:256|249:210|249:210|211:176|161:195,1,170.09998813324,2|0,0:0|0:0,0:0:0:0:
78,174,5459,102,0,B|68:225|111:260|111:260|164:247|173:185,1,194.399992370606,2|0,0:0|0:0,0:0:0:0:
249,183,5797,2,0,B|270:221|318:221|318:221|345:183|318:137,1,170.09998813324,2|0,0:0|0:0,0:0:0:0:
361,73,6136,2,0,B|393:89|427:60|427:60|425:18|381:0,1,145.799989828492,2|0,0:0|0:0,0:0:0:0:
205,27,6475,6,0,P|234:60|251:102,1,89.0999965031942,4|0,0:0|0:0,0:0:0:0:
118,256,7483,2,0,P|88:222|72:181,1,89.0999965031942,4|0,0:0|0:0,0:0:0:0:
64,373,8492,102,0,B|50:347|65:316|65:316|36:336|5:330,1,121.499995231629,2|0,0:0|0:0,0:0:0:0:
226,350,8814,2,0,B|192:336|181:295|181:295|173:336|135:355,1,145.799989828492,2|0,0:0|0:0,0:0:0:0:
334,212,9137,2,0,B|293:225|252:196|252:196|276:239|257:284,1,170.09998813324,2|0,0:0|0:0,0:0:0:0:
323,24,9459,6,0,B|297:65|241:69|241:69|292:88|308:141,1,194.399992370606,2|0,0:0|0:0,0:0:0:0:
481,78,9797,2,0,B|462:42|482:-1|482:-1|446:28|400:18,1,170.09998813324,2|0,0:0|0:0,0:0:0:0:
370,182,10136,2,0,B|404:184|427:218|427:218|421:178|449:149,1,145.799989828492,2|0,0:0|0:0,0:0:0:0:
253,68,10475,102,0,P|231:111|231:157,1,89.0999965031942,4|0,0:0|0:0,0:0:0:0:
340,95,11483,2,0,P|337:139|316:178,1,89.0999965031942,4|0,0:0|0:0,0:0:0:0:
496,357,12492,6,2,B|406:252|96:382|125:171|29:33|29:33|390:80|120:219|460:313,1,1142.09992032318,0|0,0:0|0:0,0:1:0:0:
446,309,16470,38,0,P|480:274|418:216,1,121.499999866486,4|0,3:1|0:0,0:0:0:0:
304,307,16720,2,0,P|316:333|345:336,1,60.7499999332428,2|0,0:0|0:0,0:0:0:0:
386,263,16886,1,2,0:3:0:0:
386,263,16970,2,0,P|408:207|395:129,1,121.499999866486,2|0,0:3|0:0,0:0:0:0:
346,87,17220,2,0,P|328:111|321:140,1,60.7499999332428,2|0,0:0|0:0,0:0:0:0:
233,340,17386,1,2,0:3:0:0:
233,327,17470,6,0,P|167:270|66:256,1,182.249999799728,2|2,0:3|0:0,0:0:0:0:
192,257,17803,2,0,P|223:244|241:225,1,60.7499999332428,0|2,0:0|0:3,0:0:0:0:
212,82,17970,2,0,P|153:96|97:144,1,121.499999866486,2|0,0:3|0:3,0:0:0:0:
23,20,18220,2,0,P|39:36|106:37,1,60.7499999332428,2|0,0:0|0:0,0:0:0:0:
285,57,18386,1,2,0:3:0:0:
298,60,18470,102,0,P|283:4|226:0,1,121.499999866486,2|0,0:3|0:0,0:0:0:0:
212,82,18720,2,0,P|228:121|229:161,1,60.7499999332428,2|0,0:0|0:0,0:0:0:0:
163,309,18886,1,2,0:3:0:0:
150,306,18970,2,0,P|120:243|108:105,1,182.249999799728,4|2,0:0|0:0,0:0:0:0:
15,288,19386,1,2,0:3:0:0:
11,271,19470,6,0,P|28:221|95:255,1,121.499999866486,2|0,0:3|0:0,0:0:0:0:
234,318,19720,2,0,P|184:333|122:401,1,121.499999866486,2|0,0:0|0:0,0:0:0:0:
311,370,19970,2,0,P|368:350|411:308,1,121.499999866486,10|8,0:3|0:3,0:0:0:0:
446,234,20220,101,2,0:0:0:0:
286,163,20386,1,2,0:3:0:0:
300,155,20470,6,0,P|335:197|349:268,1,121.499999866486,2|0,0:3|0:0,0:0:0:0:
234,318,20720,102,0,P|206:285|192:221,1,105.29999104716,2|2,0:0|0:3,0:0:0:0:
121,361,20970,6,0,P|99:301|107:229,1,133.649998833466,2|2,0:3|0:3,0:0:0:0:
292,163,21386,1,2,0:3:0:0:
300,155,21470,102,0,P|282:99|225:89,1,121.499999866486,2|0,0:3|0:0,0:0:0:0:
92,53,21720,6,0,P|104:105|114:139,1,64.7999974568685,2|2,0:0|0:3,0:0:0:0:
108,117,21970,102,0,P|173:98|231:87,1,121.499999866486,10|8,0:3|0:3,0:0:0:0:
431,0,22215,2,0,P|372:17|313:29,1,121.499999866486,2|2,0:0|0:3,0:0:0:0:
333,271,22461,6,0,P|318:216|299:151,1,121.499999866486,2|0,0:3|0:0,0:0:0:0:
375,97,22707,2,0,P|384:132|397:174,1,60.7499999332428,2|0,0:0|0:0,0:0:0:0:
512,179,22871,1,2,0:3:0:0:
507,190,22953,2,0,P|456:205|403:281,1,121.499999866486,2|0,0:3|0:0,0:0:0:0:
237,382,23199,2,0,P|249:330|218:248,1,121.499999866486,2|2,0:0|0:3,0:0:0:0:
159,230,23445,2,0,P|188:196|235:186,2,91.1249998998643,2|0|2,0:3|0:0|0:0,0:0:0:0:
29,289,23872,101,2,0:3:0:0:
53,308,23957,1,10,0:3:0:0:
49,338,24043,1,0,0:0:0:0:
79,349,24128,2,0,P|105:321|161:301,1,60.7499999332428,8|2,0:0|0:0,0:0:0:0:
391,292,24385,1,2,0:3:0:0:
380,292,24470,6,0,P|354:221|360:168,1,91.1249998998643,2|2,0:3|0:0,0:0:0:0:
366,131,24845,102,0,P|419:164|427:206,1,91.1249998998643,2|2,0:3|0:3,0:0:0:0:
292,293,25053,2,0,P|264:277|240:246,1,60.7499999332428
235,51,25220,2,0,P|263:104|270:165,1,121.499999866486,2|2,0:0|0:3,0:0:0:0:
131,338,25470,5,2,0:3:0:0:
149,340,25553,1,0,0:0:0:0:
165,332,25636,1,0,0:0:0:0:
180,322,25720,2,0,P|167:267|151:193,1,121.499999866486,2|2,0:0|0:3,0:0:0:0:
106,133,25970,2,0,P|133:120|166:120,1,60.7499999332428,10|0,0:3|0:0,0:0:0:0:
419,217,26136,1,0,0:0:0:0:
400,218,26220,1,2,0:0:0:0:
381,220,26303,1,0,0:0:0:0:
363,222,26386,1,2,0:3:0:0:
341,223,26470,102,0,P|347:160|355:77,1,121.499999866486,2|0,0:3|0:0,0:0:0:0:
188,21,26720,1,2,0:0:0:0:
206,19,26803,1,0,0:0:0:0:
224,17,26886,1,2,0:3:0:0:
242,13,26970,2,0,P|250:79|259:152,1,121.499999866486,0|2,0:0|0:3,0:0:0:0:
372,21,27220,2,0,P|313:36|276:82,1,121.499999866486,2|2,0:0|0:3,0:0:0:0:
173,201,27470,6,0,P|192:227|194:248,1,40.4999984105428,2|2,0:3|0:3,0:0:0:0:
160,308,27720,101,10,0:3:0:0:
141,309,27803,2,0,P|119:271|115:243,1,60.7499999332428
0,225,27970,1,10,0:3:0:0:
19,226,28053,2,0,P|41:188|45:160,1,60.7499999332428
144,332,28220,2,0,P|108:287|113:212,1,121.499999866486,10|2,0:3|0:3,0:0:0:0:
19,101,28470,6,0,P|83:95|114:158,1,121.499999866486,2|0,0:3|0:0,0:0:0:0:
192,5,28720,2,0,P|163:14|144:42,1,60.7499999332428,2|0,0:0|0:0,0:0:0:0:
196,145,28886,1,0,0:0:0:0:
196,157,28970,2,0,P|226:187|207:148,1,121.499999866486,2|0,0:3|0:0,0:0:0:0:
237,76,29220,1,2,0:0:0:0:
243,64,29303,2,0,P|268:53|293:85,1,60.7499999332428
447,118,29470,102,0,P|398:66|367:93,1,121.499999866486,2|0,0:3|0:0,0:0:0:0:
233,265,29720,2,0,P|259:216|311:237,1,121.499999866486,2|0,0:0|0:0,0:0:0:0:
381,199,29970,1,2,0:3:0:0:
384,210,30053,2,0,P|388:230|381:276,1,60.7499999332428
194,332,30220,2,0,P|177:319|153:279,1,60.7499999332428,2|0,0:0|0:0,0:0:0:0:
32,233,30386,1,0,0:0:0:0:
35,251,30470,6,0,P|98:220|144:172,1,121.499999866486,2|0,0:3|0:0,0:0:0:0:
128,97,30720,2,0,P|85:111|51:147,1,91.1249998998643,2|0,0:0|0:0,0:0:0:0:
204,93,30970,2,0,P|161:76|112:81,1,91.1249998998643,2|0,0:3|0:0,0:0:0:0:
106,319,31220,2,0,P|148:335|197:330,1,91.1249998998643,2|0,0:0|0:0,0:0:0:0:
345,351,31470,101,0,3:0:0:0:
401,280,31587,1,0,3:0:0:0:
428,194,31705,1,0,3:0:0:0:
421,104,31822,1,0,3:0:0:0:
376,36,31940,2,0,P|368:89|421:210,1,182.249999799728,8|0,3:2|0:0,0:0:0:0:
226,22,32254,1,2,0:3:0:0:
236,15,32332,1,2,0:3:0:0:
246,12,32411,6,0,P|333:35|293:125,1,182.249999799728,2|2,0:3|0:0,0:0:0:0:
307,188,32755,2,0,P|278:181|255:154,1,60.7499999332428,2|0,0:3|0:0,0:0:0:0:
180,288,32928,2,0,P|167:205|183:143,1,121.499999866486,2|2,0:3|0:3,0:0:0:0:
246,12,33186,2,0,P|264:49|260:88,1,60.7499999332428,2|2,0:0|0:3,0:0:0:0:
177,71,33359,1,2,0:3:0:0:
168,65,33445,2,0,P|114:37|54:34,1,121.499999866486,2|0,0:3|0:0,0:0:0:0:
85,341,33704,102,0,P|68:306|76:259,1,60.7499976158143,2|0,0:0|0:0,0:0:0:0:
50,283,33833,6,0,P|59:246|96:215,1,60.7499976158143,2|0,0:3|0:0,0:0:0:0:
65,213,33962,102,0,P|118:175|201:174,1,121.499995231629,2|0,0:3|0:0,0:0:0:0:
409,165,34221,1,2,0:3:0:0:
340,126,34350,1,2,0:3:0:0:
277,170,34479,6,0,L|264:291,1,121.499995231629,2|0,0:3|0:3,0:3:0:0:
179,372,34724,2,0,P|182:334|188:294,1,60.7499999332428,2|0,0:0|0:3,0:3:0:0:
319,369,34888,2,0,B|277:367|277:368|249:367,1,60.7499999332428,2|2,0:3|0:3,0:3:0:0:
163,228,35052,2,0,P|196:228|236:230,1,60.7499999332428,2|0,0:3|0:3,0:3:0:0:
342,292,35216,1,2,0:0:0:0:
359,293,35298,1,2,0:3:0:0:
377,294,35380,1,2,0:3:0:0:
395,295,35462,102,0,P|396:235|421:154,1,121.499999866486,2|0,0:3|0:3,0:3:0:0:
487,53,35708,2,0,P|484:90|464:116,1,60.7499999332428,2|0,0:0|0:3,0:3:0:0:
398,89,35872,2,0,P|400:51|420:25,1,60.7499999332428,2|0,0:3|0:3,0:3:0:0:
412,176,36036,6,0,P|373:175|326:135,1,80.9999968210857,2|0,0:3|0:3,0:3:0:0:
282,32,36200,2,0,B|291:130|242:98|265:189,1,161.999993642171,2|2,0:0|0:3,0:3:0:0:
206,237,36446,102,0,P|145:245|85:255,1,121.499999866486,2|2,0:3|0:3,0:3:0:0:
82,177,36696,2,0,P|46:185|7:192,1,60.7499999332428,2|2,0:0|0:3,0:3:0:0:
3,330,36862,1,2,0:3:0:0:
0,343,36946,2,0,P|42:334|71:330,1,60.7499999332428,2|0,0:3|0:3,0:3:0:0:
218,375,37112,1,2,0:3:0:0:
199,375,37196,1,2,0:0:0:0:
182,377,37279,2,0,P|166:325|162:308,1,60.7499999332428,2|0,0:3|0:3,0:3:0:0:
82,177,37446,6,0,P|125:133|195:107,1,121.499999866486,2|2,0:3|0:3,0:3:0:0:
211,24,37696,2,0,P|272:17|342:43,1,121.499999866486,2|2,0:0|0:3,0:3:0:0:
414,20,37946,2,0,P|406:53|395:106,1,60.7499999332428,2|0,0:3|0:3,0:3:0:0:
479,119,38112,1,2,0:3:0:0:
466,123,38196,2,0,P|460:153|453:182,1,60.7499999332428,2|2,0:0|0:3,0:3:0:0:
365,304,38362,1,2,0:3:0:0:
384,304,38446,102,2,B|499:348|530:234|445:175|369:155|298:183|261:264|378:299,1,404.999984105428,6|2,0:2|0:3,0:1:0:0:
282,341,38954,2,0,P|315:361|327:383,1,60.7499999332428,2|0,0:3|0:3,0:3:0:0:
215,373,39123,1,2,0:3:0:0:
208,382,39208,2,0,P|174:362|162:340,1,60.7499999332428,2|0,0:0|0:3,0:3:0:0:
73,283,39378,1,2,0:3:0:0:
67,290,39462,2,0,L|82:361,1,60.7499999332428,2|0,0:3|0:3,0:3:0:0:
13,205,39632,5,2,0:3:0:0:
8,215,39716,2,0,L|119:196,1,91.1249998998643,2|0,0:0|0:3,0:3:0:0:
189,157,39971,101,0,3:3:0:0:
398,190,40098,5,0,3:3:0:0:
442,122,40183,101,8,0:0:0:0:
442,122,40479,6,0,P|351:112|242:102,1,182.249999799728,2|2,0:3|0:0,0:3:0:0:
243,18,40850,1,2,0:3:0:0:
243,18,40974,2,0,P|315:2|367:87,1,182.249999799728,2|2,0:3|0:0,0:3:0:0:
279,269,41346,1,2,0:3:0:0:
279,269,41470,2,0,P|262:214|274:163,1,91.1249998998643,2|2,0:3|0:3,0:3:0:0:
84,94,41718,2,0,L|195:78,1,91.1249998998643,2|0,0:0|0:3,0:3:0:0:
243,18,41966,102,0,P|252:73|260:124,1,91.1249998998643,2|0,0:1|0:3,0:3:0:0:
492,134,42214,2,0,P|457:163|422:192,1,91.1249998998643,2|0,0:1|0:3,0:3:0:0:
408,367,42462,5,2,0:1:0:0:
410,357,42586,2,0,P|403:305|365:255,1,91.1249998998643,2|2,0:3|0:0,0:3:0:0:
335,213,42834,1,2,0:3:0:0:
329,205,42958,2,0,P|280:184|218:191,2,91.1249998998643,2|2|2,0:3|0:3|0:3,0:3:0:0:
177,259,43392,101,2,0:3:0:0:
190,265,43454,1,2,0:3:0:0:
197,276,43516,1,2,0:3:0:0:
198,289,43578,1,2,3:2:0:0:
235,373,43702,2,0,P|263:335|266:253,1,121.499999866486,12|2,0:0|0:3,0:3:0:0:
79,42,43950,6,0,P|9:69|21:143,1,161.999993642171,2|2,0:3|0:3,0:3:0:0:
37,146,44198,1,2,0:0:0:0:
53,147,44280,1,2,0:3:0:0:
66,156,44363,1,2,0:3:0:0:
73,174,44445,102,0,P|133:164|205:179,1,121.499999866486,2|2,0:3|0:3,0:3:0:0:
238,103,44697,2,0,P|222:77|216:40,1,60.7499999332428,2|2,0:0|0:3,0:3:0:0:
291,0,44865,1,2,0:3:0:0:
301,1,44949,2,0,P|328:42|330:90,2,60.7499999332428,2|2|2,0:3|0:3|0:3,0:3:0:0:
323,129,45201,1,2,0:0:0:0:
450,69,45327,1,2,0:3:0:0:
501,263,45453,6,0,P|408:215|318:211,1,182.249999799728,2|2,0:3|0:0,0:3:0:0:
240,352,45831,2,0,P|295:334|302:278,2,91.1249998998643,2|2|2,0:3|0:3|0:3,0:3:0:0:
148,369,46209,2,0,P|165:327|157:265,1,91.1249998998643,2|2,0:0|0:3,0:3:0:0:
54,46,46461,101,2,0:3:0:0:
23,116,46587,1,2,0:3:0:0:
31,211,46713,1,2,0:0:0:0:
65,297,46839,1,2,0:3:0:0:
124,212,46966,2,0,P|83:195|14:214,1,91.1249998998643,2|2,0:3|0:3,0:3:0:0:
33,384,47218,2,0,P|83:374|137:372,1,91.1249998998643,2|2,0:0|0:3,0:3:0:0:
357,361,47470,5,2,0:3:0:0:
278,336,47592,1,2,0:3:0:0:
225,272,47715,1,2,0:0:0:0:
218,190,47838,1,2,0:3:0:0:
239,110,47961,101,2,0:3:0:0:
258,187,48084,1,2,0:3:0:0:
177,207,48207,1,2,0:0:0:0:
158,130,48330,1,2,0:3:0:0:
202,33,48451,54,0,P|267:32|300:47,1,80.9999968210857,6|0,0:0|0:0,0:0:0:0:
355,8,48704,1,2,0:0:0:0:
355,8,48788,2,0,P|382:25|398:54,1,40.4999984105428
496,129,48957,2,0,P|430:128|397:143,1,80.9999968210857,2|0,0:3|0:0,0:0:0:0:
343,104,49210,1,2,0:0:0:0:
343,104,49294,2,0,P|315:121|299:150,1,40.4999984105428,0|0,0:3|0:0,0:0:0:0:
210,223,49463,6,0,P|275:222|308:237,1,80.9999968210857,2|0,0:3|0:0,0:0:0:0:
363,198,49716,1,2,0:0:0:0:
363,198,49800,2,0,P|390:215|406:244,1,40.4999984105428
512,225,49969,2,0,P|497:215|473:186,1,40.4999984105428,2|0,0:3|0:0,0:0:0:0:
450,279,50138,1,0,0:0:0:0:
450,279,50223,2,0,L|441:330,1,40.4999984105428,2|0,0:0|0:0,0:0:0:0:
366,378,50391,1,0,0:0:0:0:
366,378,50476,102,0,P|308:359|264:358,1,80.9999968210857,2|0,0:3|0:0,0:0:0:0:
240,287,50727,2,0,P|223:291|203:302,1,40.4999984105428,2|0,0:0|0:0,0:0:0:0:
131,370,50895,1,0,0:0:0:0:
131,370,50979,2,0,P|126:320|118:260,1,80.9999968210857,2|0,0:3|0:0,0:0:0:0:
15,228,51230,2,0,P|35:225|55:222,1,40.4999984105428,2|0,0:0|0:0,0:0:0:0:
163,158,51398,1,0,0:0:0:0:
163,158,51482,2,0,P|108:148|53:139,1,80.9999968210857,2|0,0:3|0:0,0:0:0:0:
31,35,51733,6,0,B|15:47|15:47|66:37,1,60.7499976158143,6|0,0:3|0:0,0:0:0:0:
103,62,51922,1,0,0:0:0:0:
103,62,51985,2,0,L|186:49,1,60.7499976158143,2|0,0:3|0:0,0:0:0:0:
233,14,52237,1,2,0:0:0:0:
306,157,52362,1,0,0:0:0:0:
465,34,52488,102,0,P|425:26|385:33,1,80.9999968210857,2|0,0:3|0:0,0:0:0:0:
326,82,52726,1,2,0:0:0:0:
326,82,52805,2,0,P|312:58|307:31,1,40.4999984105428
72,168,52964,2,0,P|111:175|151:168,1,80.9999968210857,2|0,0:3|0:0,0:0:0:0:
211,120,53202,1,2,0:0:0:0:
211,120,53281,2,0,P|224:143|229:170,1,40.4999984105428
438,279,53440,6,0,P|398:286|358:279,1,80.9999968210857,2|0,0:3|0:0,0:0:0:0:
299,231,53702,1,2,0:0:0:0:
299,231,53789,2,0,P|285:254|280:281,1,40.4999984105428
211,381,53964,2,0,P|207:337|202:279,1,80.9999968210857,10|0,0:3|0:0,0:0:0:0:
198,221,54226,2,0,P|194:177|189:119,1,80.9999968210857,6|0,0:3|0:0,0:0:0:0:
54,106,54488,102,0,P|95:98|148:77,1,80.9999968210857,2|0,0:3|0:0,0:0:0:0:
112,11,54718,2,0,P|84:20|44:23,1,60.7499976158143,2|0,0:0|0:0,0:0:0:0:
190,31,54949,5,2,0:3:0:0:
277,103,55064,1,0,0:0:0:0:
277,234,55180,1,2,0:0:0:0:
277,234,55711,102,0,P|318:226|352:229,1,60.7499976158143,2|0,0:0|0:0,0:0:0:0:
424,248,55968,1,10,0:3:0:0:
424,248,56097,1,8,0:3:0:0:
252,320,56226,1,2,0:0:0:0:
252,320,56354,1,4,0:3:0:0:
97,257,56483,6,0,P|78:196|80:147,1,80.9999968210857,4|0,0:0|0:0,0:0:0:0:
23,108,56724,2,0,P|13:126|10:146,1,40.4999984105428,2|0,0:0|0:0,0:0:0:0:
164,208,56886,1,0,0:0:0:0:
164,208,56966,2,0,P|205:198|250:190,1,80.9999968210857,2|0,0:3|0:0,0:0:0:0:
441,113,57208,2,0,P|400:122|355:130,1,80.9999968210857,2|0,0:0|0:0,0:0:0:0:
190,118,57450,102,0,P|179:79|170:12,1,80.9999968210857,2|0,0:3|0:0,0:0:0:0:
244,11,57710,2,0,P|255:47|255:75,1,40.4999984105428,2|0,0:0|0:0,0:0:0:0:
279,188,57884,1,0,0:0:0:0:
279,188,57971,2,0,P|323:170|376:166,1,80.9999968210857,2|0,0:3|0:0,0:0:0:0:
509,262,58232,2,0,P|471:246|431:239,1,80.9999968210857,2|0,0:0|0:0,0:0:0:0:
235,374,58495,6,0,P|292:351|326:337,1,80.9999968210857,2|0,0:3|0:0,0:0:0:0:
83,356,58722,2,0,P|121:341|159:326,1,80.9999968210857,2|0,0:0|0:0,0:0:0:0:
208,255,58949,2,0,P|194:213|179:166,1,80.9999968210857,2|0,0:3|0:0,0:0:0:0:
125,120,59193,101,2,0:0:0:0:
107,240,59315,1,0,0:0:0:0:
330,220,59438,1,8,0:0:0:0:
330,201,59701,5,2,0:0:0:0:
44,169,59963,1,8,0:3:0:0:
42,151,60225,1,2,0:0:0:0:
144,22,60422,1,0,0:0:0:0:
148,26,60488,102,0,P|160:73|170:151,1,121.499995231629,2|2,0:3|0:0,0:0:0:0:
137,217,60821,1,0,0:0:0:0:
182,284,60904,1,8,0:0:0:0:
182,284,60988,2,0,P|157:291|122:306,1,40.4999984105428,2|0,0:3|0:0,0:0:0:0:
221,215,61154,2,0,P|250:242|259:282,1,80.9999968210857
353,376,61404,1,0,0:0:0:0:
353,376,61488,2,0,P|344:345|332:280,1,80.9999968210857,2|0,0:3|0:0,0:0:0:0:
377,153,61713,2,0,P|386:184|398:249,1,80.9999968210857,2|0,0:0|0:0,0:0:0:0:
451,283,61939,5,4,0:3:0:0:
99,201,62213,1,2,0:0:0:0:
112,214,62488,101,0,0:0:0:0:
125,212,62589,1,4,0:3:0:0:
139,210,62690,2,0,P|127:148|121:120,1,80.9999968210857,2|0,0:3|0:0,0:0:0:0:
63,61,62965,5,0,0:0:0:0:
67,66,63088,1,0,0:0:0:0:
199,101,63211,1,2,0:0:0:0:
199,101,63336,1,0,0:0:0:0:
268,26,63459,6,0,L|287:139,1,80.9999968210857,4|0,0:3|0:0,0:0:0:0:
343,157,63702,1,2,0:0:0:0:
216,252,63830,1,0,0:0:0:0:
394,318,63959,1,2,0:3:0:0:
330,245,64147,1,2,0:3:0:0:
327,260,64242,1,2,0:0:0:0:
324,273,64336,1,2,0:3:0:0:
322,285,64431,102,0,L|212:302,1,80.9999968210857,4|0,0:0|0:0,0:0:0:0:
92,356,64686,2,0,L|173:344,1,80.9999968210857,2|0,0:0|0:0,0:0:0:0:
45,296,64941,2,0,P|21:242|24:205,1,80.9999968210857,2|0,0:3|0:0,0:0:0:0:
12,62,65196,2,0,P|36:116|33:152,1,80.9999968210857,2|0,0:0|0:0,0:0:0:0:
121,251,65451,2,0,P|165:200|207:191,1,80.9999968210857,2|0,0:3|0:0,0:0:0:0:
250,174,65707,1,2,0:0:0:0:
250,174,65834,1,8,0:3:0:0:
188,42,65962,6,0,L|202:120,1,60.7499976158143,6|0,0:3|0:0,0:0:0:0:
258,256,66217,1,2,0:0:0:0:
424,160,66345,1,0,0:0:0:0:
453,81,66472,102,0,P|421:73|359:102,1,80.9999968210857,2|0,0:3|0:0,0:0:0:0:
392,237,66701,2,0,P|424:245|486:216,1,80.9999968210857,2|0,0:0|0:0,0:0:0:0:
504,152,66931,2,0,L|408:161,1,80.9999968210857,2|0,0:3|0:0,0:0:0:0:
294,170,67176,2,0,L|302:270,1,80.9999968210857,2|0,0:0|0:0,0:0:0:0:
170,369,67421,6,0,P|196:315|200:274,1,80.9999968210857,2|0,0:3|0:0,0:0:0:0:
185,221,67667,1,2,0:0:0:0:
35,195,67795,1,4,0:3:0:0:
232,98,67923,1,8,0:0:0:0:
232,80,68179,2,0,P|186:84|138:92,1,80.9999968210857,2|0,0:0|0:0,0:0:0:0:
264,2,68439,102,0,P|296:28|311:64,1,80.9999968210857,4|0,0:0|0:0,0:0:0:0:
273,221,68692,2,0,P|279:178|303:148,1,80.9999968210857,2|0,0:0|0:0,0:0:0:0:
385,112,68946,2,0,L|475:104,1,80.9999968210857,2|0,0:3|0:0,0:0:0:0:
477,30,69199,2,0,P|450:31|426:34,1,40.4999984105428,2|0,0:0|0:0,0:0:0:0:
384,196,69368,1,2,0:3:0:0:
384,196,69453,2,0,L|480:186,1,80.9999968210857,2|0,0:3|0:0,0:0:0:0:
302,148,69706,2,0,P|277:152|249:176,1,40.4999984105428,2|0,0:0|0:0,0:0:0:0:
157,39,69890,1,2,0:3:0:0:
157,39,69983,2,0,P|134:33|99:1,1,40.4999984105428,2|0,0:3|0:0,0:0:0:0:
50,146,70167,2,0,P|33:146|8:168,1,40.4999984105428,8|4,0:3|0:3,0:0:0:0:
64,223,70350,1,10,0:0:0:0:
64,223,70467,102,0,P|122:209|183:205,1,121.499995231629,2|2,0:3|0:0,0:0:0:0:
237,280,70805,2,0,P|264:283|304:307,1,40.4999984105428
372,365,70974,2,0,P|363:309|363:258,1,80.9999968210857,2|0,0:3|0:0,0:0:0:0:
440,133,71228,2,0,P|447:172|449:213,1,80.9999968210857,2|0,0:0|0:0,0:0:0:0:
359,151,71481,6,0,P|314:115|226:97,1,121.499995231629,8|2,0:0|0:0,0:0:0:0:
206,36,71819,2,0,P|189:39|150:59,1,40.4999984105428
36,18,71989,2,0,P|71:87|79:120,1,80.9999968210857,2|0,0:3|0:0,0:0:0:0:
43,255,72242,2,0,P|25:228|2:176,1,80.9999968210857,2|0,0:0|0:0,0:0:0:0:
92,188,72496,101,2,0:0:0:0:
250,251,72616,1,0,3:0:0:0:
153,263,72736,1,4,0:3:0:0:
153,263,72857,1,4,0:3:0:0:
297,183,72977,5,0,3:0:0:0:
384,336,73098,1,8,0:0:0:0:
298,331,73218,1,4,0:3:0:0:
298,331,73339,1,4,0:3:0:0:
441,274,73459,101,0,3:0:0:0:
499,155,73580,1,2,0:3:0:0:
448,19,73700,2,0,P|429:59|427:97,1,60.7499976158143,8|0,0:0|3:0,0:0:0:0:
405,168,73941,5,4,0:3:0:0:
340,119,74062,1,4,0:3:0:0:
247,92,74182,1,8,0:0:0:0:
136,96,74303,1,0,3:0:0:0:
41,150,74423,102,0,P|53:179|70:203,1,60.7499976158143,2|0,3:2|3:0,0:0:0:0:
58,337,74661,2,0,P|47:309|29:285,1,60.7499976158143,2|0,3:0|3:0,0:0:0:0:
132,263,74900,2,0,P|182:227|280:210,1,121.499995231629,4|0,0:3|0:0,0:0:0:0:
238,210,75404,6,0,P|256:242|263:277,1,60.7499976158143,0|0,3:0|0:0,0:0:0:0:
252,366,75634,1,2,0:3:0:0:
244,368,75730,1,2,0:3:0:0:
236,371,75826,1,2,0:3:0:0:
228,373,75922,2,0,P|212:349|200:307,2,40.4999984105428,8|8|8,0:0|0:0|0:3,0:0:0:0:
383,318,76260,1,8,0:0:0:0:
390,315,76344,1,8,0:3:0:0:
397,312,76429,102,0,P|375:241|364:211,1,80.9999968210857,6|0,3:2|0:0,0:0:0:0:
451,211,76673,2,0,P|473:282|484:312,1,80.9999968210857,2|2,0:3|0:3,0:0:0:0:
301,262,76917,1,4,0:3:0:0:
295,246,76999,1,4,0:3:0:0:
293,230,77080,1,8,0:3:0:0:
295,214,77161,1,8,0:3:0:0:
300,199,77243,1,8,0:3:0:0:
308,185,77324,1,8,0:0:0:0:
322,174,77406,6,0,L|300:99,1,60.7499976158143,12|0,0:0|0:0,0:0:0:0:
349,51,77659,1,2,0:3:0:0:
215,177,77786,1,2,0:3:0:0:
125,31,77913,101,2,0:3:0:0:
133,30,77997,1,2,0:3:0:0:
141,29,78082,1,2,0:3:0:0:
149,27,78166,2,0,L|168:112,1,80.9999968210857,4|0,3:2|0:0,0:0:0:0:
146,218,78420,5,0,3:0:0:0:
146,218,78546,2,0,P|93:187|43:182,2,60.7499976158143,0|8|2,0:0|0:0|0:3,0:0:0:0:
118,317,78926,1,0,3:0:0:0:
103,323,79052,1,8,0:0:0:0:
87,327,79179,2,2,P|50:310|30:293,1,60.7499976158143,2|2,0:3|0:3,0:0:0:0:
244,180,79432,102,0,P|225:215|218:255,1,80.9999968210857,2|2,0:3|0:3,0:0:0:0:
261,384,79685,2,0,P|279:348|286:308,1,80.9999968210857,2|2,0:3|0:3,0:0:0:0:
368,215,79938,1,8,0:0:0:0:
356,218,80065,1,8,0:0:0:0:
343,221,80192,2,0,L|359:281,2,40.4999984105428,2|2|2,0:3|0:3|0:3,0:0:0:0:
194,40,80445,86,0,P|239:96|253:158,1,91.1249998998643,2|2,3:2|0:3,0:0:0:0:
174,158,80700,2,0,P|129:102|112:34,1,91.1249998998643,2|2,0:3|0:0,0:0:0:0:
329,16,80955,2,0,P|327:87|296:152,1,91.1249998998643,2|2,3:3|0:3,0:0:0:0:
132,224,81210,2,0,P|61:210|2:164,1,91.1249998998643,2|2,0:0|0:3,0:0:0:0:
37,379,81466,6,0,P|119:349|222:345,1,182.249999799728,2|2,3:2|0:3,0:0:0:0:
339,337,81849,1,2,0:0:0:0:
281,291,81976,2,0,P|259:247|252:171,1,91.1249998998643,2|2,3:3|0:3,0:0:0:0:
378,42,82232,2,0,P|401:81|414:125,1,91.1249998998643,2|2,0:0|0:3,0:0:0:0:
169,179,82487,102,0,P|191:102|268:14,1,182.249999799728,2|10,3:2|0:0,0:0:0:0:
39,1,82859,1,2,0:0:0:0:
112,8,82984,2,0,P|145:20|184:75,1,91.1249998998643,2|2,3:3|0:3,0:0:0:0:
156,263,83232,2,0,P|123:252|84:197,1,91.1249998998643,2|2,0:3|0:3,0:0:0:0:
287,98,83481,6,0,P|292:145|293:214,1,91.1249998998643,6|2,3:3|0:3,0:0:0:0:
465,357,83729,1,2,0:3:0:0:
390,353,83854,1,2,0:3:0:0:
341,298,83978,2,0,P|353:254|410:214,1,91.1249998998643,6|0,3:3|0:0,0:0:0:0:
455,0,84226,1,2,0:3:0:0:
506,55,84351,1,2,0:3:0:0:
466,120,84475,102,0,P|393:120|268:91,1,182.249999799728,6|0,3:2|0:0,0:0:0:0:
127,11,84852,1,2,0:0:0:0:
181,68,84977,2,0,P|211:112|225:164,1,91.1249998998643,2|2,3:3|0:3,0:0:0:0:
195,323,85229,1,2,0:0:0:0:
120,336,85355,1,2,0:3:0:0:
54,296,85480,6,0,P|24:252|10:199,1,91.1249998998643,2|2,3:2|0:3,0:0:0:0:
68,75,85732,2,0,P|86:116|111:176,1,91.1249998998643,2|2,0:3|0:0,0:0:0:0:
378,103,85983,2,0,P|351:139|312:190,1,91.1249998998643,0|0,3:0|0:0,0:0:0:0:
161,242,86235,1,2,0:0:0:0:
238,257,86361,1,2,0:3:0:0:
302,298,86486,102,0,P|394:257|438:168,1,182.249999799728,2|2,3:2|0:3,0:0:0:0:
291,46,86857,1,2,0:3:0:0:
266,122,86981,2,0,P|224:85|209:35,1,91.1249998998643,2|0,3:3|0:0,0:0:0:0:
409,23,87229,2,0,P|451:60|466:110,1,91.1249998998643,2|0,0:3|0:0,0:0:0:0:
470,359,87477,6,0,P|359:306|253:300,1,182.249999799728,2|2,3:3|0:3,0:0:0:0:
156,313,87849,1,2,0:3:0:0:
77,341,87973,2,0,P|77:296|96:255,1,91.1249998998643,2|2,3:3|0:3,0:0:0:0:
340,151,88221,1,2,0:3:0:0:
266,122,88345,1,2,0:3:0:0:
195,152,88469,102,0,P|204:222|209:266,1,91.1249998998643,6|2,3:2|0:3,0:0:0:0:
398,77,88714,2,0,P|332:49|292:32,1,91.1249998998643,2|2,0:3|0:0,0:0:0:0:
66,4,88960,2,0,P|100:105|111:201,1,182.249999799728,2|2,3:3|0:0,0:0:0:0:
35,337,89329,1,2,0:3:0:0:
16,259,89452,2,0,P|67:264|114:302,1,91.1249998998643,2|2,3:2|0:3,0:0:0:0:
187,370,89698,1,2,0:3:0:0:
259,340,89821,1,2,0:0:0:0:
282,263,89944,6,0,P|231:268|184:306,1,91.1249998998643,2|2,3:3|0:3,0:0:0:0:
387,337,90190,1,2,0:0:0:0:
495,211,90313,1,2,0:3:0:0:
374,125,90436,102,0,P|381:193|387:230,1,91.1249998998643,2|2,3:2|0:3,0:0:0:0:
467,370,90688,2,0,P|460:301|454:264,1,91.1249998998643,2|2,0:3|0:0,0:0:0:0:
461,77,90941,2,0,P|362:92|261:111,1,182.249999799728,2|2,3:3|0:3,0:0:0:0:
108,91,91321,1,2,0:3:0:0:
144,15,91447,6,0,P|179:56|192:117,1,91.1249998998643,2|2,3:3|0:3,0:0:0:0:
203,247,91700,1,2,0:3:0:0:
137,288,91827,1,2,0:3:0:0:
65,269,91953,2,0,P|30:228|17:167,1,91.1249998998643,2|2,3:3|0:3,0:0:0:0:
26,111,92206,1,2,0:3:0:0:
133,200,92333,1,2,0:3:0:0:
190,90,92459,102,0,P|277:66|366:43,1,182.249999799728,6|0,3:2|0:0,0:0:0:0:
491,152,92881,1,2,0:3:0:0:
491,152,92965,2,0,P|419:140|371:132,1,121.499999866486,2|2,3:3|0:3,0:0:0:0:
343,204,93218,2,0,P|377:211|412:218,1,60.7499999332428,2|2,0:3|0:3,0:0:0:0:
485,280,93387,1,2,0:3:0:0:
485,280,93471,6,0,P|406:295|341:308,1,121.499999866486,2|2,0:3|0:3,0:3:0:0:
298,362,93724,2,0,P|288:320|278:282,1,60.7499999332428,2|2,0:3|0:3,0:3:0:0:
264,217,93892,1,2,3:3:0:0:
264,217,93977,2,0,P|190:214|145:261,1,121.499999866486,10|2,0:0|0:3,0:3:0:0:
146,264,94230,101,2,0:3:0:0:
25,219,94356,1,2,0:3:0:0:
89,138,94483,6,0,P|73:222|56:333,1,182.249999799728,2|2,0:3|0:3,0:3:0:0:
242,384,94859,1,2,0:3:0:0:
251,308,94985,2,0,P|257:263|267:203,1,91.1249998998643,2|2,0:3|0:3,0:3:0:0:
450,29,95236,1,2,0:3:0:0:
481,96,95361,1,2,0:3:0:0:
439,159,95487,102,0,P|395:176|345:168,1,91.1249998998643,8|2,0:0|0:3,0:3:0:0:
179,37,95738,1,2,0:3:0:0:
151,143,95863,1,2,0:3:0:0:
280,64,95989,2,0,P|234:60|189:55,1,91.1249998998643,2|10,0:3|0:0,0:3:0:0:
70,74,96240,1,2,0:3:0:0:
131,234,96365,1,2,0:3:0:0:
46,225,96491,6,0,P|137:180|252:203,1,182.249999799728,6|2,3:2|0:3,0:0:0:0:
390,239,96860,1,2,0:0:0:0:
352,170,96984,2,0,P|323:196|310:260,1,91.1249998998643,2|2,3:3|0:3,0:0:0:0:
428,310,97230,2,0,P|457:284|470:220,1,91.1249998998643,2|2,0:0|0:3,0:0:0:0:
439,31,97477,101,2,3:2:0:0:
367,86,97591,1,2,0:3:0:0:
280,113,97706,1,2,0:3:0:0:
190,110,97821,1,2,0:0:0:0:
106,75,97936,2,0,P|167:83|209:110,1,91.1249998998643,2|2,3:3|0:3,0:0:0:0:
163,256,98178,1,2,0:0:0:0:
87,285,98321,1,2,0:3:0:0:
15,255,98463,6,0,P|22:203|31:159,1,91.1249998998643,2|2,3:2|0:3,0:0:0:0:
251,202,98704,2,0,P|244:254|235:298,1,91.1249998998643,2|2,0:3|0:0,0:0:0:0:
342,128,98946,2,0,P|335:76|326:32,1,91.1249998998643,2|2,3:3|0:3,0:3:0:0:
106,75,99187,2,0,P|113:127|122:171,1,91.1249998998643,2|2,0:3|0:3,0:3:0:0:
445,93,99430,102,0,P|366:151|332:262,1,182.249999799728,2|2,3:3|0:3,0:3:0:0:
455,280,99817,1,2,0:3:0:0:
512,226,99947,2,0,P|472:205|399:215,1,91.1249998998643,2|2,3:3|0:3,0:3:0:0:
290,340,100205,1,2,0:3:0:0:
212,369,100335,1,2,0:3:0:0:
135,352,100464,6,0,P|116:301|117:164,1,182.249999799728,6|2,3:2|0:3,0:0:0:0:
64,24,100833,1,2,0:0:0:0:
0,74,100957,2,0,P|36:99|81:103,1,91.1249998998643,2|2,3:3|0:3,0:0:0:0:
269,37,101203,1,2,0:0:0:0:
193,9,101326,1,2,0:3:0:0:
183,92,101450,102,0,P|262:74|302:64,1,91.1249998998643,2|2,3:2|0:3,0:0:0:0:
363,50,101696,2,0,P|442:32|482:22,1,91.1249998998643,2|2,0:3|0:0,0:0:0:0:
495,102,101943,5,2,3:3:0:0:
394,61,102066,1,2,0:3:0:0:
322,167,102189,1,2,0:0:0:0:
189,102,102312,1,2,0:3:0:0:
167,244,102436,102,0,P|146:220|138:150,1,91.1249998998643,2|2,3:3|0:3,0:3:0:0:
405,187,102690,2,0,P|426:211|434:281,1,91.1249998998643,2|2,3:3|0:3,0:3:0:0:
268,362,102945,2,0,P|341:333|374:319,1,91.1249998998643,8|2,3:2|0:3,0:3:0:0:
306,146,103200,2,0,P|263:163|221:179,1,91.1249998998643,2|2,3:3|0:3,0:3:0:0:
98,373,103455,6,0,P|76:288|37:174,1,182.249999799728,2|6,3:3|0:3,0:0:0:0:
46,198,103965,1,8,3:3:0:0:
146,165,104092,1,8,0:3:0:0:
115,69,104220,1,4,0:3:0:0:
15,102,104347,1,4,0:3:0:0:
153,250,104475,102,0,P|219:168|314:148,1,182.249999799728,6|0,3:2|0:0,0:0:0:0:
366,53,104850,1,2,0:0:0:0:
430,103,104975,2,0,P|446:57|429:10,1,91.1249998998643,2|2,3:3|0:3,0:0:0:0:
289,147,105225,2,0,P|306:200|311:256,1,91.1249998998643,2|2,0:0|0:3,0:0:0:0:
512,165,105475,6,0,P|411:229|380:321,1,182.249999799728,2|2,3:2|0:3,0:0:0:0:
434,384,105850,1,2,0:0:0:0:
510,380,105975,2,0,P|496:337|460:309,1,91.1249998998643,2|2,3:3|0:3,0:0:0:0:
306,344,106225,1,2,0:0:0:0:
233,379,106350,1,2,0:3:0:0:
158,355,106475,102,0,P|132:260|144:134,1,182.249999799728,2|2,3:2|0:3,0:3:0:0:
250,110,106848,1,2,0:2:0:0:
302,43,106972,2,0,P|268:30|197:50,1,91.1249998998643,2|2,3:3|0:3,0:3:0:0:
47,172,107221,2,0,P|81:185|152:165,1,91.1249998998643,2|2,0:3|0:3,0:3:0:0:
368,125,107470,6,0,P|293:133|214:238,1,182.249999799728,10|2,3:3|0:3,0:3:0:0:
197,364,107844,1,2,0:3:0:0:
268,326,107968,2,0,P|235:295|191:286,1,91.1249998998643,2|2,3:3|0:3,0:3:0:0:
13,370,108217,1,2,0:3:0:0:
64,310,108342,1,2,0:3:0:0:
82,233,108466,102,0,P|67:128|25:44,1,182.249999799728,2|0,3:3|0:3,0:3:0:0:
210,71,108840,1,0,3:3:0:0:
168,0,108964,2,0,P|143:31|134:91,1,91.1249998998643,8|0,3:0|0:3,0:3:0:0:
123,171,109213,1,2,0:3:0:0:
195,182,109338,1,2,0:3:0:0:
258,141,109462,6,0,P|283:110|292:50,1,91.1249998998643,10|2,3:3|0:3,0:3:0:0:
366,259,109711,2,0,P|300:247|257:241,1,91.1249998998643,6|2,0:3|0:3,0:3:0:0:
98,316,109960,2,0,P|164:328|207:334,1,91.1249998998643,10|2,3:3|0:3,0:3:0:0:
492,353,110209,1,2,0:3:0:0:
511,280,110333,1,2,0:3:0:0:
473,218,110458,102,0,P|396:265|359:347,1,182.249999799728,6|0,3:2|3:0,0:3:0:0:
276,243,110835,1,8,0:0:0:0:
273,164,110960,2,0,P|316:174|358:233,1,91.1249998998643,10|0,0:3|0:3,0:3:0:0:
276,324,111212,2,0,P|233:314|191:255,1,91.1249998998643,6|0,0:3|0:3,0:3:0:0:
186,194,111463,5,2,0:3:0:0:
186,194,111589,1,8,0:3:0:0:
109,316,111715,1,10,0:3:0:0:
109,316,111841,1,2,0:3:0:0:
32,158,111966,101,8,0:3:0:0:
90,104,112092,1,8,0:3:0:0:
180,68,112218,1,4,0:3:0:0:
294,66,112344,1,4,0:3:0:0:
394,86,112469,22,0,B|424:198|359:169|390:291,1,182.249992847443,6|0,3:2|0:0,0:0:0:0:
380,372,112949,2,0,P|285:312|209:310,1,182.249992847443,0|0,3:0|0:0,0:0:0:0:
143,325,113429,1,10,0:0:0:0:
272,230,113717,1,8,0:3:0:0:
40,154,113973,1,4,0:3:0:0:
40,154,114229,1,4,0:3:0:0:
17,232,114485,5,0,3:0:0:0:
318,165,114735,1,0,3:0:0:0:
318,165,114985,2,0,P|325:125|319:95,1,60.7499976158143,2|0,0:0|0:0,0:0:0:0:
240,103,115235,2,0,P|233:143|239:172,1,60.7499976158143,2|0,0:0|0:0,0:0:0:0:
276,235,115485,101,8,0:0:0:0:
434,117,115735,1,8,0:3:0:0:
469,303,115985,1,4,0:3:0:0:
389,219,116235,1,0,3:0:0:0:
472,220,116485,5,0,3:0:0:0:
472,220,116735,1,0,0:0:0:0:
388,303,116985,1,2,3:2:0:0:
268,254,117235,1,2,0:0:0:0:
306,328,117485,101,8,0:0:0:0:
386,84,117735,1,8,0:3:0:0:
125,123,117985,1,8,0:3:0:0:
125,123,118235,1,4,0:3:0:0:
63,4,118485,6,0,P|47:58|52:130,1,121.499995231629,0|0,3:0|0:0,0:0:0:0:
51,208,118856,1,0,3:0:0:0:
51,208,118980,2,0,P|93:196|126:196,1,60.7499976158143,2|0,3:2|0:0,0:0:0:0:
191,210,119228,2,0,P|222:240|238:268,1,60.7499976158143,2|0,3:2|0:0,0:0:0:0:
263,326,119476,101,8,0:0:0:0:
294,115,119724,1,8,0:3:0:0:
478,233,119972,1,4,0:3:0:0:
342,234,120220,1,0,3:0:0:0:
505,67,120468,6,0,P|424:38|327:42,1,182.249992847443,0|0,3:0|0:0,0:0:0:0:
235,8,120972,102,0,P|207:88|154:63,1,136.687499849796,0|0,3:0|0:0,0:0:0:0:
65,9,121476,6,0,P|89:34|101:79,1,60.7499976158143,10|0,0:0|0:0,0:0:0:0:
173,82,121717,2,0,P|175:116|155:158,1,60.7499976158143,2|0,3:2|0:0,0:0:0:0:
12,131,121959,2,0,P|9:96|29:54,1,60.7499976158143,4|0,0:3|0:0,0:0:0:0:
91,189,122222,102,0,L|104:245,1,40.4999984105428,8|8,0:3|0:3,0:0:0:0:
53,327,122397,1,0,3:0:0:0:
64,316,122484,6,0,P|125:299|213:282,1,121.499995231629,0|0,3:0|0:0,0:0:0:0:
292,318,122844,1,0,3:0:0:0:
345,252,122964,2,0,P|314:244|272:236,1,60.7499976158143,0|0,3:0|0:0,0:0:0:0:
438,354,123204,2,0,P|407:346|365:338,1,60.7499976158143,0|0,3:0|0:0,0:0:0:0:
494,291,123444,101,10,0:0:0:0:
357,171,123694,1,2,3:2:0:0:
454,12,123944,1,4,0:3:0:0:
387,56,124194,1,2,0:3:0:0:
385,67,124319,1,2,0:3:0:0:
384,79,124446,6,0,L|492:95,1,80.9999968210857,0|0,3:2|0:0,0:0:0:0:
493,173,124691,1,2,0:3:0:0:
481,176,124773,2,0,L|414:167,1,40.4999984105428,2|0,0:3|0:3,0:0:0:0:
368,201,124937,101,2,0:3:0:0:
231,18,125183,1,0,3:0:0:0:
128,269,125429,5,8,0:0:0:0:
128,269,125675,1,0,3:0:0:0:
180,206,125921,2,0,P|153:191|104:197,1,60.7499976158143,2|2,0:3|0:3,0:3:0:0:
27,302,126196,1,8,0:0:0:0:
27,302,126333,1,8,0:0:0:0:
27,302,126471,102,0,P|47:253|48:230,1,60.7499976158143,8|0,0:3|0:0,0:0:0:0:
85,104,126722,6,0,P|78:86|59:65,2,40.4999984105428,2|2|2,0:3|0:3|0:3,0:0:0:0:
14,130,126973,1,8,0:0:0:0:
324,40,127224,1,8,0:3:0:0:
268,102,127475,102,0,P|247:72|244:25,2,60.7499976158143,2|8|8,0:3|0:0|0:0,0:0:0:0:
453,65,127977,1,8,0:0:0:0:
397,123,128102,1,8,0:0:0:0:
367,198,128228,1,8,0:3:0:0:
362,280,128353,1,4,0:3:0:0:
386,358,128479,6,0,P|380:274|256:204,1,182.249992847443,4|0,3:1|0:0,0:0:0:0:
263,128,128981,2,0,P|251:152|176:162,1,60.7499976158143,2|0,0:0|0:0,0:0:0:0:
146,188,129232,1,0,3:0:0:0:
276,39,129483,1,10,0:0:0:0:
196,24,129734,101,10,0:3:0:0:
296,308,129985,1,2,3:2:0:0:
241,366,130236,1,2,0:3:0:0:
229,368,130362,1,2,0:3:0:0:
218,370,130487,6,0,P|204:302|198:264,2,60.7499976158143,2|0|0,3:2|0:0|0:0,0:0:0:0:
133,349,130853,1,0,0:0:0:0:
133,349,130975,2,0,P|122:313|131:274,1,60.7499976158143,2|0,3:2|0:0,0:0:0:0:
9,313,131220,2,0,P|24:279|55:254,1,60.7499976158143,0|0,3:0|0:0,0:0:0:0:
106,211,131464,101,10,0:0:0:0:
106,211,131709,1,2,0:3:0:0:
27,100,131953,1,2,3:2:0:0:
294,64,132198,1,8,0:0:0:0:
219,11,132442,6,0,P|263:90|270:183,1,182.249992847443,2|0,3:2|0:0,0:0:0:0:
247,254,132944,2,0,P|212:233|196:193,1,60.7499976158143,2|0,3:2|0:0,0:0:0:0:
234,336,133196,2,0,P|198:355|155:349,1,60.7499976158143,0|0,3:0|0:0,0:0:0:0:
129,261,133447,102,0,P|208:244|259:259,1,121.499995231629,10|0,0:0|0:0,0:0:0:0:
314,311,133825,1,8,0:0:0:0:
314,311,133950,2,0,P|331:272|331:231,1,60.7499976158143,2|0,0:0|0:0,0:0:0:0:
410,214,134202,1,0,3:0:0:0:
416,210,134328,1,0,0:0:0:0:
423,205,134453,6,0,P|410:164|360:94,1,121.499995231629,2|0,3:2|0:0,0:0:0:0:
337,10,134830,1,0,0:0:0:0:
337,10,134956,2,0,P|367:13|395:26,2,60.7499976158143,2|0|0,0:0|0:0|0:0,0:0:0:0:
234,18,135333,101,4,0:3:0:0:
234,18,135396,5,4,0:3:0:0:
234,18,135459,102,0,P|244:74|260:219,1,182.249992847443,14|0,0:0|0:0,0:0:0:0:
257,278,135962,1,4,0:3:0:0:
68,171,136214,1,4,0:3:0:0:
10,265,136465,6,0,P|3:235|0:205,1,60.7499976158143,4|0,0:3|0:0,0:0:0:0:
116,102,136716,1,0,3:0:0:0:
126,101,136842,1,0,3:0:0:0:
138,99,136968,2,0,P|142:128|144:159,1,60.7499976158143,4|0,0:3|0:0,0:0:0:0:
178,240,137219,2,0,P|143:242|107:245,1,60.7499976158143,4|0,0:3|0:0,0:0:0:0:
0,382,137471,102,0,P|26:368|66:364,1,60.7499976158143,12|0,0:1|0:0,0:0:0:0:
121,322,137722,2,0,P|150:317|189:327,1,60.7499976158143,4|0,0:3|0:0,0:0:0:0:
251,360,137974,1,4,0:3:0:0:
441,318,138225,1,4,0:3:0:0:
378,369,138477,6,0,P|363:337|363:309,1,60.7499976158143,0|0,3:2|0:0,0:0:0:0:
417,191,138727,1,8,0:3:0:0:
425,190,138852,1,0,3:0:0:0:
435,187,138977,2,0,P|450:219|450:247,1,60.7499976158143,0|0,3:0|0:0,0:0:0:0:
293,275,139227,2,0,P|278:243|278:215,1,60.7499976158143,0|0,3:0|0:0,0:0:0:0:
337,151,139477,101,8,0:0:0:0:
105,248,139727,1,8,0:3:0:0:
105,248,139977,1,8,0:0:0:0:
105,248,140102,2,0,L|91:178,1,60.7499976158143,8|0,0:0|0:0,0:0:0:0:
131,102,140352,1,8,0:3:0:0:
131,102,140477,6,0,L|-16:132,1,121.499995231629,2|0,0:0|0:0,0:0:0:0:
193,156,140852,1,8,0:3:0:0:
193,156,140977,2,0,P|208:127|212:96,1,60.7499976158143,2|0,0:0|0:0,0:0:0:0:
284,62,141217,2,0,P|276:30|259:3,1,60.7499976158143,0|0,3:0|0:0,0:0:0:0:
131,102,141457,102,0,P|159:175|159:308,1,182.249992847443,12|0,0:1|0:0,0:0:0:0:
103,333,141937,2,0,P|85:298|84:267,1,60.7499976158143,0|0,3:0|0:0,0:0:0:0:
245,277,142207,2,0,P|236:315|217:339,1,60.7499976158143,10|0,0:0|0:0,0:0:0:0:
99,360,142477,5,8,0:3:0:0:
59,295,142599,1,4,0:3:0:0:
48,219,142722,1,8,0:3:0:0:
68,146,142844,1,4,0:3:0:0:
76,135,142967,2,0,P|115:155|138:189,1,60.7499976158143,8|8,0:3|0:0,0:0:0:0:
136,55,143212,2,0,P|159:76|187:88,1,60.7499976158143,8|0,0:0|0:0,0:0:0:0:
358,101,143457,102,0,P|386:92|410:73,1,60.7499976158143,8|0,0:3|0:0,0:0:0:0:
374,3,143702,2,0,P|345:11|321:30,1,60.7499976158143,0|0,3:0|0:0,0:0:0:0:
280,139,143947,1,4,0:3:0:0:
326,213,144069,1,8,0:3:0:0:
341,300,144192,1,8,0:3:0:0:
341,300,144437,86,0,P|281:281|206:287,1,121.499999866486,2|2,3:3|0:3,0:3:0:0:
233,205,144691,2,0,P|201:206|167:221,1,60.7499999332428,2|2,0:3|0:3,0:3:0:0:
213,370,144860,1,8,0:0:0:0:
213,370,144945,2,0,P|154:345|101:293,1,121.499999866486,2|2,3:3|0:3,0:3:0:0:
69,374,145199,2,0,P|45:352|29:318,1,60.7499999332428,8|2,0:0|0:3,0:3:0:0:
46,147,145369,1,2,0:3:0:0:
46,147,145454,6,0,P|106:128|181:134,1,121.499999866486,2|2,3:3|0:3,0:3:0:0:
154,52,145708,2,0,P|185:53|219:68,1,60.7499999332428,8|2,0:0|0:3,0:3:0:0:
174,217,145877,1,2,0:3:0:0:
174,217,145962,2,0,P|232:192|285:140,1,121.499999866486,2|2,3:3|0:3,0:3:0:0:
318,221,146216,2,0,P|341:199|357:165,1,60.7499999332428,2|2,0:3|0:3,0:3:0:0:
428,108,146386,1,2,0:3:0:0:
428,108,146470,102,0,P|352:91|293:79,1,121.499999866486,2|2,3:3|0:3,0:3:0:0:
335,13,146720,2,0,P|369:19|420:28,1,60.7499999332428,2|2,0:3|0:3,0:3:0:0:
512,103,146886,1,8,0:0:0:0:
512,103,146970,2,0,P|495:178|483:237,1,121.499999866486,2|2,3:3|0:3,0:3:0:0:
500,301,147220,2,0,P|467:294|429:286,1,60.7499999332428,8|2,0:0|0:3,0:3:0:0:
391,366,147386,1,2,0:3:0:0:
391,366,147470,6,0,P|328:341|284:277,1,121.499999866486,2|2,3:3|0:3,0:3:0:0:
440,287,147720,2,0,P|399:243|343:223,1,121.499999866486,2|2,0:3|0:3,0:3:0:0:
281,158,147970,1,14,3:2:0:0:
269,161,148053,1,2,0:3:0:0:
257,165,148136,1,2,0:3:0:0:
246,170,148220,1,2,0:3:0:0:
236,176,148303,1,2,0:3:0:0:
226,184,148386,1,2,0:3:0:0:
215,192,148470,102,0,P|218:129|218:61,1,121.499999866486,2|2,3:3|0:3,0:3:0:0:
137,16,148720,2,0,P|136:56|137:84,1,60.7499999332428,2|2,0:3|0:3,0:3:0:0:
19,117,148886,1,8,0:0:0:0:
19,117,148970,2,0,P|66:125|130:191,1,121.499999866486,2|2,3:3|0:3,0:3:0:0:
106,253,149220,2,0,P|73:242|46:204,1,60.7499999332428,8|2,0:0|0:3,0:3:0:0:
196,222,149386,1,2,0:3:0:0:
196,222,149470,6,0,P|200:277|205:313,1,60.7499999332428,2|2,3:3|0:3,0:3:0:0:
286,369,149636,1,2,0:3:0:0:
286,369,149720,2,0,P|282:314|277:278,1,60.7499999332428,2|2,0:3|0:3,0:3:0:0:
339,238,149886,1,2,0:3:0:0:
339,238,149970,2,0,P|407:213|467:230,1,121.499999866486,8|2,3:2|0:3,0:3:0:0:
512,108,150220,2,0,P|444:132|384:115,1,121.499999866486,2|2,0:3|0:3,0:3:0:0:
261,5,150470,102,0,P|287:54|298:133,1,121.499999866486,2|2,3:3|0:3,0:3:0:0:
235,177,150717,1,2,0:3:0:0:
235,177,150800,2,0,P|216:135|213:109,1,60.7499999332428,2|8,0:3|0:0,0:3:0:0:
38,173,150965,2,0,P|93:187|133:145,1,121.499999866486,2|2,3:3|0:3,0:3:0:0:
145,70,151213,2,0,P|120:67|86:90,1,60.7499999332428,8|2,0:0|0:3,0:3:0:0:
108,222,151379,1,2,0:3:0:0:
108,222,151461,6,0,P|183:241|238:287,1,121.499999866486,2|2,3:3|0:3,0:3:0:0:
356,213,151709,2,0,P|317:220|291:233,1,60.7499999332428,2|2,0:3|0:3,0:3:0:0:
181,349,151874,1,2,0:3:0:0:
181,349,151957,2,0,P|238:341|259:338,1,60.7499999332428,14|2,3:2|0:3,0:3:0:0:
387,371,152122,1,2,0:3:0:0:
387,371,152205,2,0,P|330:379|309:382,1,60.7499999332428,2|2,0:3|0:3,0:3:0:0:
441,306,152370,1,2,0:3:0:0:
441,306,152453,102,0,P|456:221|450:176,1,121.499995231629,2|2,3:3|0:3,0:3:0:0:
493,110,152704,2,0,P|482:79|460:50,1,60.7499999332428,2|2,0:3|0:3,0:3:0:0:
337,12,152871,1,8,0:0:0:0:
337,12,152955,2,0,P|349:82|362:149,1,121.499999866486,2|2,3:3|0:3,0:3:0:0:
297,228,153206,2,0,P|288:184|281:153,1,60.7499999332428,8|2,0:0|0:3,0:3:0:0:
232,102,153373,1,2,0:3:0:0:
232,102,153457,6,0,P|192:99|96:125,1,121.499999866486,2|2,3:3|0:3,0:3:0:0:
14,91,153708,2,0,P|37:130|43:169,1,60.7499999332428,2|2,0:3|0:3,0:3:0:0:
26,238,153875,1,2,0:3:0:0:
26,238,153959,2,0,P|99:206|151:201,1,121.499999866486,8|2,3:2|0:3,0:3:0:0:
234,279,154210,2,0,P|203:272|171:273,1,60.7499999332428,2|2,0:3|0:3,0:3:0:0:
186,368,154377,1,2,0:3:0:0:
186,368,154461,102,0,P|257:355|319:349,1,121.499999866486,2|2,3:3|0:3,0:3:0:0:
391,362,154712,2,0,P|380:313|376:287,1,60.7499999332428,2|2,0:3|0:3,0:3:0:0:
488,224,154879,1,8,0:2:0:0:
488,224,154963,2,0,P|435:231|366:189,1,121.499999866486,2|2,3:3|0:3,0:3:0:0:
302,218,155214,2,0,P|288:183|286:150,1,60.7499999332428,8|2,0:2|0:3,0:3:0:0:
363,45,155381,1,2,0:3:0:0:
363,45,155465,6,0,P|339:74|312:92,1,60.7499999332428,2|2,3:3|0:3,0:3:0:0:
183,75,155632,1,2,0:3:0:0:
183,75,155716,2,0,P|220:80|249:95,1,60.7499999332428,2|2,0:3|0:3,0:3:0:0:
192,195,155883,1,2,0:3:0:0:
192,195,155967,2,0,P|130:186|72:160,1,121.499999866486,14|2,3:2|0:3,0:3:0:0:
21,232,156218,2,0,P|63:246|84:264,1,60.7499999332428,2|2,0:3|0:3,0:3:0:0:
76,354,156386,1,2,0:3:0:0:
76,354,156469,102,0,P|132:316|211:306,1,121.499999866486,2|2,3:3|0:3,0:3:0:0:
256,258,156716,2,0,P|304:272|329:293,1,60.7499999332428,2|2,0:3|0:3,0:3:0:0:
383,356,156881,1,8,0:2:0:0:
383,356,156963,2,0,P|391:276|398:223,1,121.499999866486,2|2,3:3|0:3,0:3:0:0:
316,138,157210,2,0,P|325:183|329:213,1,60.7499999332428,8|2,0:2|0:3,0:3:0:0:
472,201,157375,1,2,0:3:0:0:
472,201,157458,6,0,P|452:115|448:80,1,121.499999866486,2|2,3:3|0:3,0:3:0:0:
467,6,157705,2,0,P|422:10|400:16,1,60.7499999332428,2|2,0:3|0:3,0:3:0:0:
301,57,157870,1,2,0:3:0:0:
301,57,157952,2,0,P|243:75|175:85,1,121.499999866486,8|2,3:2|0:3,0:3:0:0:
107,73,158200,2,0,P|110:103|119:132,1,60.7499999332428,2|2,0:3|0:3,0:3:0:0:
30,196,158365,1,2,0:3:0:0:
30,196,158447,102,0,P|71:139|146:140,1,121.499999866486,2|2,3:3|0:3,0:3:0:0:
157,5,158697,2,0,P|226:12|263:77,1,121.499999866486,14|2,0:3|0:3,0:3:0:0:
274,158,158947,1,2,3:3:0:0:
268,168,159031,1,2,0:3:0:0:
266,179,159114,1,2,0:3:0:0:
265,191,159198,2,0,P|314:183|337:183,1,60.7499999332428,2|14,0:3|0:3,0:3:0:0:
401,159,159365,1,10,0:0:0:0:
401,159,159448,6,0,P|367:193|350:282,1,121.499999866486,2|2,3:3|0:3,0:3:0:0:
416,322,159699,1,2,0:3:0:0:
427,325,159782,1,2,0:3:0:0:
438,327,159866,1,2,0:3:0:0:
449,330,159949,2,2,P|458:300|459:276,4,30.3749999666214,14|2|2|2|2,3:2|0:3|0:3|0:3|0:3,0:3:0:0:
370,384,160199,2,2,P|343:368|332:352,4,30.3749999666214,2|2|2|2|2,0:2|0:3|0:3|0:3|0:3,0:3:0:0:
266,384,160450,102,0,P|267:330|231:243,1,121.499999866486,6|0,3:2|0:0,0:0:0:0:
182,307,160704,2,0,P|170:270|185:222,1,60.7499999332428,8|0,0:3|0:0,0:0:0:0:
110,178,160873,1,4,0:3:0:0:
110,178,160958,2,0,P|168:166|241:154,1,121.499999866486,2|0,3:2|0:0,0:0:0:0:
396,36,161212,2,0,P|337:50|273:58,1,121.499999866486,8|0,0:3|0:0,0:0:0:0:
254,55,161466,5,2,3:2:0:0:
54,13,161594,2,0,P|65:59|73:116,1,91.1249998998643,12|0,0:0|0:0,0:0:0:0:
108,190,161848,1,0,3:0:0:0:
110,178,161933,2,0,P|196:128|301:163,1,212.62499976635,14|0,0:0|0:0,0:0:0:0:
473,337,162399,1,8,0:3:0:0:
473,337,162483,102,0,P|408:337|393:271,1,121.499999866486,6|0,0:2|0:0,0:0:0:0:
426,142,162727,2,0,P|456:213|448:285,1,121.499999866486,8|0,0:3|0:0,0:0:0:0:
401,375,162972,2,0,P|340:365|280:359,1,121.499999866486,2|0,3:2|0:0,0:0:0:0:
192,325,163217,1,2,0:3:0:0:
191,312,163299,1,2,0:3:0:0:
189,300,163380,1,2,0:3:0:0:
188,287,163462,6,0,P|244:282|318:270,1,121.499999866486,2|0,3:2|0:0,0:0:0:0:
303,196,163707,2,0,P|277:198|237:207,1,60.7499999332428,8|0,0:3|0:0,0:0:0:0:
80,265,163870,1,4,0:3:0:0:
80,265,163952,2,0,P|61:203|25:130,1,121.499999866486,2|0,3:2|0:0,0:0:0:0:
106,14,164197,2,0,P|101:54|100:89,1,60.7499999332428,8|0,0:3|0:0,0:0:0:0:
152,140,164360,1,4,0:3:0:0:
152,140,164442,102,0,P|215:125|291:112,1,121.499999866486,2|0,0:2|0:0,0:0:0:0:
296,30,164696,2,0,P|262:35|230:43,1,60.7499999332428,4|0,0:3|0:0,0:0:0:0:
329,176,164865,1,8,0:3:0:0:
329,176,164950,2,0,P|346:150|345:102,2,60.7499999332428,2|2|2,3:2|0:3|0:3,0:0:0:0:
234,202,165204,2,0,P|246:239|262:338,1,121.499999866486,0|0,3:0|0:0,0:0:0:0:
259,338,165458,5,10,0:2:0:0:
184,378,165586,1,8,0:3:0:0:
104,363,165713,1,4,0:3:0:0:
60,296,165840,1,4,0:3:0:0:
77,225,165967,2,0,P|139:223|215:219,1,121.499999866486,2|0,3:2|0:0,0:0:0:0:
329,176,166221,2,0,P|302:158|266:152,1,60.7499999332428,0|0,3:0|0:0,0:0:0:0:
280,22,166391,1,4,0:3:0:0:
280,22,166475,102,0,P|229:35|217:108,1,121.499999866486,2|0,3:2|0:0,0:0:0:0:
274,151,166722,2,0,P|320:141|345:134,1,60.7499999332428,8|0,0:3|0:0,0:0:0:0:
435,78,166888,1,4,0:3:0:0:
435,78,166970,2,0,P|417:133|409:219,1,121.499999866486,6|0,0:2|0:0,0:0:0:0:
501,324,167218,2,0,P|511:281|513:251,1,60.7499999332428,2|0,0:3|0:0,0:0:0:0:
421,288,167384,1,8,0:1:0:0:
421,288,167466,6,0,P|368:271|290:273,1,121.499999866486,2|0,3:2|0:0,0:0:0:0:
221,361,167714,1,2,0:3:0:0:
209,359,167797,1,2,0:3:0:0:
198,358,167879,1,2,0:3:0:0:
187,357,167962,2,0,P|194:297|198:199,1,121.499999866486,2|0,3:2|0:0,0:0:0:0:
95,206,168210,2,0,P|85:177|71:141,1,60.7499999332428,8|0,0:3|0:0,0:0:0:0:
202,140,168375,1,4,0:3:0:0:
202,140,168458,102,0,P|280:110|345:110,1,121.499999866486,2|0,3:2|0:0,0:0:0:0:
179,63,168710,2,0,P|162:61|108:41,1,60.7499999332428,8|0,0:3|0:0,0:0:0:0:
305,26,168878,1,4,0:3:0:0:
305,26,168962,2,0,P|371:52|426:111,1,121.499999866486,2|0,3:2|0:0,0:0:0:0:
512,0,169214,2,0,P|485:17|459:49,1,60.7499999332428,8|0,0:3|0:0,0:0:0:0:
378,164,169382,1,4,0:3:0:0:
378,164,169466,6,0,P|406:221|420:299,1,121.499999866486,2|0,3:2|0:0,0:0:0:0:
347,322,169718,1,4,0:3:0:0:
341,310,169802,1,4,0:3:0:0:
336,298,169886,1,4,0:3:0:0:
332,286,169970,101,10,0:2:0:0:
275,240,170096,1,10,0:3:0:0:
202,245,170222,1,10,0:3:0:0:
147,293,170348,1,2,3:3:0:0:
147,368,170474,5,2,3:2:0:0:
147,368,170555,2,0,P|129:335|130:289,1,60.7499999332428,0|0,0:3|0:0,0:0:0:0:
59,384,170719,2,0,P|53:354|38:328,1,60.7499999332428,10|0,0:3|0:0,0:0:0:0:
62,239,170883,1,4,0:3:0:0:
62,239,170965,2,0,P|129:203|177:120,1,121.499999866486,2|0,3:2|0:0,0:0:0:0:
239,150,171211,2,0,P|239:104|224:66,1,60.7499999332428,4|0,0:3|0:0,0:0:0:0:
126,12,171375,101,2,0:3:0:0:
114,16,171457,1,2,3:2:0:0:
102,20,171539,1,2,0:3:0:0:
90,25,171621,1,2,0:3:0:0:
78,29,171703,2,0,P|94:71|108:133,1,91.1249998998643,4|0,0:3|0:0,0:0:0:0:
62,239,171915,6,0,P|108:220|156:230,1,91.1249998998643,2|0,3:2|0:0,0:0:0:0:
247,344,172175,2,0,P|293:363|341:353,1,91.1249998998643,8|0,0:0|0:0,0:0:0:0:
423,358,172441,102,0,P|404:264|414:191,1,121.499999866486,2|2,3:2|0:3,0:3:0:0:
452,69,172700,2,0,P|470:126|475:186,1,121.499999866486,2|2,0:3|0:3,0:3:0:0:
404,239,172960,1,2,3:2:0:0:
392,237,173047,1,2,0:3:0:0:
380,236,173133,1,2,0:3:0:0:
369,235,173220,2,0,P|359:194|357:154,1,60.7499999332428,8|0,0:0|0:0,0:0:0:0:
339,96,173393,1,4,0:3:0:0:
339,96,173479,6,0,P|282:74|221:69,1,121.499999866486,2|0,3:2|0:0,0:0:0:0:
159,11,173719,2,0,P|135:15|95:33,1,60.7499999332428,8|0,0:3|0:0,0:0:0:0:
57,128,173880,1,4,0:3:0:0:
65,134,173960,102,0,P|82:155|105:231,1,91.1249998998643,10|0,0:0|0:0,0:0:0:0:
149,91,174201,2,0,P|161:134|187:171,1,91.1249998998643,8|0,0:3|0:0,0:0:0:0:
173,254,174442,5,0,3:0:0:0:
69,326,174563,2,0,P|178:287|260:300,1,182.249999799728,12|0,0:3|0:0,0:0:0:0:
381,384,174927,2,0,P|345:348|352:291,1,91.1249998998643,8|0,3:3|0:0,0:0:0:0:
344,154,175170,1,2,0:0:0:0:
350,146,175244,1,2,0:0:0:0:
338,144,175318,1,2,0:0:0:0:
425,192,175459,2,0,P|432:243|438:320,1,91.1249998998643,4|0,0:3|0:0,0:0:0:0:
268,217,175706,2,0,P|261:166|255:89,1,91.1249998998643,8|0,0:3|0:0,0:0:0:0:
382,24,175954,101,0,3:0:0:0:
440,94,176078,2,0,P|395:101|349:106,1,91.1249998998643,8|0,0:3|0:0,0:0:0:0:
141,20,176326,1,4,0:3:0:0:
154,12,176450,86,2,P|239:17|303:59,1,121.499999866486,6|0,3:1|0:0,0:1:0:0:
192,173,176702,2,0,P|179:146|185:103,1,60.7499999332428,0|0,0:3|0:0,0:0:0:0:
315,204,176870,1,4,0:3:0:0:
315,204,176954,2,0,P|296:292|297:352,1,121.499999866486,0|0,3:0|0:0,0:0:0:0:
197,382,177206,2,0,P|205:352|205:318,1,60.7499999332428,8|0,0:3|0:0,0:0:0:0:
150,262,177374,1,4,0:3:0:0:
150,262,177458,6,0,P|68:264|-6:280,1,121.499999866486,2|0,3:2|0:0,0:0:0:0:
0,197,177710,2,0,P|36:192|82:182,1,60.7499999332428,4|0,0:3|0:0,0:0:0:0:
140,141,177878,1,8,0:3:0:0:
140,141,177962,2,0,P|118:85|137:3,1,121.499999866486,2|0,3:2|0:0,0:0:0:0:
199,63,178214,2,0,P|211:25|256:-8,1,60.7499999332428,8|0,0:3|0:0,0:0:0:0:
345,104,178382,1,4,0:3:0:0:
345,104,178466,102,2,P|286:118|235:150,1,121.499999866486,14|0,0:1|0:0,0:1:0:0:
140,141,178714,2,0,P|158:173|177:246,1,60.7499999332428,0|0,3:0|0:0,0:0:0:0:
104,288,178880,1,8,0:3:0:0:
104,288,178963,2,0,P|68:232|47:149,1,121.499999866486,2|0,3:2|0:0,0:0:0:0:
54,372,179212,6,0,P|117:321|193:294,1,161.999993642171,8|0,0:3|0:0,0:0:0:0:
265,326,179461,102,0,P|242:378|186:371,1,121.499999866486,2|0,3:2|0:0,0:0:0:0:
197,218,179709,2,0,P|221:221|254:251,1,60.7499999332428,8|0,0:3|0:0,0:0:0:0:
337,285,179875,1,4,0:3:0:0:
337,285,179958,2,0,P|345:214|353:147,1,121.499999866486,2|0,3:2|0:0,0:0:0:0:
369,85,180207,1,8,0:3:0:0:
356,84,180290,1,8,0:3:0:0:
343,83,180373,1,4,0:3:0:0:
330,82,180456,6,2,P|273:94|221:143,1,121.499999866486,6|0,3:1|0:0,0:1:0:0:
144,141,180706,2,0,P|119:116|113:68,1,60.7499999332428,8|0,0:3|0:0,0:0:0:0:
0,23,180873,1,4,0:3:0:0:
0,23,180957,2,0,P|29:89|36:158,1,121.499999866486,2|0,3:2|0:0,0:0:0:0:
12,263,181207,2,0,P|81:208|134:232,1,121.499999866486,4|0,0:3|0:0,0:0:0:0:
200,203,181458,102,0,P|160:273|146:352,1,161.999993642171,2|0,3:2|0:0,0:0:0:0:
227,370,181709,2,0,P|243:319|246:270,1,80.9999968210857,8|0,0:3|0:0,0:0:0:0:
308,231,181876,1,4,0:3:0:0:
308,231,181959,2,0,P|287:181|283:62,1,161.999993642171,2|0,3:2|0:0,0:0:0:0:
384,35,182210,2,0,P|383:74|353:99,1,80.9999968210857,8|0,0:3|0:0,0:0:0:0:
245,140,182377,1,4,0:3:0:0:
245,140,182461,6,0,P|158:114|92:111,1,121.499999866486,14|0,3:1|0:0,0:0:0:0:
5,5,182709,2,0,P|92:31|158:34,1,121.499999866486,8|0,0:3|0:0,0:0:0:0:
61,172,182957,1,2,3:2:0:0:
56,183,183040,1,4,0:3:0:0:
53,194,183123,1,4,0:3:0:0:
50,204,183206,2,0,P|3:161|43:98,1,121.499999866486,4|0,0:3|0:0,0:0:0:0:
127,110,183454,102,0,P|148:194|135:260,1,121.499999866486,2|0,3:2|0:0,0:0:0:0:
22,354,183702,2,0,P|79:284|133:329,1,121.499999866486,4|8,0:3|0:3,0:0:0:0:
253,370,183951,2,0,P|196:358|179:303,1,121.499999866486,2|0,3:2|0:0,0:0:0:0:
294,174,184199,2,0,P|268:229|260:289,1,121.499999866486,8|4,0:3|0:3,0:0:0:0:
468,311,184447,6,2,B|470:355|470:355|412:128|167:111,1,404.999984105428,6|4,3:1|0:3,0:1:0:0:
217,41,184947,102,0,P|167:49|156:131,1,121.499999866486,2|0,3:2|0:0,0:0:0:0:
34,66,185197,2,0,P|78:157|85:226,1,121.499999866486,4|8,0:3|0:3,0:0:0:0:
55,280,185447,6,0,P|141:257|226:312,1,161.999993642171,2|2,3:2|0:0,0:0:0:0:
233,203,185697,2,0,P|311:194|359:132,1,161.999993642171,8|4,0:3|0:3,0:0:0:0:
490,361,185947,2,0,P|448:332|401:215,1,161.999993642171,2|0,3:2|0:0,0:0:0:0:
308,74,186197,2,0,P|347:55|403:69,1,80.9999968210857,8|8,0:3|0:3,0:0:0:0:
455,123,186363,1,4,0:3:0:0:
455,123,186447,102,0,P|321:100|195:86,1,242.999990463257,14|0,3:1|0:0,0:0:0:0:
96,12,186780,2,0,P|123:46|134:89,1,80.9999968210857,8|0,0:3|0:0,0:0:0:0:
132,177,186947,1,2,3:2:0:0:
116,182,187030,1,8,0:3:0:0:
100,187,187113,1,4,0:3:0:0:
84,192,187197,2,0,P|50:158|16:37,1,161.999993642171,4|8,0:3|0:3,0:0:0:0:
214,87,187447,6,0,P|286:61|335:137,1,161.999993642171,2|0,3:2|0:0,0:0:0:0:
349,196,187697,2,0,P|288:182|272:146,1,80.9999968210857,4|0,0:3|0:0,0:0:0:0:
112,298,187863,1,8,0:3:0:0:
112,298,187947,2,0,P|213:257|292:274,1,161.999993642171,2|0,3:2|0:0,0:0:0:0:
376,326,188197,1,2,0:3:0:0:
380,341,188280,1,2,0:3:0:0:
384,356,188363,1,10,0:3:0:0:
388,371,188447,102,0,P|448:305|420:259,1,121.499999866486,6|0,3:1|0:0,0:0:0:0:
500,179,188697,2,0,P|481:200|424:196,1,60.7499999332428,8|0,0:3|0:0,0:0:0:0:
366,225,188863,1,4,0:3:0:0:
366,225,188947,6,0,P|264:180|151:183,1,161.999993642171,2|0,3:2|0:0,0:0:0:0:
202,100,189197,2,0,P|160:108|112:135,1,80.9999968210857,8|0,0:3|0:0,0:0:0:0:
46,87,189363,1,4,0:3:0:0:
46,87,189447,2,0,P|102:160|122:275,1,161.999993642171,2|0,3:2|0:0,0:0:0:0:
47,368,189697,1,2,0:3:0:0:
30,368,189780,1,2,0:3:0:0:
13,368,189863,1,2,0:3:0:0:
0,368,189947,102,0,P|23:335|105:318,1,121.499999866486,2|0,3:2|0:0,0:0:0:0:
121,226,190197,2,0,P|142:245|199:249,1,60.7499999332428,8|0,0:3|0:0,0:0:0:0:
201,354,190363,1,4,0:3:0:0:
201,354,190447,6,0,P|309:312|394:316,1,182.249999799728,14|0,3:1|0:0,0:0:0:0:
486,247,190822,1,8,0:0:0:0:
300,206,190947,1,0,3:0:0:0:
512,131,191197,1,8,0:3:0:0:
503,128,191322,1,8,0:3:0:0:
493,126,191447,2,0,P|454:117|382:125,1,91.1249998998643,4|0,0:3|0:0,0:0:0:0:
319,68,191697,102,0,P|305:95|299:114,2,30.3749999666214,2|2|2,0:3|0:3|0:3,0:3:0:0:
247,35,191947,2,0,P|243:20|227:-4,2,30.3749999666214,10|2|2,0:0|0:3|0:3,0:3:0:0:
162,30,192197,2,0,P|169:51|182:70,1,30.3749999666214,2|2,0:3|0:3,0:3:0:0:
190,138,192363,1,6,0:3:0:0:
190,138,192447,22,0,P|129:138|64:164,1,121.499995231629,6|0,3:2|0:0,0:0:0:0:
13,205,192784,2,0,P|29:225|40:257,1,40.4999984105428,0|4,0:3|0:3,0:0:0:0:
124,346,192953,2,0,P|123:283|108:235,1,80.9999968210857,2|0,3:0|0:0,0:0:0:0:
258,295,193206,2,0,P|216:247|174:220,1,80.9999968210857,8|0,0:0|0:0,0:0:0:0:
369,197,193459,6,0,P|368:260|353:308,1,80.9999968210857,0|0,3:0|0:0,0:0:0:0:
503,248,193712,2,0,P|461:295|419:322,1,80.9999968210857,0|0,3:0|0:0,0:0:0:0:
488,142,193965,2,0,P|450:129|410:124,1,80.9999968210857,10|0,0:0|0:0,0:0:0:0:
330,30,194219,1,2,0:3:0:0:
322,32,194303,1,2,0:3:0:0:
314,34,194387,1,2,0:3:0:0:
306,37,194472,102,0,P|314:90|323:137,1,80.9999968210857,6|0,3:2|0:0,0:0:0:0:
202,236,194723,2,0,P|194:183|185:136,1,80.9999968210857,8|0,0:3|0:0,0:0:0:0:
195,75,194975,2,0,P|164:81|127:90,1,40.4999984105428,4|0,0:3|0:0,0:0:0:0:
53,111,195143,1,8,0:3:0:0:
53,111,195227,2,0,P|95:145|111:187,1,80.9999968210857,4|0,0:3|0:0,0:0:0:0:
112,248,195478,2,0,P|58:242|52:205,1,80.9999968210857,8|0,0:3|0:0,0:0:0:0:
21,361,195730,6,0,P|54:349|98:348,1,60.7499976158143,0|0,3:0|0:0,0:0:0:0:
86,334,195919,2,0,P|121:334|162:348,1,60.7499976158143,8|0,0:2|0:0,0:0:0:0:
160,352,196107,1,8,0:3:0:0:
243,308,196233,1,8,0:0:0:0:
352,331,196359,1,0,3:0:0:0:
415,384,196485,102,0,P|396:340|396:252,1,121.499995231629,6|0,3:2|0:0,0:0:0:0:
325,229,196819,2,0,P|335:201|352:185,1,40.4999984105428,0|8,0:0|0:3,0:0:0:0:
476,157,196986,2,0,P|444:119|403:103,1,80.9999968210857,0|0,3:0|0:0,0:0:0:0:
387,25,197236,2,0,P|343:40|294:50,1,80.9999968210857,8|0,0:0|0:0,0:0:0:0:
192,168,197487,6,0,P|143:153|78:142,1,80.9999968210857,0|0,3:0|0:0,0:0:0:0:
51,88,197738,2,0,P|84:77|107:71,1,40.4999984105428,0|0,3:0|0:0,0:0:0:0:
106,230,197905,1,8,0:3:0:0:
106,230,197988,2,0,P|55:216|19:208,1,80.9999968210857,4|0,0:3|0:0,0:0:0:0:
37,337,198239,2,0,P|60:326|83:317,1,40.4999984105428,8|0,0:3|0:0,0:0:0:0:
184,360,198406,1,4,0:3:0:0:
184,360,198490,102,0,P|173:313|175:266,1,80.9999968210857,6|0,3:2|0:0,0:0:0:0:
248,281,198740,2,0,P|253:233|271:189,1,80.9999968210857,8|0,0:3|0:0,0:0:0:0:
189,155,198990,2,0,P|181:139|152:106,1,40.4999984105428,4|0,0:3|0:0,0:0:0:0:
247,94,199156,1,8,0:3:0:0:
247,94,199240,2,0,P|255:78|284:45,1,40.4999984105428,0|0,3:0|0:0,0:0:0:0:
163,39,199406,1,8,0:3:0:0:
163,39,199490,6,0,P|121:36|56:50,1,80.9999968210857,2|0,0:0|0:0,0:0:0:0:
18,89,199740,1,2,0:3:0:0:
20,96,199823,1,2,0:3:0:0:
22,103,199906,1,2,0:3:0:0:
25,110,199990,2,0,P|69:126|107:173,1,80.9999968210857,8|0,0:0|0:0,0:0:0:0:
167,120,200240,2,0,P|190:160|189:220,1,80.9999968210857,0|0,3:0|0:0,0:0:0:0:
4,384,200490,102,0,P|52:353|106:345,1,80.9999968210857,6|0,3:2|0:0,0:0:0:0:
130,289,200740,2,0,P|176:294|224:320,1,80.9999968210857,8|0,0:3|0:0,0:0:0:0:
322,366,200990,2,0,P|312:303|306:266,1,80.9999968210857,4|8,0:3|0:3,0:0:0:0:
389,260,201240,2,0,P|395:234|399:216,1,40.4999984105428,0|0,3:0|0:0,0:0:0:0:
293,205,201406,1,4,0:3:0:0:
293,205,201490,2,0,P|271:156|248:120,1,80.9999968210857,8|0,0:3|0:0,0:0:0:0:
338,95,201740,2,0,P|354:58|375:23,1,80.9999968210857,4|0,0:3|0:0,0:0:0:0:
212,0,201990,2,0,P|248:15|269:49,1,80.9999968210857,8|0,0:0|0:0,0:0:0:0:
256,132,202240,2,0,P|211:144|162:158,1,80.9999968210857,8|0,0:3|0:0,0:0:0:0:
111,217,202490,6,0,P|100:178|87:140,1,80.9999968210857,6|0,3:2|0:0,0:0:0:0:
47,306,202740,2,0,P|33:268|23:229,1,80.9999968210857,8|0,0:3|0:0,0:0:0:0:
135,310,202990,1,4,0:3:0:0:
142,312,203073,1,4,0:3:0:0:
149,313,203156,1,4,0:3:0:0:
156,315,203240,2,0,P|224:294|266:283,1,80.9999968210857,8|0,0:3|0:0,0:0:0:0:
336,384,203490,102,0,P|325:345|312:307,1,80.9999968210857,8|0,0:3|0:0,0:0:0:0:
391,97,203740,2,0,P|403:135|414:174,1,80.9999968210857,4|8,0:3|0:3,0:0:0:0:
426,309,203990,1,2,0:3:0:0:
418,311,204073,1,2,0:3:0:0:
410,314,204156,1,2,0:3:0:0:
402,316,204240,2,0,P|386:280|383:265,1,40.4999984105428,8|0,0:3|0:0,0:0:0:0:
344,205,204406,1,4,0:3:0:0:
344,205,204490,6,0,P|286:191|231:200,1,80.9999968210857,2|0,3:2|0:0,0:0:0:0:
243,118,204736,2,0,P|189:144|153:186,1,80.9999968210857,2|0,3:2|0:0,0:0:0:0:
20,234,204983,2,0,P|48:276|66:321,1,80.9999968210857,2|0,3:2|0:0,0:0:0:0:
94,192,205230,2,0,P|111:228|134:261,1,80.9999968210857,2|0,3:2|0:0,0:0:0:0:
329,382,205476,102,0,P|351:336|381:298,1,80.9999968210857,8|0,3:0|0:0,0:0:0:0:
255,338,205723,2,0,P|278:304|295:268,1,80.9999968210857,8|0,3:0|0:0,0:0:0:0:
360,215,205970,2,0,P|354:195|336:170,1,40.4999984105428,2|0,3:2|0:0,0:0:0:0:
423,116,206134,1,8,0:3:0:0:
423,116,206216,2,0,P|402:111|372:114,1,40.4999984105428,4|0,0:3|0:0,0:0:0:0:
309,45,206381,1,8,0:3:0:0:
309,45,206463,6,0,P|260:59|205:59,1,80.9999968210857,2|0,3:2|0:0,0:0:0:0:
115,118,206711,2,0,P|60:105|24:83,1,80.9999968210857,2|0,3:2|0:0,0:0:0:0:
66,21,206959,2,0,P|121:34|157:56,1,80.9999968210857,8|0,3:3|0:0,0:0:0:0:
230,60,207208,2,0,P|218:90|217:114,1,40.4999984105428,4|0,0:3|0:0,0:0:0:0:
165,189,207373,1,8,0:3:0:0:
165,189,207456,102,0,P|186:240|193:291,1,80.9999968210857,0|0,3:0|0:0,0:0:0:0:
193,282,207704,1,8,0:3:0:0:
86,359,207828,1,4,0:3:0:0:
277,366,207953,2,0,P|282:321|290:294,1,60.7499976158143,8|0,0:3|0:0,0:0:0:0:
349,252,208201,1,8,0:2:0:0:
451,277,208325,1,8,0:3:0:0:
491,367,208449,21,6,3:2:0:0:
432,298,208706,1,2,0:0:0:0:
325,244,208963,1,2,3:2:0:0:
172,238,209220,1,2,0:0:0:0:
33,309,209478,5,2,3:2:0:0:
166,263,209727,1,2,0:0:0:0:
327,178,209976,1,2,3:2:0:0:
401,8,210225,1,2,0:0:0:0:
491,17,210476,101,6,3:2:0:0:
432,86,210722,1,2,0:0:0:0:
325,140,210968,1,2,3:2:0:0:
172,146,211214,1,2,0:0:0:0:
33,75,211461,5,2,3:2:0:0:
166,121,211713,1,2,0:0:0:0:
327,206,211965,1,2,3:2:0:0:
401,376,212217,1,2,0:0:0:0:
327,353,212469,101,6,3:2:0:0:
379,293,212720,1,2,0:0:0:0:
234,293,212971,1,2,3:2:0:0:
339,175,213222,1,2,0:0:0:0:
136,242,213474,1,2,3:2:0:0:
307,79,213725,1,2,0:0:0:0:
45,190,213976,1,2,3:2:0:0:
268,5,214227,1,2,0:0:0:0:
7,106,214479,5,6,3:2:0:0:
222,67,214727,1,2,0:0:0:0:
123,202,214975,1,2,3:2:0:0:
256,146,215223,1,2,0:0:0:0:
206,240,215471,1,2,3:2:0:0:
383,193,215719,1,2,0:0:0:0:
210,367,215967,1,2,3:2:0:0:
485,239,216215,1,2,0:0:0:0:
452,317,216464,102,0,P|427:299|412:273,1,60.7499976158143,6|0,3:2|0:0,0:0:0:0:
383,136,216715,1,2,0:3:0:0:
392,136,216841,1,2,0:3:0:0:
401,136,216966,2,0,P|397:166|382:192,1,60.7499976158143,2|0,3:2|0:0,0:0:0:0:
270,268,217218,2,0,P|297:255|327:255,1,60.7499976158143,2|2,0:3|0:3,0:0:0:0:
464,80,217469,6,0,P|431:58|388:59,1,72.8999949142458,2|0,3:2|0:0,0:0:0:0:
324,69,217721,2,0,P|288:86|267:124,1,72.8999949142458,2|2,0:3|0:3,0:0:0:0:
191,384,217972,2,0,P|226:366|247:328,1,72.8999949142458,2|0,3:2|0:0,0:0:0:0:
270,268,218224,2,0,P|272:228|250:191,1,72.8999949142458,2|2,0:3|0:3,0:0:0:0:
91,75,218475,102,0,P|101:136|109:187,1,80.9999968210857,6|0,3:2|0:0,0:0:0:0:
103,232,218725,2,0,P|122:228|142:223,1,40.4999984105428,2|0,0:3|0:0,0:0:0:0:
194,129,218893,1,2,0:3:0:0:
194,129,218976,2,0,P|232:111|280:116,1,80.9999968210857,2|0,3:2|0:0,0:0:0:0:
273,31,219227,2,0,P|313:41|347:72,1,60.7499976158143,2|2,0:3|0:3,0:0:0:0:
441,70,219478,5,2,3:2:0:0:
381,120,219603,1,2,0:3:0:0:
342,187,219728,1,2,0:3:0:0:
327,264,219854,1,2,0:3:0:0:
341,341,219980,2,0,P|348:312|336:268,1,60.7499976158143,2|0,3:2|0:0,0:0:0:0:
164,182,220230,1,2,0:3:0:0:
164,195,220356,1,2,0:3:0:0:
165,207,220481,102,0,P|216:210|264:213,1,80.9999968210857,6|0,3:2|0:0,0:0:0:0:
148,381,220726,2,0,P|129:344|112:308,1,80.9999968210857,2|2,0:3|0:3,0:0:0:0:
0,280,220972,2,0,P|35:260|57:227,1,80.9999968210857,2|2,3:2|0:3,0:0:0:0:
106,115,221218,2,0,P|106:74|88:38,1,80.9999968210857,2|2,0:3|0:3,0:0:0:0:
3,55,221464,6,0,P|2:95|20:131,1,80.9999968210857,2|0,3:2|0:0,0:0:0:0:
69,199,221710,2,0,P|92:213|120:215,1,40.4999984105428,2|0,0:3|0:0,0:0:0:0:
365,194,221874,1,2,0:3:0:0:
365,194,221956,2,0,P|330:173|290:170,1,80.9999968210857,2|0,3:2|0:0,0:0:0:0:
215,187,222202,2,0,P|190:200|175:223,1,40.4999984105428,2|0,0:3|0:0,0:0:0:0:
160,338,222366,1,2,0:3:0:0:
160,338,222448,102,0,L|147:261,1,60.7499976158143,6|0,3:2|0:0,0:0:0:0:
136,146,222697,2,0,L|123:69,1,60.7499976158143,10|0,0:0|0:0,0:0:0:0:
227,0,222946,6,0,P|214:17|197:63,1,40.4999984105428,8|0,0:3|0:0,0:0:0:0:
275,77,223106,1,4,0:3:0:0:
275,77,223186,2,0,P|288:60|305:14,1,40.4999984105428,8|0,0:3|0:0,0:0:0:0:
421,32,223346,1,4,0:3:0:0:
421,32,223426,2,0,P|366:4|344:4,2,60.7499976158143,0|8|0,3:0|0:0|3:0,0:0:0:0:
483,102,223930,101,0,3:0:0:0:
410,143,224057,1,8,0:3:0:0:
355,207,224185,1,8,0:0:0:0:
326,286,224313,1,8,0:0:0:0:
321,379,224441,86,0,P|339:347|338:276,1,97.1999932189944,6|0,3:2|0:0,0:0:0:0:
262,233,224695,2,0,P|246:261|247:291,1,48.5999966094972,2|2,0:3|0:3,0:3:0:0:
153,370,224864,1,10,0:3:0:0:
153,370,224949,2,0,P|121:322|117:272,1,97.1999932189944,2|2,3:3|0:3,0:3:0:0:
36,294,225203,2,0,P|42:236|71:195,1,97.1999932189944,10|2,0:3|0:3,0:3:0:0:
118,147,225457,5,2,0:3:0:0:
0,94,225585,1,10,0:0:0:0:
80,76,225712,1,2,0:3:0:0:
502,119,225966,101,14,0:0:0:0:
236,187,226220,1,2,0:3:0:0:
224,175,226474,6,0,P|272:153|356:164,1,97.1999932189944,6|2,0:0|0:3,0:3:0:0:
251,35,226721,2,0,P|297:46|336:75,1,97.1999932189944,2|2,0:3|0:3,0:3:0:0:
405,138,226969,2,0,P|387:199|383:255,1,97.1999932189944,2|2,0:3|0:3,0:3:0:0:
446,374,227217,2,0,P|454:338|450:303,1,48.5999966094972,2|2,0:3|0:3,0:3:0:0:
386,264,227383,1,6,0:3:0:0:
386,264,227465,102,0,P|311:255|250:249,1,97.1999932189944,2|2,3:3|0:3,0:3:0:0:
228,327,227713,2,0,P|192:337|164:347,1,48.5999966094972,2|2,3:3|0:3,0:3:0:0:
30,285,227878,1,2,0:3:0:0:
30,285,227961,2,0,P|12:210|17:166,1,97.1999932189944,2|2,0:3|0:3,0:3:0:0:
30,117,228209,1,10,0:3:0:0:
153,179,228333,1,6,0:3:0:0:
266,81,228457,6,0,P|199:60|108:63,1,145.799989828492,6|2,3:2|0:3,0:3:0:0:
331,24,228835,1,2,0:3:0:0:
340,34,228961,2,0,P|363:61|386:113,1,72.8999949142458,2|2,3:3|0:3,0:3:0:0:
290,219,229213,1,2,3:3:0:0:
295,231,229339,1,2,0:3:0:0:
299,242,229465,102,0,P|347:219|382:209,1,72.8999949142458,10|2,0:3|0:3,0:3:0:0:
471,322,229717,1,2,0:3:0:0:
466,334,229843,1,10,0:3:0:0:
462,345,229969,2,0,P|414:322|379:312,1,72.8999949142458,6|2,0:3|0:3,0:3:0:0:
441,168,230221,2,0,P|489:190|524:200,1,72.8999949142458,6|2,0:3|0:3,0:3:0:0:
332,365,230473,6,0,P|264:337|194:316,1,145.799989828492,6|2,3:2|0:3,0:3:0:0:
123,253,230845,1,10,0:0:0:0:
132,253,230970,2,0,P|165:239|189:212,1,72.8999949142458,2|2,3:3|0:3,0:3:0:0:
19,133,231218,2,0,P|14:169|26:203,1,72.8999949142458,2|2,0:3|0:3,0:3:0:0:
114,175,231467,102,0,P|109:140|102:96,1,72.8999949142458,2|2,0:0|0:3,0:3:0:0:
252,81,231715,2,0,P|257:116|264:160,1,72.8999949142458,2|2,0:3|0:3,0:3:0:0:
325,255,231964,2,0,P|320:290|313:334,1,72.8999949142458,2|2,0:0|0:3,0:3:0:0:
463,349,232212,2,0,P|468:314|475:270,1,72.8999949142458,2|2,0:3|0:3,0:3:0:0:
430,103,232461,6,0,P|395:114|365:134,1,72.8999949142458,6|2,3:2|0:3,0:3:0:0:
189,249,232711,1,2,0:3:0:0:
181,252,232836,1,2,0:3:0:0:
172,257,232961,2,0,P|137:245|107:225,1,72.8999949142458,2|2,3:3|0:3,0:3:0:0:
187,49,233211,2,0,P|221:60|251:80,1,72.8999949142458,2|2,0:3|0:3,0:3:0:0:
268,204,233461,2,0,P|208:158|101:135,2,145.799989828492,2|2|2,3:3|0:3|3:3,0:3:0:0:
284,301,234086,1,2,0:3:0:0:
360,338,234211,1,2,0:3:0:0:
437,306,234336,1,2,0:3:0:0:
448,225,234461,102,0,P|422:152|423:67,1,145.799989828492,6|2,3:2|0:3,0:3:0:0:
443,11,234836,1,2,0:3:0:0:
435,7,234961,2,0,P|387:11|359:47,1,72.8999949142458,2|2,3:3|0:3,0:3:0:0:
312,179,235211,2,0,P|332:135|315:93,1,72.8999949142458,2|2,0:3|0:3,0:3:0:0:
275,15,235461,6,0,P|187:23|84:28,1,145.799989828492,2|2,3:3|0:3,0:3:0:0:
29,75,235823,1,2,0:3:0:0:
38,80,235944,2,0,P|69:122|77:162,1,72.8999949142458,2|2,3:3|0:3,0:3:0:0:
45,317,236186,2,0,P|14:275|6:235,1,72.8999949142458,10|2,0:0|0:3,0:3:0:0:
175,384,236428,102,0,P|183:297|200:250,1,97.1999932189944,6|2,0:1|0:3,0:3:0:0:
113,267,236684,2,0,P|120:237|138:200,1,48.5999966094972,2|2,0:3|0:3,0:3:0:0:
236,207,236855,1,10,0:3:0:0:
236,207,236940,2,0,P|219:175|204:107,1,97.1999932189944,6|2,0:3|0:3,0:3:0:0:
291,91,237197,2,0,P|308:123|323:191,1,97.1999932189944,2|10,0:3|0:3,0:3:0:0:
439,361,237453,6,0,P|395:360|331:353,1,97.1999932189944,6|2,0:2|0:3,0:3:0:0:
340,281,237710,2,0,P|368:281|401:286,1,48.5999966094972,6|2,0:3|0:3,0:3:0:0:
480,290,237880,1,10,0:3:0:0:
480,290,237966,102,0,P|490:227|493:195,1,72.8999949142458,2|2,3:3|0:3,0:3:0:0:
401,162,238204,2,0,P|391:99|388:67,1,72.8999949142458,6|2,0:3|0:3,0:3:0:0:
415,22,238444,5,10,0:0:0:0:
277,16,238569,1,10,0:0:0:0:
281,33,238819,101,10,0:3:0:0:
207,72,238944,1,10,0:3:0:0:
208,85,239194,5,10,0:0:0:0:
41,10,239319,1,10,0:0:0:0:
40,90,239444,1,10,0:3:0:0:
42,103,239569,1,6,0:3:0:0:
44,115,239694,2,0,P|79:116|119:95,1,60.7499976158143,0|0,3:3|3:3,0:3:0:0:
247,232,239944,1,8,0:3:0:0:
245,244,240069,2,0,P|209:245|169:224,1,60.7499976158143,4|0,0:3|0:3,0:3:0:0:
1,212,240319,1,0,3:3:0:0:
0,201,240444,38,0,P|67:173|195:169,1,182.249999799728,6|2,3:2|0:0,0:0:0:0:
100,146,240782,2,0,P|55:129|29:106,1,60.7499999332428,2|2,0:3|0:0,0:0:0:0:
100,25,240952,2,0,P|156:45|217:102,1,121.499999866486,2|2,3:3|0:3,0:0:0:0:
104,258,241206,2,0,P|48:238|-17:181,1,121.499999866486,2|0,0:0|0:0,0:0:0:0:
274,44,241460,6,0,P|231:129|224:223,1,182.249999799728,2|2,3:2|0:0,0:0:0:0:
260,291,241799,2,0,P|286:272|296:234,1,60.7499999332428,0|2,0:0|0:0,0:0:0:0:
440,384,241969,2,0,P|385:351|325:343,1,121.499999866486,2|0,3:0|0:0,0:0:0:0:
102,339,242223,2,0,P|156:371|219:378,1,121.499999866486,2|0,0:0|0:0,0:0:0:0:
440,384,242477,102,0,P|465:315|458:188,1,182.249999799728,6|2,3:2|0:0,0:0:0:0:
463,207,242977,2,0,P|401:195|329:236,1,121.499999866486,0|8,3:0|0:3,0:0:0:0:
180,231,243227,2,0,P|235:200|260:126,1,121.499999866486,2|4,0:0|0:3,0:0:0:0:
329,80,243477,6,0,P|339:151|353:253,1,137.699997222265,2|0,3:1|0:0,0:0:0:0:
131,146,243727,102,0,P|203:85|275:31,1,153.89998985049,2|0,0:1|0:0,0:0:0:0:
298,283,243977,6,0,P|196:243|97:204,1,170.09998813324,2|0,3:1|0:0,0:0:0:0:
88,285,244227,2,0,P|22:296|-25:305,1,85.0499940666201,2|0,0:1|0:0,0:0:0:0:
133,374,244393,1,4,0:3:0:0:
133,374,244477,102,0,P|237:351|296:340,1,121.499999866486,6|0,3:2|0:0,0:0:0:0:
412,356,244724,2,0,P|392:267|380:208,1,121.499999866486,2|2,0:0|0:0,0:0:0:0:
339,0,244972,2,0,P|392:56|406:115,1,121.499999866486,0|0,3:2|0:0,0:0:0:0:
274,179,245220,2,0,P|221:123|205:67,1,121.499999866486,2|0,0:0|0:0,0:0:0:0:
465,37,245468,6,0,P|436:123|316:153,1,182.249999799728,2|2,3:2|0:0,0:0:0:0:
268,347,245799,2,0,P|289:323|292:287,1,60.7499999332428,0|2,0:0|0:0,0:0:0:0:
201,313,245964,2,0,P|177:244|114:194,1,121.499999866486,0|0,3:2|0:0,0:0:0:0:
139,357,246212,2,0,P|76:319|0:325,1,121.499999866486,2|0,0:0|0:0,0:0:0:0:
0,215,246460,102,0,P|98:199|152:127,1,182.249999799728,6|2,3:2|0:0,0:0:0:0:
109,58,246791,2,0,P|85:82|73:114,1,60.7499999332428,0|8,0:0|0:3,0:0:0:0:
205,69,246956,2,0,P|199:136|222:202,1,121.499999866486,0|0,3:2|0:0,0:0:0:0:
367,116,247204,2,0,P|312:82|275:34,1,121.499999866486,2|0,0:0|0:0,0:0:0:0:
408,49,247452,6,0,P|410:109|422:169,1,121.499999866486,2|0,3:1|0:0,0:0:0:0:
256,269,247700,2,0,P|315:257|376:254,1,121.499999866486,2|0,0:1|0:0,0:0:0:0:
133,371,247948,2,0,P|107:310|121:227,1,121.499999866486,2|0,3:1|0:0,0:0:0:0:
301,353,248196,2,0,P|235:345|170:290,1,121.499999866486,2|4,0:1|0:3,0:0:0:0:
25,252,248443,102,0,P|44:188|136:139,1,121.499999866486,6|0,3:2|0:0,0:0:0:0:
286,151,248699,2,0,P|221:166|131:110,1,121.499999866486,2|2,0:0|0:0,0:0:0:0:
322,14,248955,2,0,P|282:67|178:83,1,121.499999866486,0|0,3:0|0:0,0:0:0:0:
0,112,249212,2,0,P|55:75|155:98,1,121.499999866486,2|0,0:0|0:0,0:0:0:0:
271,269,249468,6,0,P|183:277|74:354,1,182.249999799728,2|2,3:2|0:0,0:0:0:0:
356,380,249895,1,2,0:0:0:0:
357,380,249981,2,0,P|427:372|495:327,1,121.499999866486,0|0,3:0|0:0,0:0:0:0:
260,118,250237,2,0,P|244:149|242:192,1,60.7499999332428,2|0,0:0|0:0,0:0:0:0:
406,239,250408,1,4,0:3:0:0:
406,239,250494,102,0,P|383:193|303:172,1,121.499999866486,6|0,3:2|0:0,0:0:0:0:
271,269,250738,2,0,P|312:259|334:231,1,60.7499999332428,2|0,0:0|0:0,0:0:0:0:
492,268,250902,1,2,0:0:0:0:
492,268,250983,2,0,P|483:207|478:147,1,121.499999866486,0|0,3:0|0:0,0:0:0:0:
495,31,251228,2,0,P|434:35|374:43,1,121.499999866486,2|0,0:0|0:0,0:0:0:0:
283,152,251473,6,0,P|269:95|213:83,1,121.499999866486,2|0,3:1|0:0,0:0:0:0:
116,211,251718,102,0,B|111:236|111:236|148:173|227:156,1,145.799989828492,2|0,0:1|0:0,0:0:0:0:
231,1,251963,6,0,P|169:15|128:62,1,121.499999866486,2|0,3:1|0:0,0:0:0:0:
31,71,252208,2,0,P|12:131|34:190,1,121.499999866486,2|0,0:1|0:0,0:0:0:0:
0,327,252453,102,0,P|73:283|332:308,1,303.749999666214,6|0,3:2|0:0,0:0:0:0:
272,377,252955,2,0,P|217:340|213:251,1,121.499999866486,0|0,3:0|0:0,0:0:0:0:
297,199,253207,2,0,P|352:236|355:326,1,121.499999866486,8|4,0:0|0:3,0:0:0:0:
512,374,253458,5,0,3:0:0:0:
493,367,253584,2,0,P|464:335|450:286,1,91.1249998998643,8|0,0:0|0:0,0:0:0:0:
421,56,253836,1,0,3:0:0:0:
440,63,253961,2,0,P|469:95|483:144,1,91.1249998998643,8|0,0:0|0:0,0:0:0:0:
212,140,254213,2,0,P|225:98|260:62,1,91.1249998998643,0|0,3:0|0:0,0:0:0:0:
373,157,254464,102,0,P|287:187|212:238,1,182.249999799728,6|0,3:2|0:0,0:0:0:0:
103,287,254836,1,8,0:0:0:0:
120,281,254960,2,0,P|149:290|195:340,1,91.1249998998643,8|0,0:3|0:0,0:0:0:0:
346,359,255209,2,0,P|316:349|270:299,1,91.1249998998643,4|0,0:3|0:0,0:0:0:0:
19,189,255457,6,0,L|94:167,1,60.7499976158143,8|0,0:3|0:0,0:0:0:0:
150,154,255705,2,0,L|225:132,1,60.7499976158143,8|0,0:0|0:0,0:0:0:0:
272,71,255954,102,0,P|287:118|301:190,1,91.1249998998643,0|0,3:0|0:0,0:0:0:0:
423,258,256202,1,12,0:3:0:0:
247,222,256326,1,4,0:3:0:0:
494,144,256450,6,0,P|407:165|340:277,1,182.249999799728,6|2,3:2|0:0,0:0:0:0:
70,373,256866,1,2,0:0:0:0:
70,373,256950,2,0,P|135:388|198:375,1,121.499999866486,0|0,3:0|0:3,0:0:0:0:
283,332,257200,2,0,P|329:284|351:225,1,121.499999866486,10|8,0:2|0:3,0:0:0:0:
447,377,257450,102,0,P|454:278|419:183,1,182.249999799728,2|2,3:2|0:0,0:0:0:0:
264,56,257866,1,2,0:0:0:0:
264,56,257950,2,0,P|267:94|288:146,1,60.7499999332428,0|0,3:0|0:0,0:0:0:0:
407,22,258116,1,8,0:0:0:0:
407,22,258200,2,0,P|373:5|320:1,1,60.7499999332428,10|0,0:3|0:0,0:0:0:0:
190,22,258366,1,0,0:0:0:0:
190,22,258450,6,0,P|234:79|251:208,1,182.249999799728,6|0,3:2|0:0,0:0:0:0:
141,79,258779,2,0,P|115:60|84:51,1,60.7499999332428,0|8,0:3|0:3,0:0:0:0:
44,207,258944,2,0,P|97:170|157:152,1,121.499999866486,0|8,3:0|0:0,0:0:0:0:
190,22,259191,2,0,P|254:27|311:53,1,121.499999866486,2|2,0:1|0:3,0:0:0:0:
402,14,259439,102,0,P|393:82|378:191,1,137.699997222265,2|0,3:1|0:0,0:0:0:0:
512,365,259713,6,0,P|453:355|332:339,1,115.424992387867,2|0,0:1|0:0,0:0:0:0:
299,337,259943,1,2,3:1:0:0:
306,320,260080,2,0,P|351:271|426:282,1,115.424992387867,8|0,0:0|0:0,0:0:0:0:
407,272,260312,1,8,0:3:0:0:
403,14,260428,102,0,P|310:25|256:101,1,182.249999799728,6|2,3:2|0:0,0:0:0:0:
175,87,260769,2,0,P|184:138|203:164,1,60.7499999332428,0|2,0:0|0:0,0:0:0:0:
388,226,260940,2,0,P|373:140|341:98,1,121.499999866486,0|8,3:0|0:0,0:0:0:0:
488,58,261197,2,0,P|407:28|351:34,1,121.499999866486,2|0,3:2|0:0,0:0:0:0:
121,192,261453,6,0,P|229:196|325:257,1,182.249999799728,2|2,3:2|0:0,0:0:0:0:
293,304,261795,2,0,P|243:288|223:269,1,60.7499999332428,0|2,0:0|0:0,0:0:0:0:
121,192,261966,2,0,P|93:147|84:72,1,121.499999866486,0|8,3:2|0:0,0:0:0:0:
179,57,262222,2,0,P|208:101|217:178,1,121.499999866486,2|4,0:0|0:3,0:0:0:0:
30,350,262479,102,0,P|81:310|138:288,1,121.499999866486,0|0,3:2|0:0,0:0:0:0:
237,283,262724,2,0,P|297:306|343:348,1,121.499999866486,8|0,0:3|0:0,0:0:0:0:
459,322,262970,2,0,P|411:302|374:273,1,60.7499999332428,4|0,0:3|0:0,0:0:0:0:
327,235,263134,1,8,0:0:0:0:
327,235,263216,2,0,P|376:215|446:162,1,121.499999866486,8|0,0:3|0:0,0:0:0:0:
349,8,263462,6,0,P|263:41|160:114,1,182.249999799728,0|2,3:0|0:0,0:0:0:0:
183,99,263790,1,2,0:3:0:0:
179,110,263872,1,2,0:3:0:0:
174,121,263954,2,0,P|155:66|130:2,1,121.499999866486,10|8,0:0|0:0,0:0:0:0:
137,245,264200,2,0,P|156:299|180:370,1,121.499999866486,8|4,0:3|0:3,0:0:0:0:
54,190,264446,102,0,P|153:213|263:286,1,182.249999799728,6|2,3:2|0:0,0:0:0:0:
315,171,264784,2,0,P|264:157|244:155,1,60.7499999332428,0|2,0:0|0:0,0:0:0:0:
322,252,264954,2,0,P|380:218|385:139,1,121.499999866486,0|8,3:0|0:0,0:0:0:0:
248,77,265208,2,0,P|190:111|184:189,1,121.499999866486,2|0,3:2|0:0,0:0:0:0:
145,237,265462,6,0,P|131:164|105:88,1,137.699997222265,2|0,3:2|0:0,0:0:0:0:
191,11,265717,102,0,P|275:39|364:61,1,153.89998985049,2|0,3:1|0:0,0:0:0:0:
393,168,265971,6,0,P|314:238|237:319,1,170.09998813324,2|8,0:1|0:0,0:0:0:0:
145,237,266225,2,0,P|193:195|221:164,1,85.0499940666201,8|0,0:3|0:0,0:0:0:0:
440,80,266395,1,4,0:3:0:0:
440,80,266479,102,0,P|363:82|240:31,1,182.249999799728,0|8,3:0|0:0,0:0:0:0:
30,102,266895,1,8,0:3:0:0:
30,102,266979,2,0,P|88:91|172:113,1,121.499999866486,0|0,3:0|0:0,0:0:0:0:
268,283,267229,2,0,P|230:238|204:156,1,121.499999866486,8|0,0:3|0:0,0:0:0:0:
264,47,267479,6,0,P|313:102|342:202,1,121.499999866486,4|0,0:3|0:0,0:0:0:0:
435,38,267729,2,0,P|402:65|382:103,1,60.7499999332428,8|0,0:0|0:0,0:0:0:0:
436,235,267895,1,8,0:3:0:0:
436,235,267979,102,0,P|470:207|489:163,1,91.1249998998643,0|8,3:0|0:0,0:0:0:0:
301,314,268229,2,0,L|348:322,4,30.3749999666214,2|2|2|2|2,0:3|0:3|0:3|0:3|0:3,0:3:0:0:
245,362,268479,6,0,P|257:299|263:240,1,121.499999866486,0|0,3:2|0:0,0:0:0:0:
137,94,268729,2,0,P|125:157|114:218,1,121.499999866486,8|0,0:0|0:0,0:0:0:0:
255,167,268979,2,0,P|218:176|202:203,1,60.7499999332428,0|0,3:0|0:0,0:0:0:0:
154,311,269145,1,8,0:3:0:0:
154,311,269229,2,0,P|83:295|20:282,1,121.499999866486,0|0,3:0|0:0,0:0:0:0:
83,39,269479,2,0,P|147:51|206:64,1,121.499999866486,0|0,3:0|0:0,0:0:0:0:
216,80,269729,101,10,0:0:0:0:
357,59,269854,1,8,0:3:0:0:
301,118,269979,5,8,0:0:0:0:
440,135,270104,1,4,0:3:0:0:
495,253,270229,1,8,0:3:0:0:
494,274,270354,1,0,3:0:0:0:
487,355,270479,102,0,L|391:338,1,91.1249998998643,6|0,3:2|0:0,0:0:0:0:
297,319,270726,2,0,L|201:302,1,91.1249998998643,2|0,0:0|0:0,0:0:0:0:
34,275,270974,6,0,L|145:255,1,103.274997916698,2|0,3:3|0:0,0:0:0:0:
255,233,271222,2,0,L|366:213,1,103.274997916698,2|0,0:0|0:0,0:0:0:0:
512,169,271470,102,0,L|384:146,1,115.424992387867,2|0,3:3|0:0,0:0:0:0:
261,121,271717,2,0,L|133:98,1,115.424992387867,2|0,0:0|0:0,0:0:0:0:
44,13,271966,6,0,P|60:52|67:128,1,85.0499940666201,0|0,3:0|0:0,0:0:0:0:
53,231,272131,1,8,0:3:0:0:
43,234,272214,1,4,0:3:0:0:
33,236,272297,2,0,P|17:197|10:121,1,85.0499940666201,0|4,3:0|0:3,0:0:0:0:
133,20,272462,101,14,3:2:0:0:
256,192,272548,12,0,273668,0:0:0:0:
79,28,273737,85,2,0:3:0:0:
61,106,273992,1,2,0:3:0:0:
139,82,274247,1,2,0:3:0:0:
4,54,274502,1,2,0:3:0:0:
29,334,275738,5,2,0:3:0:0:
72,266,275993,1,2,0:3:0:0:
147,236,276248,1,2,0:3:0:0:
226,251,276489,1,2,0:3:0:0:
453,353,277737,101,2,0:3:0:0:
373,371,277994,1,2,0:3:0:0:
353,293,278252,1,2,0:3:0:0:
433,275,278509,1,2,0:3:0:0:
465,76,279737,5,2,0:3:0:0:
225,52,279983,1,2,0:3:0:0:
225,52,280477,1,2,0:3:0:0:
141,360,281776,101,2,0:3:0:0:
114,287,282018,1,2,0:3:0:0:
194,303,282261,1,2,0:3:0:0:
62,346,282503,1,2,0:3:0:0:
501,189,283737,5,2,0:3:0:0:
441,137,283983,1,2,0:3:0:0:
368,115,284230,1,2,0:3:0:0:
294,133,284478,1,2,0:3:0:0:
294,133,284982,102,0,B|318:226|264:208|291:294,1,161.999993642171,2|2,0:3|0:3,0:0:0:0:
334,356,285990,1,2,0:3:0:0:
244,379,286242,1,2,0:3:0:0:
161,345,286494,1,2,0:3:0:0:
161,345,286994,6,0,P|142:322|14:295,1,161.999993642171,2|2,0:3|0:3,0:0:0:0:
98,274,287994,1,2,0:3:0:0:
153,213,288244,1,2,0:3:0:0:
159,134,288494,1,2,0:3:0:0:
159,134,289744,101,2,0:3:0:0:
193,63,289994,1,2,0:3:0:0:
114,71,290244,1,2,0:3:0:0:
245,131,290494,1,2,0:3:0:0:
472,30,291744,5,2,0:3:0:0:
423,100,291994,1,2,0:3:0:0:
398,198,292244,1,2,0:3:0:0:
417,312,292494,1,2,0:3:0:0:
417,312,292994,102,0,B|376:263|314:283|314:283|352:288|361:312,1,161.999993642171,2|2,0:3|0:3,0:0:0:0:
307,359,293994,1,2,0:3:0:0:
241,316,294244,1,2,0:3:0:0:
179,374,294494,1,2,0:3:0:0:
7,210,295761,5,2,0:3:0:0:
83,197,296011,1,2,0:3:0:0:
194,114,296261,1,2,0:3:0:0:
270,105,296511,1,2,0:3:0:0:
32,33,297744,101,2,0:3:0:0:
53,112,297994,1,2,0:3:0:0:
187,128,298244,1,2,0:3:0:0:
182,203,298494,1,2,0:3:0:0:
45,366,299774,5,2,0:3:0:0:
113,326,300014,1,2,0:3:0:0:
203,308,300254,1,2,0:3:0:0:
318,321,300494,1,2,0:3:0:0:
318,321,300994,102,0,P|304:269|298:149,1,161.999993642171,2|2,0:3|0:3,0:0:0:0:
310,86,301994,1,2,0:3:0:0:
372,136,302244,1,2,0:3:0:0:
476,45,302494,1,2,0:3:0:0:
476,45,302994,6,0,P|444:28|318:15,1,161.999993642171,2|2,0:3|0:3,0:0:0:0:
239,25,303994,1,2,0:3:0:0:
239,25,304244,1,2,0:3:0:0:
69,272,304494,102,0,B|-32:194|-27:55|117:7|147:72|149:110|149:110|153:152|160:200|208:264|287:265|350:179,1,660.959978094239,6|8,0:0|0:3,0:0:0:0:
