osu file format v14

[General]
AudioFilename: audio.mp3
AudioLeadIn: 0
PreviewTime: 180316
Countdown: 1
SampleSet: Normal
StackLeniency: 0.7
Mode: 0
LetterboxInBreaks: 0
WidescreenStoryboard: 1

[Editor]
Bookmarks: 15776,24416,58976,88406,89756,90296,91241,91376,92456,93536,95696,97316,110816,115136,123776,128096,144836,153685,154225,167185,169345,188956,193276,197596,199756,215213,217036,220816,221626
DistanceSpacing: 0.8
BeatDivisor: 4
GridSize: 4
TimelineZoom: 2.299999

[Metadata]
Title:Final
TitleUnicode:Final
Artist:Kashiwa Daisuke
ArtistUnicode:Kashiwa Daisuke
Creator:Skellen
Version:The End
Source:
Tags:
BeatmapID:2671378
BeatmapSetID:858249

[Difficulty]
HPDrainRate:5
CircleSize:4
OverallDifficulty:9
ApproachRate:10
SliderMultiplier:1.4
SliderTickRate:1

[Events]
//Background and Video events
0,0,"The end.jpg",0,0
//Break Periods
//Storyboard Layer 0 (Background)
//Storyboard Layer 1 (Fail)
//Storyboard Layer 2 (Pass)
//Storyboard Layer 3 (Foreground)
//Storyboard Layer 4 (Overlay)
//Storyboard Sound Samples

[TimingPoints]
7136,270.00027000027,4,2,0,85,1,0
24416,-80,4,2,0,85,0,0
29816,-80,4,3,0,85,0,0
30896,-80,4,2,0,85,0,0
34136,-80,4,2,0,45,0,0
34406,-80,4,2,0,25,0,0
34811,-80,4,2,0,40,0,0
34946,-80,4,2,0,25,0,0
35216,-80,4,2,0,85,0,0
41291,-80,4,2,0,25,0,0
41696,-80,4,2,0,85,0,0
60596,-80,4,2,0,35,0,0
61136,-80,4,2,0,85,0,0
92456,-80,4,2,0,40,0,0
93536,-80,4,2,0,85,0,0
101906,-80,4,2,0,5,0,0
102176,-80,4,2,0,85,0,0
110276,-80,4,3,0,85,0,0
110816,-80,4,2,0,85,0,0
111356,-80,4,3,0,85,0,0
111896,-80,4,2,0,85,0,0
113921,-133.333333333333,4,2,0,85,0,0
114056,-133.333333333333,4,2,0,45,0,0
114191,-80,4,2,0,85,0,0
127286,-80,4,2,0,20,0,0
127556,-80,4,2,0,85,0,0
136466,-80,4,2,0,5,0,0
136736,-80,4,2,0,65,0,0
144836,-80,4,2,0,30,0,0
144836,-80,4,2,0,85,0,0
144903,-80,4,2,0,35,0,0
144971,-80,4,2,0,40,0,0
145038,-80,4,2,0,45,0,0
145106,-80,4,2,0,50,0,0
145173,-80,4,2,0,60,0,0
145241,-80,4,2,0,70,0,0
145376,-80,4,2,0,80,0,0
145585,270.00027000027,4,2,0,100,1,1
145585,-80,4,2,0,90,0,1
145855,-80,4,2,0,90,0,1
147745,-80,4,2,0,100,0,1
148015,-80,4,2,0,90,0,1
149905,-80,4,2,0,100,0,1
150175,-80,4,2,0,90,0,1
152065,-80,4,2,0,100,0,1
152335,-80,4,2,0,90,0,1
154225,-80,4,2,0,100,0,1
154495,-80,4,2,0,90,0,1
156385,-80,4,2,0,100,0,1
156655,-80,4,2,0,90,0,1
158545,-80,4,2,0,100,0,1
158815,-80,4,2,0,40,0,1
158950,-66.6666666666667,4,2,0,100,0,1
159220,-80,4,2,0,90,0,1
160705,-80,4,2,0,100,0,1
160975,-80,4,2,0,90,0,1
162865,-80,4,2,0,100,0,1
163405,-80,4,2,0,90,0,1
165025,-80,4,2,0,100,0,1
165295,-80,4,2,0,90,0,1
167185,-66.6666666666667,4,3,0,100,0,1
169345,-80,4,2,0,90,0,1
171505,-80,4,2,0,100,0,1
171775,-80,4,2,0,90,0,1
173665,-80,4,2,0,100,0,1
173935,-80,4,2,0,90,0,1
175825,-80,4,2,0,100,0,1
176095,-80,4,2,0,90,0,1
176365,-80,4,2,0,100,0,1
176635,-80,4,2,0,90,0,1
177985,-80,4,2,0,100,0,1
178255,-80,4,2,0,90,0,1
179605,-100,4,2,0,100,0,0
180316,270.00027000027,4,2,0,100,1,1
180316,-80,4,2,0,100,0,1
180856,-80,4,2,0,90,0,1
182476,-80,4,2,0,100,0,1
182746,-80,4,2,0,90,0,1
184636,-80,4,2,0,100,0,1
185176,-80,4,2,0,90,0,1
188956,-80,4,2,0,100,0,1
189226,-80,4,2,0,90,0,1
191116,-80,4,2,0,100,0,1
191386,-80,4,2,0,90,0,1
193276,-80,4,2,0,100,0,1
197596,-100,4,2,0,60,0,0
198946,-100,4,2,0,80,0,0
199756,-80,4,2,0,100,0,1
200026,-80,4,2,0,90,0,1
201916,-80,4,2,0,100,0,1
202456,-80,4,2,0,90,0,1
204076,-80,4,2,0,100,0,1
204346,-80,4,2,0,90,0,1
206236,-80,4,2,0,100,0,1
206506,-80,4,2,0,90,0,1
208396,-80,4,2,0,100,0,1
208666,-80,4,2,0,90,0,1
210556,-80,4,2,0,100,0,1
211096,-80,4,2,0,90,0,1
212716,-80,4,1,0,100,0,1
213256,-80,4,3,0,80,0,1
214876,-1000,4,1,0,100,0,0
215146,-1000,4,1,0,5,0,0
221086,-100,4,1,0,5,0,0

[HitObjects]
88,352,7136,6,0,P|56:312|52:264,1,70,8|0,0:0|0:0,0:0:0:0:
136,280,7406,1,2,0:0:0:0:
136,280,7541,1,2,0:0:0:0:
180,188,7676,2,0,L|264:212,1,70,8|0,0:0|0:0,0:0:0:0:
368,216,7946,2,0,L|280:188,1,70,8|0,0:0|0:0,0:0:0:0:
232,112,8216,5,8,0:0:0:0:
92,48,8351,1,8,0:0:0:0:
36,108,8486,2,0,L|48:192,1,70,8|0,0:0|0:0,0:0:0:0:
140,300,8756,5,2,0:0:0:0:
224,304,8891,1,2,0:0:0:0:
100,256,9026,1,2,0:0:0:0:
288,340,9161,1,2,0:0:0:0:
396,368,9296,6,0,P|456:336|472:308,1,70,8|0,0:0|0:0,0:0:0:0:
460,212,9566,1,2,0:0:0:0:
284,332,9701,1,2,0:0:0:0:
316,232,9836,1,2,0:0:0:0:
328,208,9903,1,2,0:0:0:0:
340,184,9971,1,2,0:0:0:0:
352,160,10038,1,2,0:0:0:0:
364,132,10106,2,0,P|360:64|344:36,1,70,8|0,0:0|0:0,0:0:0:0:
216,36,10376,5,8,0:0:0:0:
88,80,10511,1,0,0:0:0:0:
204,116,10646,1,8,0:0:0:0:
48,192,10781,1,0,0:0:0:0:
156,364,10916,5,2,0:0:0:0:
128,356,11051,1,2,0:0:0:0:
192,352,11186,1,2,0:0:0:0:
68,340,11321,1,2,0:0:0:0:
284,332,11456,6,0,P|340:348|376:348,1,70,8|0,0:0|0:0,0:0:0:0:
464,344,11726,2,0,L|452:272,1,70,2|0,0:0|0:0,0:0:0:0:
320,132,11996,2,0,L|340:224,1,70,8|0,0:0|0:0,0:0:0:0:
484,104,12266,2,0,L|488:24,1,70,8|0,0:0|0:0,0:0:0:0:
284,28,12536,6,0,P|248:16|204:16,1,70,2|0,0:0|0:0,0:0:0:0:
24,88,12806,2,0,P|56:100|96:96,1,70,2|0,0:0|0:0,0:0:0:0:
344,204,13076,2,4,L|244:196,2,93.3333333333333
44,272,13616,6,0,L|108:340,1,70,8|0,0:0|0:0,0:0:0:0:
228,360,13886,1,0,0:0:0:0:
136,244,14021,1,0,0:0:0:0:
276,272,14156,6,0,P|308:300|360:312,1,70,2|0,0:0|0:0,0:0:0:0:
476,344,14426,2,0,P|460:304|440:280,1,70,2|0,0:0|0:0,0:0:0:0:
380,164,14696,2,4,L|404:68,2,93.3333333333333
236,120,15236,6,0,P|196:92|208:12,1,105,8|0,0:0|0:0,0:0:0:0:
184,60,15506,2,0,B|156:84|156:84|72:84,1,105,8|0,0:0|0:0,0:0:0:0:
28,180,15776,6,0,P|20:224|28:280,1,70,8|0,0:0|0:0,0:0:0:0:
128,348,16046,2,0,L|200:364,1,70,2|0,0:0|0:0,0:0:0:0:
196,288,16316,2,0,L|280:308,1,70,2|0,0:0|0:0,0:0:0:0:
268,228,16586,2,0,L|352:252,1,70,2|0,0:0|0:0,0:0:0:0:
460,252,16856,5,8,0:0:0:0:
488,128,16991,2,0,L|392:128,1,70,0|2,0:0|0:0,0:0:0:0:
460,252,17261,1,2,0:0:0:0:
388,56,17396,2,0,L|312:56,1,70,8|2,0:0|0:0,0:0:0:0:
228,108,17666,1,2,0:0:0:0:
140,56,17801,1,2,0:0:0:0:
24,168,17936,6,0,P|12:208|8:264,1,70,8|0,0:0|0:0,0:0:0:0:
72,344,18206,2,0,L|168:360,1,70,2|0,0:0|0:0,0:0:0:0:
136,280,18476,2,0,L|216:292,1,70,2|0,0:0|0:0,0:0:0:0:
204,212,18746,2,0,L|304:228,1,70,2|0,0:0|0:0,0:0:0:0:
436,256,19016,5,8,0:0:0:0:
460,104,19151,2,2,L|380:104,1,70
436,256,19421,1,8,0:0:0:0:
312,72,19556,2,2,L|236:72,1,70
136,32,19826,1,8,0:0:0:0:
48,80,19961,1,8,0:0:0:0:
56,236,20096,6,0,L|104:180,1,70,8|0,0:0|0:0,0:0:0:0:
20,320,20366,1,2,0:0:0:0:
124,304,20501,1,2,0:0:0:0:
220,344,20636,1,8,0:0:0:0:
220,344,20771,2,0,L|320:352,1,70,8|0,0:0|0:0,0:0:0:0:
408,320,21041,1,2,0:0:0:0:
296,180,21176,5,8,0:0:0:0:
192,112,21311,1,2,0:0:0:0:
192,112,21446,1,2,0:0:0:0:
296,180,21581,5,8,0:0:0:0:
292,48,21716,1,2,0:0:0:0:
292,48,21851,1,2,0:0:0:0:
296,180,21986,5,8,0:0:0:0:
400,112,22121,1,2,0:0:0:0:
400,112,22256,1,2,0:0:0:0:
296,180,22391,5,8,0:0:0:0:
400,252,22526,1,2,0:0:0:0:
400,252,22661,1,2,0:0:0:0:
296,180,22796,5,8,0:0:0:0:
192,252,22931,1,2,0:0:0:0:
192,252,23066,1,2,0:0:0:0:
48,80,23201,5,2,0:0:0:0:
104,180,23336,1,8,0:0:0:0:
104,180,23471,1,8,0:0:0:0:
24,264,23606,1,8,0:0:0:0:
24,264,23741,1,2,0:0:0:0:
132,344,23876,1,8,0:0:0:0:
136,312,24011,2,0,L|124:288,10,17.5,8|0|0|0|8|0|0|0|8|0|0,0:0|0:0|0:0|0:0|0:0|0:0|0:0|0:0|0:0|0:0|0:0,0:0:0:0:
208,344,24416,6,8,L|316:344,1,87.5
416,296,24686,1,2,0:0:0:0:
228,224,24821,1,2,0:0:0:0:
368,152,24956,2,0,P|400:120|408:68,1,87.5,8|0,0:0|0:0,0:0:0:0:
328,80,25226,2,0,L|296:80,4,21.875,8|0|0|0|0,0:0|0:0|0:0|0:0|0:0,0:0:0:0:
184,40,25496,6,2,L|104:40,2,43.75
0,148,25766,2,2,L|72:148,2,43.75
220,192,26036,1,2,0:0:0:0:
220,192,26103,1,2,0:0:0:0:
220,192,26171,1,2,0:0:0:0:
80,280,26306,1,8,0:0:0:0:
180,336,26441,1,8,0:0:0:0:
296,332,26576,6,0,L|384:348,1,87.5,8|0,0:0|0:0,0:0:0:0:
492,280,26846,1,2,0:0:0:0:
328,176,26981,1,2,0:0:0:0:
304,200,27116,2,0,P|264:176|240:128,1,87.5,8|0,0:0|0:0,0:0:0:0:
276,56,27386,1,2,0:0:0:0:
348,44,27521,1,2,0:0:0:0:
196,32,27656,6,0,P|156:8|168:72,1,131.25,8|0,0:0|0:0,0:0:0:0:
148,104,27926,1,2,0:0:0:0:
24,168,28061,1,2,0:0:0:0:
132,240,28196,1,8,0:0:0:0:
128,256,28263,1,2,0:0:0:0:
124,272,28331,1,8,0:0:0:0:
164,348,28466,5,2,0:0:0:0:
196,360,28533,1,2,0:0:0:0:
232,364,28601,1,2,0:0:0:0:
268,364,28668,1,2,0:0:0:0:
304,356,28736,6,0,P|360:348|408:324,1,87.5,8|0,0:0|0:0,0:0:0:0:
464,248,29006,1,2,0:0:0:0:
328,216,29141,1,2,0:0:0:0:
412,80,29276,5,8,0:0:0:0:
412,80,29411,1,8,0:0:0:0:
320,40,29546,1,2,0:0:0:0:
220,40,29681,1,2,0:0:0:0:
132,96,29816,6,0,P|88:84|112:144,1,131.25,8|0,0:0|0:0,0:0:0:0:
112,160,30086,2,0,B|88:204|88:204|88:288,1,131.25,8|0,0:0|0:0,0:0:0:0:
120,308,30356,1,2,0:0:0:0:
120,308,30491,1,8,0:0:0:0:
236,356,30626,1,2,0:0:0:0:
268,284,30761,1,8,0:0:0:0:
344,256,30896,6,0,P|420:272|456:264,1,87.5,8|0,0:0|0:0,0:0:0:0:
496,160,31166,1,2,0:0:0:0:
400,48,31301,1,2,0:0:0:0:
352,120,31436,2,0,P|316:88|312:48,1,87.5,8|0,0:0|0:0,0:0:0:0:
280,80,31706,2,0,L|188:80,1,87.5,8|0,0:0|0:0,0:0:0:0:
256,360,31976,5,8,0:0:0:0:
256,360,32246,1,8,0:0:0:0:
252,220,32516,5,8,0:0:0:0:
256,224,32606,1,8,0:0:0:0:
256,224,32696,1,8,0:0:0:0:
256,360,32876,1,2,0:0:0:0:
456,336,33056,6,0,P|480:276|480:220,1,87.5,8|0,0:0|0:0,0:0:0:0:
448,96,33326,1,2,0:0:0:0:
372,224,33461,1,2,0:0:0:0:
312,144,33596,2,0,L|232:180,1,87.5,8|0,0:0|0:0,0:0:0:0:
148,144,33866,1,2,0:0:0:0:
116,64,34001,1,2,0:0:0:0:
32,212,34136,6,0,P|12:256|32:344,1,131.25,8|0,0:0|0:0,0:0:0:0:
120,356,34406,2,0,L|144:368,6,21.875,8|0|0|0|8|0|0,0:0|0:0|0:0|0:0|0:0|0:0|0:0,0:0:0:0:
160,344,34676,1,2,0:0:0:0:
192,312,34743,1,2,0:0:0:0:
224,296,34811,2,0,L|260:336,1,43.75,8|0,0:0|0:0,0:0:0:0:
276,352,34946,1,2,0:0:0:0:
392,344,35081,1,2,0:0:0:0:
480,256,35216,6,0,P|500:208|496:168,1,87.5,8|0,0:0|0:0,0:0:0:0:
400,64,35486,1,2,0:0:0:0:
400,64,35621,1,2,0:0:0:0:
332,168,35756,1,8,0:0:0:0:
280,228,35891,1,8,0:0:0:0:
208,100,36026,1,8,0:0:0:0:
172,32,36161,1,2,0:0:0:0:
144,32,36296,6,0,P|104:56|64:60,1,87.5,8|0,0:0|0:0,0:0:0:0:
24,132,36566,1,2,0:0:0:0:
20,160,36633,1,2,0:0:0:0:
16,192,36701,1,2,0:0:0:0:
52,292,36836,1,8,0:0:0:0:
160,328,36971,1,8,0:0:0:0:
264,288,37106,1,8,0:0:0:0:
272,268,37173,2,0,L|296:264,4,21.875,8|0|0|0|0,0:0|0:0|0:0|0:0|0:0,0:0:0:0:
360,216,37376,6,0,L|488:216,1,87.5,4|0,0:0|0:0,0:0:0:0:
196,124,37646,2,0,P|172:88|136:56,1,87.5,8|0,0:0|0:0,0:0:0:0:
100,292,37916,6,0,L|-4:292,1,87.5,4|0,0:0|0:0,0:0:0:0:
284,328,38186,2,0,P|320:372|352:388,1,87.5,8|0,0:0|0:0,0:0:0:0:
196,124,38456,6,0,L|80:124,1,87.5,4|0,0:0|0:0,0:0:0:0:
396,68,38726,2,0,P|416:20|452:-4,1,87.5,8|0,0:0|0:0,0:0:0:0:
200,248,38996,5,2,0:0:0:0:
296,192,39131,1,2,0:0:0:0:
408,220,39266,2,0,L|432:236,6,21.875,8|0|0|0|8|0|0,0:0|0:0|0:0|0:0|0:0|0:0|0:0,0:0:0:0:
480,288,39536,6,0,B|444:312|444:312|364:312,1,87.5,8|0,0:0|0:0,0:0:0:0:
296,272,39806,1,2,0:0:0:0:
248,176,39941,1,2,0:0:0:0:
284,88,40076,2,0,L|196:60,1,87.5,8|0,0:0|0:0,0:0:0:0:
128,120,40346,2,0,P|120:180|132:220,1,87.5,8|0,0:0|0:0,0:0:0:0:
160,348,40616,6,0,P|120:376|36:344,1,131.25,8|0,0:0|0:0,0:0:0:0:
92,356,40886,2,0,B|104:308|104:308|104:216,1,131.25,8|0,0:0|0:0,0:0:0:0:
80,240,41156,1,8,0:0:0:0:
36,156,41291,2,0,L|12:176,2,21.875,2|0|0,0:0|0:0|0:0,0:0:0:0:
64,84,41426,2,0,L|80:68,6,21.875,8|0|0|0|8|0|0,0:0|0:0|0:0|0:0|0:0|0:0|0:0,0:0:0:0:
136,136,41696,6,0,L|232:136,1,87.5,8|0,0:0|0:0,0:0:0:0:
356,96,41966,1,2,0:0:0:0:
464,20,42101,1,2,0:0:0:0:
484,128,42236,2,0,L|496:176,1,43.75,8|0,0:0|0:0,0:0:0:0:
448,236,42371,2,0,L|424:196,1,43.75,8|0,0:0|0:0,0:0:0:0:
356,240,42506,1,8,0:0:0:0:
336,312,42641,1,2,0:0:0:0:
196,364,42776,6,0,P|152:336|80:356,1,131.25,8|0,0:0|0:0,0:0:0:0:
100,360,43046,2,0,P|68:308|68:272,1,87.5,8|0,0:0|0:0,0:0:0:0:
176,232,43316,2,0,L|208:248,4,21.875,8|0|2|0|8,0:0|0:0|0:0|0:0|0:0,0:0:0:0:
72,176,43586,1,2,0:0:0:0:
48,76,43721,1,2,0:0:0:0:
320,40,43856,6,0,L|404:72,1,87.5,8|0,0:0|0:0,0:0:0:0:
472,124,44126,2,0,P|424:152|368:144,1,87.5,8|0,0:0|0:0,0:0:0:0:
280,156,44396,1,8,0:0:0:0:
180,36,44531,1,2,0:0:0:0:
120,100,44666,1,2,0:0:0:0:
60,156,44801,1,8,0:0:0:0:
28,328,44936,5,4,0:0:0:0:
192,360,45071,1,2,0:0:0:0:
268,372,45206,1,2,0:0:0:0:
348,384,45341,1,4,0:0:0:0:
432,352,45476,5,2,0:0:0:0:
428,312,45566,1,8,0:0:0:0:
424,272,45656,1,8,0:0:0:0:
488,232,45746,1,2,0:0:0:0:
488,192,45836,1,8,0:0:0:0:
488,152,45926,1,8,0:0:0:0:
401,71,46016,6,0,L|309:59,1,87.5,8|0,0:0|0:0,0:0:0:0:
188,116,46286,1,2,0:0:0:0:
76,40,46421,1,2,0:0:0:0:
32,144,46556,1,8,0:0:0:0:
36,160,46623,1,2,0:0:0:0:
40,176,46691,1,8,0:0:0:0:
96,268,46826,1,2,0:0:0:0:
96,268,46961,1,2,0:0:0:0:
208,340,47096,6,0,B|232:384|232:384|268:344|336:352,1,131.25
316,324,47366,1,2,0:0:0:0:
472,148,47501,1,8,0:0:0:0:
448,244,47636,1,2,0:0:0:0:
384,156,47771,1,8,0:0:0:0:
392,124,47838,1,8,0:0:0:0:
408,92,47906,1,8,0:0:0:0:
496,64,48041,1,2,0:0:0:0:
320,32,48176,6,0,L|216:40,1,87.5,8|0,0:0|0:0,0:0:0:0:
88,72,48446,1,8,0:0:0:0:
192,160,48581,1,2,0:0:0:0:
92,292,48716,5,8,0:0:0:0:
92,292,48851,1,2,0:0:0:0:
364,296,48986,5,8,0:0:0:0:
364,296,49121,1,2,0:0:0:0:
128,372,49256,6,0,P|172:384|256:328,1,131.25,8|0,0:0|0:0,0:0:0:0:
245,347,49526,2,4,L|196:336,1,43.75
249,248,49796,1,8,0:0:0:0:
352,152,49931,1,2,0:0:0:0:
388,148,49998,1,2,0:0:0:0:
424,144,50066,2,0,L|404:104,2,43.75,8|0|8,0:0|0:0|0:0,0:0:0:0:
300,40,50336,6,0,L|188:60,1,87.5,8|0,0:0|0:0,0:0:0:0:
92,116,50606,1,2,0:0:0:0:
92,116,50741,1,8,0:0:0:0:
108,280,50876,5,2,0:0:0:0:
168,288,51011,1,2,0:0:0:0:
60,240,51146,1,2,0:0:0:0:
248,312,51281,1,2,0:0:0:0:
384,344,51416,6,0,L|424:356,6,21.875,8|0|0|0|8|0|0,0:0|0:0|0:0|0:0|0:0|0:0|0:0,0:0:0:0:
412,320,51686,1,8,0:0:0:0:
436,296,51753,1,0,0:0:0:0:
460,268,51821,1,8,0:0:0:0:
472,236,51888,1,0,0:0:0:0:
480,200,51956,1,2,0:0:0:0:
436,100,52091,6,2,L|448:64,2,21.875
416,112,52226,1,8,0:0:0:0:
392,120,52293,2,0,L|352:112,4,21.875,2|0|8|0|0,0:0|0:0|0:0|0:0|0:0,0:0:0:0:
352,200,52496,6,0,L|252:228,1,87.5,8|0,0:0|0:0,0:0:0:0:
128,192,52766,1,2,0:0:0:0:
264,40,52901,1,8,0:0:0:0:
88,32,53036,1,2,0:0:0:0:
60,64,53103,1,2,0:0:0:0:
40,104,53171,1,2,0:0:0:0:
28,144,53238,1,2,0:0:0:0:
20,188,53306,1,2,0:0:0:0:
16,232,53373,1,2,0:0:0:0:
24,276,53441,5,8,0:0:0:0:
300,336,53576,2,0,L|176:336,1,87.5,8|0,0:0|0:0,0:0:0:0:
368,276,53846,1,8,0:0:0:0:
396,276,53913,1,2,0:0:0:0:
424,276,53981,2,0,L|484:276,2,43.75,8|8|8,0:0|0:0|0:0,0:0:0:0:
392,120,54251,1,8,0:0:0:0:
288,48,54386,2,0,L|256:36,6,21.875,8|0|0|0|8|0|0,0:0|0:0|0:0|0:0|0:0|0:0|0:0,0:0:0:0:
248,136,54656,6,0,L|140:140,1,87.5,8|0,0:0|0:0,0:0:0:0:
368,276,54926,2,0,P|392:316|392:360,1,87.5,4|0,0:0|0:0,0:0:0:0:
172,360,55196,6,0,L|80:360,1,87.5,8|0,0:0|0:0,0:0:0:0:
236,260,55466,1,2,0:0:0:0:
236,260,55601,1,2,0:0:0:0:
56,168,55736,2,0,L|88:256,1,87.5,8|0,0:0|0:0,0:0:0:0:
148,40,56006,1,2,0:0:0:0:
148,40,56141,1,8,0:0:0:0:
272,48,56276,5,8,0:0:0:0:
280,56,56343,1,2,0:0:0:0:
288,64,56411,1,8,0:0:0:0:
296,72,56478,1,2,0:0:0:0:
304,84,56546,2,0,P|384:116|420:116,1,87.5,8|0,0:0|0:0,0:0:0:0:
480,208,56816,6,0,L|464:316,1,87.5,8|0,0:0|0:0,0:0:0:0:
356,348,57086,1,2,0:0:0:0:
304,280,57221,1,2,0:0:0:0:
120,352,57356,2,0,P|72:328|40:296,1,87.5,8|0,0:0|0:0,0:0:0:0:
80,188,57626,1,2,0:0:0:0:
80,188,57761,1,2,0:0:0:0:
116,40,57896,6,0,L|232:40,1,87.5,8|0,0:0|0:0,0:0:0:0:
476,40,58166,1,4,0:0:0:0:
400,140,58301,6,0,L|376:168,6,21.875,8|0|0|0|8|0|0,0:0|0:0|0:0|0:0|0:0|0:0|0:0,0:0:0:0:
464,188,58571,2,0,L|468:212,6,21.875,8|0|0|0|8|0|0,0:0|0:0|0:0|0:0|0:0|0:0|0:0,0:0:0:0:
388,232,58841,2,0,L|376:252,2,21.875,8|0|0,0:0|0:0|0:0,0:0:0:0:
388,232,58976,6,0,L|292:232,1,87.5,8|0,0:0|0:0,0:0:0:0:
176,288,59246,1,2,0:0:0:0:
116,192,59381,1,2,0:0:0:0:
200,116,59516,2,0,P|244:96|296:96,1,87.5,8|0,0:0|0:0,0:0:0:0:
264,176,59786,1,2,0:0:0:0:
64,292,59921,1,2,0:0:0:0:
156,376,60056,6,0,B|208:356|208:356|316:356,1,131.25,8|0,0:0|0:0,0:0:0:0:
304,320,60326,2,0,P|288:364|356:368,1,131.25,8|0,0:0|0:0,0:0:0:0:
432,340,60596,2,0,L|452:356,6,21.875,8|0|0|0|8|0|0,0:0|0:0|0:0|0:0|0:0|0:0|0:0,0:0:0:0:
452,260,60866,2,0,L|476:260,2,21.875,8|0|0,0:0|0:0|0:0,0:0:0:0:
480,220,61001,2,0,L|508:220,2,21.875,8|0|0,0:0|0:0|0:0,0:0:0:0:
444,156,61136,6,0,L|344:144,1,87.5,8|0,0:0|0:0,0:0:0:0:
268,56,61406,1,2,0:0:0:0:
192,120,61541,2,0,P|176:172|140:212,1,87.5,8|2,0:0|0:0,0:0:0:0:
56,232,61811,1,2,0:0:0:0:
172,364,61946,1,2,0:0:0:0:
172,364,62081,1,8,0:0:0:0:
308,324,62216,6,0,L|348:340,2,43.75,8|0|8,0:0|0:0|0:0,0:0:0:0:
400,284,62486,1,2,0:0:0:0:
480,240,62621,2,0,L|504:260,2,21.875,8|0|0,0:0|0:0|0:0,0:0:0:0:
468,216,62756,1,2,0:0:0:0:
464,192,62823,1,2,0:0:0:0:
468,164,62891,1,2,0:0:0:0:
476,140,62958,1,2,0:0:0:0:
496,124,63026,6,2,L|396:104,2,58.3333333333333
408,40,63296,6,0,L|316:48,1,87.5,8|0,0:0|0:0,0:0:0:0:
248,148,63566,1,2,0:0:0:0:
172,56,63701,1,2,0:0:0:0:
52,168,63836,5,8,0:0:0:0:
52,168,63971,1,8,0:0:0:0:
16,252,64106,2,0,L|12:296,1,43.75,8|0,0:0|0:0,0:0:0:0:
56,364,64241,2,0,L|76:324,1,43.75,8|0,0:0|0:0,0:0:0:0:
156,264,64376,2,0,P|152:320|200:380,1,131.25,8|0,0:0|0:0,0:0:0:0:
216,368,64646,5,8,0:0:0:0:
312,236,64781,1,2,0:0:0:0:
404,252,64916,1,8,0:0:0:0:
488,204,65051,1,2,0:0:0:0:
496,112,65186,1,8,0:0:0:0:
496,112,65321,1,8,0:0:0:0:
344,48,65456,6,0,L|248:32,1,87.5,8|0,0:0|0:0,0:0:0:0:
196,132,65726,2,0,P|140:124|104:96,1,87.5,8|0,0:0|0:0,0:0:0:0:
88,124,65996,1,8,0:0:0:0:
40,368,66131,1,2,0:0:0:0:
0,216,66266,1,8,0:0:0:0:
188,384,66401,1,2,0:0:0:0:
280,356,66536,2,0,L|304:372,6,21.875,8|0|0|0|8|0|0,0:0|0:0|0:0|0:0|0:0|0:0|0:0,0:0:0:0:
372,336,66806,2,0,L|408:352,6,21.875,8|0|0|0|8|0|0,0:0|0:0|0:0|0:0|0:0|0:0|0:0,0:0:0:0:
452,288,67076,6,0,L|536:336,1,87.5,8|0,0:0|0:0,0:0:0:0:
432,160,67346,1,2,0:0:0:0:
436,144,67413,1,2,0:0:0:0:
440,128,67481,1,2,0:0:0:0:
444,112,67548,1,2,0:0:0:0:
448,96,67616,6,0,L|360:92,1,87.5,8|0,0:0|0:0,0:0:0:0:
248,160,67886,1,2,0:0:0:0:
152,68,68021,1,2,0:0:0:0:
56,208,68156,2,0,L|88:120,1,87.5,8|0,0:0|0:0,0:0:0:0:
60,228,68426,1,2,0:0:0:0:
180,344,68561,1,8,0:0:0:0:
344,312,68696,6,0,P|400:288|420:252,1,87.5,8|0,0:0|0:0,0:0:0:0:
336,232,68966,1,2,0:0:0:0:
448,96,69101,1,8,0:0:0:0:
424,76,69168,2,0,L|392:72,6,21.875,2|0|0|0|0|0|8,0:0|0:0|0:0|0:0|0:0|0:0|0:0,0:0:0:0:
316,32,69506,1,2,0:0:0:0:
176,32,69641,1,2,0:0:0:0:
104,92,69776,6,0,L|88:184,1,87.5,8|0,0:0|0:0,0:0:0:0:
20,268,70046,1,8,0:0:0:0:
20,268,70181,1,2,0:0:0:0:
128,348,70316,5,2,0:0:0:0:
172,344,70451,1,2,0:0:0:0:
52,372,70586,1,2,0:0:0:0:
264,312,70721,2,0,L|300:304,2,21.875,8|0|0,0:0|0:0|0:0,0:0:0:0:
288,336,70856,6,0,L|384:348,1,87.5,8|0,0:0|0:0,0:0:0:0:
452,256,71126,1,2,0:0:0:0:
464,224,71193,1,2,0:0:0:0:
476,192,71261,1,2,0:0:0:0:
416,116,71396,1,8,0:0:0:0:
264,312,71531,1,2,0:0:0:0:
252,280,71598,1,2,0:0:0:0:
240,248,71666,5,8,0:0:0:0:
24,108,71801,1,8,0:0:0:0:
280,72,71936,6,0,L|376:72,1,87.5,8|0,0:0|0:0,0:0:0:0:
128,232,72206,2,0,P|104:296|76:312,1,87.5,4|0,0:0|0:0,0:0:0:0:
368,304,72476,6,0,L|464:304,1,87.5,8|0,0:0|0:0,0:0:0:0:
192,132,72746,2,0,P|176:92|136:56,1,87.5,4|0,0:0|0:0,0:0:0:0:
280,72,73016,1,8,0:0:0:0:
300,224,73151,1,2,0:0:0:0:
392,32,73286,1,8,0:0:0:0:
392,32,73421,1,2,0:0:0:0:
496,156,73556,5,8,0:0:0:0:
504,200,73623,1,0,0:0:0:0:
500,244,73691,1,8,0:0:0:0:
484,284,73758,1,0,0:0:0:0:
448,260,73826,5,2,0:0:0:0:
404,256,73893,1,0,0:0:0:0:
360,264,73961,1,2,0:0:0:0:
320,284,74028,1,0,0:0:0:0:
296,320,74096,6,0,L|200:336,1,87.5,8|0,0:0|0:0,0:0:0:0:
56,348,74366,1,2,0:0:0:0:
140,256,74501,1,2,0:0:0:0:
44,196,74636,1,2,0:0:0:0:
56,164,74703,1,0,0:0:0:0:
68,132,74771,1,2,0:0:0:0:
168,136,74906,1,8,0:0:0:0:
160,104,74973,1,0,0:0:0:0:
152,68,75041,1,8,0:0:0:0:
248,28,75176,6,0,P|292:48|380:28,1,131.25,8|0,0:0|0:0,0:0:0:0:
344,24,75446,2,0,P|372:64|408:12,1,131.25,8|0,0:0|0:0,0:0:0:0:
432,24,75716,5,8,0:0:0:0:
488,192,75851,2,0,L|512:220,6,21.875,8|0|0|0|8|0|0,0:0|0:0|0:0|0:0|0:0|0:0|0:0,0:0:0:0:
464,208,76121,2,0,L|452:240,2,21.875,8|0|0,0:0|0:0|0:0,0:0:0:0:
440,200,76256,6,0,L|392:276,1,87.5,8|0,0:0|0:0,0:0:0:0:
300,292,76526,1,2,0:0:0:0:
140,344,76661,1,2,0:0:0:0:
176,256,76796,1,8,0:0:0:0:
176,256,76931,1,8,0:0:0:0:
108,224,76998,6,0,L|84:228,4,21.875,0|0|8|0|0,0:0|0:0|0:0|0:0|0:0,0:0:0:0:
164,180,77201,2,0,L|188:176,2,21.875,8|0|0,0:0|0:0|0:0,0:0:0:0:
144,152,77336,1,2,0:0:0:0:
156,132,77426,1,8,0:0:0:0:
168,112,77516,1,8,0:0:0:0:
180,92,77606,6,0,P|224:96|192:44,1,131.25,8|0,0:0|0:0,0:0:0:0:
232,28,77876,2,0,L|264:52,6,21.875,8|0|0|0|8|0|0,0:0|0:0|0:0|0:0|0:0|0:0|0:0,0:0:0:0:
296,40,78146,2,0,L|320:52,2,21.875,8|0|0,0:0|0:0|0:0,0:0:0:0:
320,40,78281,2,0,L|356:52,2,21.875,8|0|0,0:0|0:0|0:0,0:0:0:0:
352,28,78416,6,0,L|432:76,1,87.5,8|0,0:0|0:0,0:0:0:0:
456,168,78686,1,2,0:0:0:0:
436,184,78753,1,2,0:0:0:0:
416,200,78821,1,2,0:0:0:0:
428,288,78956,2,0,P|464:328|464:368,1,87.5,8|0,0:0|0:0,0:0:0:0:
380,356,79226,1,8,0:0:0:0:
380,356,79361,1,8,0:0:0:0:
272,384,79496,5,8,0:0:0:0:
256,364,79563,1,0,0:0:0:0:
236,344,79631,1,8,0:0:0:0:
212,332,79698,1,0,0:0:0:0:
244,316,79766,5,2,0:0:0:0:
264,288,79833,1,0,0:0:0:0:
272,252,79901,1,2,0:0:0:0:
272,216,79968,1,0,0:0:0:0:
260,184,80036,6,0,P|212:236|176:240,1,87.5,8|0,0:0|0:0,0:0:0:0:
184,156,80306,1,8,0:0:0:0:
88,36,80441,1,2,0:0:0:0:
164,8,80576,6,0,L|252:28,1,87.5,8|0,0:0|0:0,0:0:0:0:
340,116,80846,1,2,0:0:0:0:
432,48,80981,1,2,0:0:0:0:
488,180,81116,1,8,0:0:0:0:
484,204,81183,1,8,0:0:0:0:
480,232,81251,1,2,0:0:0:0:
420,336,81386,1,8,0:0:0:0:
420,336,81521,1,8,0:0:0:0:
304,304,81656,6,0,L|212:336,1,87.5,8|0,0:0|0:0,0:0:0:0:
112,268,81926,1,2,0:0:0:0:
340,116,82061,1,2,0:0:0:0:
340,116,82196,1,2,0:0:0:0:
248,80,82331,2,0,L|200:80,1,43.75,8|0,0:0|0:0,0:0:0:0:
104,48,82466,2,0,L|168:48,1,43.75,8|0,0:0|0:0,0:0:0:0:
144,124,82601,2,0,L|196:124,1,43.75,8|0,0:0|0:0,0:0:0:0:
116,112,82736,6,0,L|72:204,1,87.5,8|0,0:0|0:0,0:0:0:0:
52,200,82938,1,2,0:0:0:0:
28,208,83006,2,2,L|8:260,2,43.75
72,328,83276,1,8,0:0:0:0:
328,384,83411,1,2,0:0:0:0:
176,240,83546,1,8,0:0:0:0:
468,232,83681,1,2,0:0:0:0:
456,208,83816,6,0,P|440:168|476:92,1,131.25,8|0,0:0|0:0,0:0:0:0:
464,124,84086,2,0,B|416:112|360:132|360:132|384:88,1,131.25,8|0,0:0|0:0,0:0:0:0:
400,40,84356,2,0,P|352:32|300:76,1,87.5,8|0,0:0|0:0,0:0:0:0:
232,92,84626,1,8,0:0:0:0:
204,92,84693,1,2,0:0:0:0:
180,84,84761,1,2,0:0:0:0:
156,72,84828,1,2,0:0:0:0:
136,56,84896,6,0,L|52:108,1,87.5,8|0,0:0|0:0,0:0:0:0:
20,200,85166,1,2,0:0:0:0:
144,188,85301,1,2,0:0:0:0:
96,288,85436,2,4,L|36:316,2,58.3333333333333
172,328,85706,2,4,L|232:304,2,58.3333333333333
288,352,85976,6,0,B|340:360|392:352|392:352|352:320,1,131.25,8|0,0:0|0:0,0:0:0:0:
356,312,86246,1,2,0:0:0:0:
368,288,86313,1,2,0:0:0:0:
388,272,86381,1,2,0:0:0:0:
412,264,86448,1,2,0:0:0:0:
440,264,86516,1,2,0:0:0:0:
484,184,86651,2,0,L|500:200,4,21.875,8|0|0|0|8,0:0|0:0|0:0|0:0|0:0,0:0:0:0:
444,72,86921,2,0,L|472:88,2,21.875,8|0|0,0:0|0:0|0:0,0:0:0:0:
384,128,87056,6,0,B|352:124|352:124|304:64,1,87.5,8|0,0:0|0:0,0:0:0:0:
220,44,87326,1,2,0:0:0:0:
168,160,87461,1,2,0:0:0:0:
100,64,87596,2,0,B|72:80|72:80|52:148,1,87.5,8|0,0:0|0:0,0:0:0:0:
4,280,87866,1,8,0:0:0:0:
16,304,87933,1,2,0:0:0:0:
36,324,88001,1,2,0:0:0:0:
60,336,88068,1,2,0:0:0:0:
88,340,88136,6,0,L|196:344,1,87.5,8|0,0:0|0:0,0:0:0:0:
284,344,88406,1,4,0:0:0:0:
408,52,88541,1,4,0:0:0:0:
480,264,88811,1,8,0:0:0:0:
224,280,89081,1,4,0:0:0:0:
136,156,89216,6,0,L|32:172,1,87.5,8|0,0:0|0:0,0:0:0:0:
364,124,89486,2,0,P|392:64|420:44,1,87.5,4|0,0:0|0:0,0:0:0:0:
480,264,89756,2,0,P|504:308|480:296,1,131.25,8|0,0:0|0:0,0:0:0:0:
468,316,90026,1,4,0:0:0:0:
224,280,90161,1,8,0:0:0:0:
204,304,90296,6,0,B|164:340|108:340|108:340|140:304,1,131.25,8|0,0:0|0:0,0:0:0:0:
128,304,90566,1,2,0:0:0:0:
20,276,90701,1,2,0:0:0:0:
244,212,90836,1,2,0:0:0:0:
24,140,90971,1,8,0:0:0:0:
24,140,91106,1,8,0:0:0:0:
424,40,91241,5,4,0:0:0:0:
36,88,91376,2,0,B|88:88|132:64|132:64|120:112,1,131.25,8|0,0:0|0:0,0:0:0:0:
120,120,91646,2,0,B|172:100|192:52|192:52|220:88,1,131.25,8|0,0:0|0:0,0:0:0:0:
232,88,91916,1,2,0:0:0:0:
380,96,92051,1,2,0:0:0:0:
208,136,92186,1,2,0:0:0:0:
408,144,92321,1,2,0:0:0:0:
384,272,92456,6,2,L|420:284,6,21.875
284,316,92726,2,2,L|312:324,6,21.875
200,252,92996,2,2,L|224:248,6,21.875
180,244,93266,1,8,0:0:0:0:
48,188,93401,2,4,L|80:192,2,21.875
64,168,93536,6,0,L|152:136,1,87.5,8|0,0:0|0:0,0:0:0:0:
272,164,93806,1,2,0:0:0:0:
264,56,93941,1,2,0:0:0:0:
376,92,94076,2,0,B|420:80|472:92|472:92|440:116,1,131.25
436,144,94346,2,0,L|480:160,2,43.75
488,248,94616,6,0,B|484:296|448:348|448:348|428:296,1,131.25
432,312,94886,2,0,L|348:336,1,87.5
240,308,95156,1,0,0:0:0:0:
208,316,95223,1,0,0:0:0:0:
172,324,95291,1,0,0:0:0:0:
60,284,95426,1,0,0:0:0:0:
100,176,95561,1,0,0:0:0:0:
204,72,95696,6,2,L|144:48,2,58.3333333333333
296,56,95966,1,8,0:0:0:0:
296,56,96101,1,2,0:0:0:0:
456,136,96303,1,2,0:0:0:0:
460,256,96472,1,8,0:0:0:0:
456,36,96641,1,2,0:0:0:0:
492,352,96843,5,2,0:0:0:0:
492,352,96978,1,2,0:0:0:0:
392,344,97113,1,2,0:0:0:0:
300,356,97248,1,8,0:0:0:0:
224,384,97316,6,0,L|184:400,3,43.75
216,368,97586,1,0,0:0:0:0:
200,348,97653,1,0,0:0:0:0:
184,328,97721,1,0,0:0:0:0:
164,312,97788,1,0,0:0:0:0:
140,308,97856,6,0,L|100:216,1,87.5,8|0,0:0|0:0,0:0:0:0:
16,148,98126,1,0,0:0:0:0:
168,136,98261,1,0,0:0:0:0:
336,40,98396,5,0,0:0:0:0:
476,304,98531,1,0,0:0:0:0:
492,88,98666,5,0,0:0:0:0:
344,316,98801,1,0,0:0:0:0:
476,304,98936,6,0,P|492:252|464:192,1,87.5
335,124,99206,2,0,P|327:64|335:40,1,87.5
492,88,99476,5,0,0:0:0:0:
335,124,99611,1,0,0:0:0:0:
484,220,99746,1,0,0:0:0:0:
332,36,99881,1,0,0:0:0:0:
24,40,100016,6,0,P|16:84|36:132,1,87.5
132,140,100286,1,0,0:0:0:0:
52,244,100421,1,0,0:0:0:0:
220,356,100556,5,0,0:0:0:0:
244,72,100691,1,0,0:0:0:0:
316,320,100826,5,0,0:0:0:0:
132,140,100961,1,0,0:0:0:0:
272,216,101096,2,0,B|324:208|356:228|356:228|408:224,1,131.25
464,184,101366,2,0,L|460:96,1,87.5
244,72,101636,1,0,0:0:0:0:
132,140,101771,2,0,L|124:112,4,21.875
32,336,102041,1,0,0:0:0:0:
140,376,102176,6,0,L|240:380,1,87.5
352,360,102446,1,0,0:0:0:0:
248,276,102581,1,0,0:0:0:0:
352,148,102716,2,0,L|388:248,1,87.5
444,24,102986,1,0,0:0:0:0:
132,140,103121,1,0,0:0:0:0:
132,140,103256,2,0,P|116:180|72:164,1,87.5
32,264,103526,5,0,0:0:0:0:
20,288,103593,1,0,0:0:0:0:
16,312,103661,1,0,0:0:0:0:
16,340,103728,1,0,0:0:0:0:
36,356,103796,2,0,L|92:376,1,43.75
152,324,103931,2,0,L|204:336,1,43.75
288,356,104066,1,0,0:0:0:0:
332,348,104133,1,0,0:0:0:0:
372,332,104201,1,0,0:0:0:0:
408,308,104268,1,0,0:0:0:0:
432,268,104336,6,0,L|404:160,1,87.5
428,76,104606,2,0,L|456:48,4,21.875
312,44,104876,1,0,0:0:0:0:
140,312,105011,1,0,0:0:0:0:
332,348,105146,5,0,0:0:0:0:
60,136,105281,2,0,L|36:128,2,21.875
60,136,105416,6,0,P|44:192|56:256,1,87.5
140,312,105686,2,0,L|152:352,4,21.875,8|0|0|0|8,0:0|0:0|0:0|0:0|0:0,0:0:0:0:
332,348,105956,1,8,0:0:0:0:
164,184,106091,1,8,0:0:0:0:
328,252,106226,2,0,L|352:256,4,21.875,8|0|0|0|8,0:0|0:0|0:0|0:0|0:0,0:0:0:0:
352,120,106496,6,0,P|400:108|444:72,1,87.5,8|0,0:0|0:0,0:0:0:0:
164,184,106766,1,0,0:0:0:0:
328,252,106901,1,0,0:0:0:0:
60,344,107036,2,0,P|8:336|0:288,1,87.5
220,92,107306,1,0,0:0:0:0:
220,92,107441,1,0,0:0:0:0:
390,54,107576,5,0,0:0:0:0:
410,70,107643,1,0,0:0:0:0:
430,86,107711,1,0,0:0:0:0:
440,280,107846,1,0,0:0:0:0:
192,140,107981,1,0,0:0:0:0:
430,86,108116,5,0,0:0:0:0:
184,260,108251,1,0,0:0:0:0:
456,208,108386,1,0,0:0:0:0:
60,124,108521,1,0,0:0:0:0:
300,332,108656,6,0,P|328:272|324:232,1,87.5
236,184,108926,1,0,0:0:0:0:
228,160,108993,1,0,0:0:0:0:
220,136,109061,1,0,0:0:0:0:
336,64,109196,1,0,0:0:0:0:
180,352,109331,1,0,0:0:0:0:
300,332,109466,5,0,0:0:0:0:
48,104,109601,1,0,0:0:0:0:
116,172,109736,2,0,L|108:220,1,43.75
32,328,109871,2,0,L|40:280,1,43.75
180,352,110006,1,0,0:0:0:0:
180,352,110141,1,0,0:0:0:0:
324,224,110276,5,8,0:0:0:0:
192,196,110411,1,0,0:0:0:0:
280,4,110546,1,8,0:0:0:0:
252,372,110681,1,0,0:0:0:0:
320,120,110816,6,0,P|348:76|420:64,1,87.5
184,88,111086,2,0,P|156:48|112:36,1,87.5
36,112,111356,1,0,0:0:0:0:
36,112,111491,1,0,0:0:0:0:
128,176,111626,2,0,L|112:224,1,43.75
28,272,111761,2,0,L|80:288,1,43.75
132,344,111896,6,0,P|188:360|264:344,1,131.25
348,332,112166,2,0,B|340:284|308:260|308:260|284:216,1,131.25
304,136,112436,2,0,L|320:108,4,21.875
348,332,112706,1,0,0:0:0:0:
424,52,112841,1,0,0:0:0:0:
500,172,112976,6,0,L|476:272,1,87.5
424,52,113246,2,0,P|416:96|388:148,1,87.5
56,56,113516,1,0,0:0:0:0:
112,168,113651,2,0,P|96:212|56:264,1,87.5
116,352,113921,1,2,0:0:0:0:
116,352,114056,1,0,0:0:0:0:
272,372,114191,5,0,0:0:0:0:
296,348,114258,1,0,0:0:0:0:
328,332,114326,1,0,0:0:0:0:
364,328,114393,1,0,0:0:0:0:
400,320,114461,1,0,0:0:0:0:
424,292,114528,1,0,0:0:0:0:
392,284,114596,5,0,0:0:0:0:
356,260,114663,1,0,0:0:0:0:
328,224,114731,1,0,0:0:0:0:
320,180,114798,1,0,0:0:0:0:
340,188,114866,5,0,0:0:0:0:
360,196,114933,1,0,0:0:0:0:
380,204,115001,1,0,0:0:0:0:
400,212,115068,1,0,0:0:0:0:
420,220,115136,6,0,L|464:112,1,87.5
344,32,115406,1,0,0:0:0:0:
360,344,115541,1,0,0:0:0:0:
112,168,115676,2,0,L|80:152,4,21.875
208,148,115946,1,0,0:0:0:0:
40,252,116081,1,0,0:0:0:0:
112,336,116216,6,0,P|156:336|176:372,1,87.5
208,344,116486,1,2,0:0:0:0:
316,28,116621,1,8,0:0:0:0:
152,248,116756,1,2,0:0:0:0:
388,88,116891,1,8,0:0:0:0:
144,148,117026,1,2,0:0:0:0:
392,184,117161,1,8,0:0:0:0:
392,184,117296,6,0,P|400:240|376:292,1,87.5,8|0,0:0|0:0,0:0:0:0:
464,344,117566,1,0,0:0:0:0:
316,220,117701,1,0,0:0:0:0:
220,368,117836,2,0,L|200:392,6,21.875
208,352,118106,1,0,0:0:0:0:
316,220,118241,1,0,0:0:0:0:
224,168,118376,6,0,L|104:176,1,87.5
60,128,118646,1,0,0:0:0:0:
60,128,118781,1,0,0:0:0:0:
248,32,118916,5,0,0:0:0:0:
392,24,119051,2,0,L|448:44,1,43.75
460,64,119186,1,0,0:0:0:0:
468,96,119253,1,0,0:0:0:0:
464,132,119321,1,0,0:0:0:0:
452,164,119388,1,0,0:0:0:0:
440,196,119456,6,0,B|420:224|420:224|424:288,1,87.5
360,344,119726,1,8,0:0:0:0:
248,32,119861,1,2,0:0:0:0:
208,116,119996,1,2,0:0:0:0:
132,160,120131,1,8,0:0:0:0:
360,344,120266,1,8,0:0:0:0:
208,116,120401,1,2,0:0:0:0:
148,268,120536,6,0,L|128:292,4,21.875
72,340,120806,2,0,L|24:380,3,58.3333333333333
84,228,121211,1,0,0:0:0:0:
88,192,121278,1,0,0:0:0:0:
88,156,121346,1,0,0:0:0:0:
84,120,121413,1,0,0:0:0:0:
80,84,121481,1,0,0:0:0:0:
256,44,121616,6,0,P|312:52|356:28,1,87.5
480,24,121886,1,0,0:0:0:0:
368,132,122021,1,0,0:0:0:0:
480,220,122156,5,0,0:0:0:0:
488,252,122223,1,0,0:0:0:0:
488,288,122291,1,0,0:0:0:0:
476,320,122358,1,0,0:0:0:0:
444,304,122426,5,0,0:0:0:0:
408,296,122493,1,0,0:0:0:0:
372,300,122561,1,0,0:0:0:0:
184,352,122696,2,0,P|128:328|104:296,1,87.5
192,180,122966,2,0,L|216:224,1,43.75,8|0,0:0|0:0,0:0:0:0:
92,184,123101,2,0,L|56:140,1,43.75,2|0,0:0|0:0,0:0:0:0:
80,72,123236,1,8,0:0:0:0:
208,32,123371,2,0,L|304:76,1,87.5,8|8,0:0|0:0,0:0:0:0:
372,68,123641,2,0,L|392:40,2,21.875,8|0|0,0:0|0:0|0:0,0:0:0:0:
408,144,123776,6,0,P|416:188|468:240,1,87.5,8|0,0:0|0:0,0:0:0:0:
92,184,124046,2,0,P|72:128|52:104,1,87.5,4|0,0:0|0:0,0:0:0:0:
262,319,124316,6,0,P|210:331|170:371,1,87.5,8|0,0:0|0:0,0:0:0:0:
208,32,124586,2,0,P|268:20|296:0,1,87.5,4|0,0:0|0:0,0:0:0:0:
105,265,124856,6,0,P|85:205|97:173,1,87.5,8|0,0:0|0:0,0:0:0:0:
408,144,125126,2,0,P|432:192|412:256,1,87.5,4|0,0:0|0:0,0:0:0:0:
232,184,125396,6,0,P|196:144|224:120,1,87.5,8|0,0:0|0:0,0:0:0:0:
312,148,125666,1,0,0:0:0:0:
116,76,125801,1,0,0:0:0:0:
116,76,125936,6,0,L|176:196,1,131.25,4|0,0:0|0:0,0:0:0:0:
382,258,126206,2,0,L|310:146,1,131.25,4|0,0:0|0:0,0:0:0:0:
296,180,126476,5,0,0:0:0:0:
276,224,126566,1,0,0:0:0:0:
256,268,126656,1,0,0:0:0:0:
208,348,126746,5,0,0:0:0:0:
160,348,126836,1,0,0:0:0:0:
112,348,126926,1,0,0:0:0:0:
32,300,127016,6,0,L|12:292,6,21.875
48,220,127286,2,0,L|16:204,4,21.875
120,176,127556,1,0,0:0:0:0:
352,20,127691,1,0,0:0:0:0:
328,168,127826,1,0,0:0:0:0:
328,168,127961,1,0,0:0:0:0:
416,280,128096,6,0,P|432:240|424:196,1,87.5
296,344,128366,2,0,L|200:344,1,87.5
72,304,128636,1,8,0:0:0:0:
112,208,128771,1,2,0:0:0:0:
48,132,128906,1,2,0:0:0:0:
240,32,129041,5,8,0:0:0:0:
192,136,129176,1,2,0:0:0:0:
256,232,129311,1,2,0:0:0:0:
428,344,129446,5,8,0:0:0:0:
488,252,129581,1,2,0:0:0:0:
416,164,129716,1,2,0:0:0:0:
192,136,129851,5,8,0:0:0:0:
100,228,129986,1,2,0:0:0:0:
232,252,130121,1,2,0:0:0:0:
416,164,130256,6,0,P|448:116|452:68,1,87.5,8|0,0:0|0:0,0:0:0:0:
487,280,130526,2,0,L|427:344,1,87.5,2|0,0:0|0:0,0:0:0:0:
212,344,130796,5,8,0:0:0:0:
116,212,130931,1,8,0:0:0:0:
32,348,131066,1,2,0:0:0:0:
176,272,131201,5,8,0:0:0:0:
252,120,131336,1,8,0:0:0:0:
64,136,131471,1,2,0:0:0:0:
232,200,131606,5,8,0:0:0:0:
272,36,131741,1,8,0:0:0:0:
396,144,131876,1,2,0:0:0:0:
252,284,132011,5,8,0:0:0:0:
116,212,132146,1,8,0:0:0:0:
368,212,132281,1,2,0:0:0:0:
460,112,132416,2,0,P|484:72|484:16,1,87.5,8|0,0:0|0:0,0:0:0:0:
272,36,132686,2,0,L|168:52,1,87.5,2|0,0:0|0:0,0:0:0:0:
64,136,132956,5,8,0:0:0:0:
208,188,133091,1,8,0:0:0:0:
52,248,133226,1,2,0:0:0:0:
224,296,133361,1,2,0:0:0:0:
208,188,133496,5,8,0:0:0:0:
268,20,133631,1,0,0:0:0:0:
224,296,133766,5,8,0:0:0:0:
380,176,133901,1,2,0:0:0:0:
356,352,134036,5,8,0:0:0:0:
208,188,134171,1,8,0:0:0:0:
420,292,134306,1,2,0:0:0:0:
132,248,134441,1,2,0:0:0:0:
40,168,134576,6,0,P|28:124|-16:88,1,87.5,8|0,0:0|0:0,0:0:0:0:
144,92,134846,2,0,L|180:-4,1,87.5,2|0,0:0|0:0,0:0:0:0:
288,84,135116,5,8,0:0:0:0:
380,288,135251,1,2,0:0:0:0:
376,44,135386,5,8,0:0:0:0:
296,252,135521,1,2,0:0:0:0:
468,132,135656,5,8,0:0:0:0:
208,104,135791,1,2,0:0:0:0:
416,196,135926,5,8,0:0:0:0:
176,256,136061,1,2,0:0:0:0:
176,256,136196,6,0,P|120:284|64:268,1,87.5,4|0,0:0|0:0,0:0:0:0:
112,208,136466,2,0,B|100:144|68:104|68:104|60:140,1,131.25,4|0,0:0|0:0,0:0:0:0:
32,192,136736,6,0,P|24:240|-4:288,1,87.5,8|0,0:0|0:0,0:0:0:0:
160,104,137006,2,0,L|204:24,1,87.5,2|0,0:0|0:0,0:0:0:0:
376,104,137276,5,8,0:0:0:0:
300,192,137411,1,2,0:0:0:0:
424,208,137546,1,2,0:0:0:0:
380,80,137681,5,8,0:0:0:0:
276,212,137816,1,2,0:0:0:0:
448,232,137951,1,2,0:0:0:0:
384,52,138086,5,8,0:0:0:0:
252,228,138221,1,2,0:0:0:0:
468,256,138356,1,2,0:0:0:0:
388,24,138491,5,8,0:0:0:0:
224,244,138626,1,2,0:0:0:0:
488,280,138761,1,2,0:0:0:0:
332,352,138896,6,0,P|280:368|240:352,1,87.5,8|0,0:0|0:0,0:0:0:0:
124,356,139166,2,2,L|40:320,1,87.5,2|0,0:0|0:0,0:0:0:0:
164,12,139436,5,8,0:0:0:0:
0,232,139571,1,8,0:0:0:0:
264,268,139706,1,2,0:0:0:0:
164,40,139841,5,8,0:0:0:0:
32,216,139976,1,8,0:0:0:0:
248,244,140111,1,2,0:0:0:0:
160,68,140246,5,8,0:0:0:0:
56,200,140381,1,8,0:0:0:0:
228,220,140516,1,2,0:0:0:0:
160,92,140651,5,8,0:0:0:0:
84,180,140786,1,8,0:0:0:0:
208,196,140921,1,2,0:0:0:0:
320,88,141056,6,0,P|352:52|368:12,1,87.5,8|0,0:0|0:0,0:0:0:0:
408,104,141326,1,8,0:0:0:0:
468,280,141461,1,8,0:0:0:0:
484,80,141596,5,8,0:0:0:0:
384,308,141731,1,2,0:0:0:0:
280,364,141866,1,8,0:0:0:0:
292,260,142001,1,2,0:0:0:0:
128,244,142136,5,8,0:0:0:0:
60,332,142271,1,8,0:0:0:0:
20,232,142406,1,2,0:0:0:0:
136,84,142541,5,8,0:0:0:0:
232,24,142676,1,8,0:0:0:0:
252,128,142811,1,2,0:0:0:0:
400,80,142946,6,0,P|408:36|392:-8,1,87.5,8|0,0:0|0:0,0:0:0:0:
472,164,143216,1,8,0:0:0:0:
380,352,143351,1,2,0:0:0:0:
512,244,143486,1,8,0:0:0:0:
320,156,143621,1,2,0:0:0:0:
360,332,143756,5,8,0:0:0:0:
204,328,143891,1,8,0:0:0:0:
96,232,144026,1,2,0:0:0:0:
212,208,144161,5,8,0:0:0:0:
16,100,144296,2,0,P|16:40|-4:8,1,87.5,8|0,0:0|0:0,0:0:0:0:
88,152,144566,1,8,0:0:0:0:
268,88,144701,1,2,0:0:0:0:
424,116,144836,2,4,L|432:92,16,21.875,4|4|4|4|4|4|4|4|4|4|4|4|4|4|4|4|4,2:1|2:1|2:1|2:1|2:1|2:1|2:1|2:1|2:1|2:1|2:1|2:1|2:1|2:1|2:1|2:1|2:1,2:1:0:0:
472,252,145585,6,0,P|460:312|408:352,1,87.5
296,316,145855,2,0,P|244:348|184:352,1,87.5
396,268,146125,1,0,0:0:0:0:
160,240,146260,1,0,0:0:0:0:
324,208,146395,1,0,0:0:0:0:
324,208,146530,1,0,0:0:0:0:
424,116,146665,6,0,P|440:60|432:20,1,87.5
312,60,146935,1,0,0:0:0:0:
88,32,147070,1,0,0:0:0:0:
160,104,147205,1,0,0:0:0:0:
160,104,147272,1,0,0:0:0:0:
160,104,147340,1,0,0:0:0:0:
64,120,147475,2,0,L|40:128,4,21.875
128,252,147745,6,0,P|88:320|48:340,1,87.5
220,364,148015,1,0,0:0:0:0:
352,328,148150,1,0,0:0:0:0:
276,268,148285,1,0,0:0:0:0:
276,268,148352,1,0,0:0:0:0:
276,268,148420,1,0,0:0:0:0:
472,324,148555,1,0,0:0:0:0:
376,48,148690,1,0,0:0:0:0:
376,48,148825,6,0,P|316:68|268:52,1,87.5
64,120,149095,1,0,0:0:0:0:
136,188,149230,5,0,0:0:0:0:
108,212,149297,1,0,0:0:0:0:
140,228,149365,5,0,0:0:0:0:
168,252,149432,1,0,0:0:0:0:
188,280,149500,1,0,0:0:0:0:
204,312,149567,1,0,0:0:0:0:
208,348,149635,2,0,L|300:308,1,58.3333333333333
336,348,149815,1,0,0:0:0:0:
400,300,149905,6,0,P|436:252|444:192,1,116.666666666667
336,24,150175,1,0,0:0:0:0:
368,220,150310,1,0,0:0:0:0:
276,88,150445,5,0,0:0:0:0:
140,228,150580,1,0,0:0:0:0:
96,44,150715,1,0,0:0:0:0:
96,44,150850,1,0,0:0:0:0:
44,312,150985,6,0,P|112:344|156:328,1,87.5,8|0,0:0|0:0,0:0:0:0:
228,136,151255,1,2,0:0:0:0:
272,364,151390,1,2,0:0:0:0:
368,220,151525,5,8,0:0:0:0:
472,340,151660,1,8,0:0:0:0:
480,188,151795,1,8,0:0:0:0:
384,76,151930,1,2,0:0:0:0:
84,52,152065,6,0,P|48:100|56:152,1,87.5,8|0,0:0|0:0,0:0:0:0:
121,342,152335,1,0,0:0:0:0:
228,136,152470,1,0,0:0:0:0:
260,248,152605,2,0,B|276:292|332:344|332:344|333:333,1,131.25
388,212,152875,2,0,B|389:201|389:201|445:253|461:297,1,131.25
472,264,153145,5,2,0:0:0:0:
480,232,153212,1,2,0:0:0:0:
488,196,153280,1,2,0:0:0:0:
384,44,153415,1,8,0:0:0:0:
228,136,153550,1,2,0:0:0:0:
92,196,153685,6,0,P|56:248|-32:284,1,131.25
140,272,153955,2,0,P|152:328|216:372,1,131.25
256,218,154225,6,0,L|220:114,1,87.5
344,40,154495,1,0,0:0:0:0:
436,88,154630,1,0,0:0:0:0:
304,340,154765,2,0,P|368:356|396:352,1,87.5
460,272,155035,1,0,0:0:0:0:
460,272,155102,1,0,0:0:0:0:
460,272,155170,1,0,0:0:0:0:
336,188,155305,6,0,L|320:152,4,21.875
256,304,155575,2,0,L|236:264,1,43.75
136,240,155710,2,0,L|156:288,1,43.75
100,340,155845,2,0,L|84:368,4,21.875
32,284,156115,1,0,0:0:0:0:
344,40,156250,1,0,0:0:0:0:
416,153,156385,6,0,L|304:201,1,87.5
472,304,156655,1,8,0:0:0:0:
344,40,156790,1,2,0:0:0:0:
180,76,156925,1,8,0:0:0:0:
64,192,157060,1,8,0:0:0:0:
36,52,157195,1,2,0:0:0:0:
36,52,157330,2,0,L|80:32,1,43.75,2|0,0:0|0:0,0:0:0:0:
108,104,157465,6,0,P|92:152|40:180,1,87.5,8|0,0:0|0:0,0:0:0:0:
16,284,157735,1,2,0:0:0:0:
48,300,157802,1,2,0:0:0:0:
80,316,157870,1,2,0:0:0:0:
232,344,158005,1,8,0:0:0:0:
384,304,158140,1,8,0:0:0:0:
464,180,158275,2,0,L|504:200,1,43.75,8|0,0:0|0:0,0:0:0:0:
480,96,158410,2,0,L|428:112,1,43.75
340,84,158545,6,0,L|220:96,1,87.5,8|0,0:0|0:0,0:0:0:0:
328,176,158815,1,8,0:0:0:0:
384,304,158950,2,0,L|272:316,1,105.000004005432,2|8,0:0|0:0,0:0:0:0:
112,376,159220,1,2,0:0:0:0:
112,376,159287,1,2,0:0:0:0:
112,376,159355,2,0,P|64:336|56:292,1,87.5,8|0,0:0|0:0,0:0:0:0:
48,84,159625,6,0,P|72:128|72:176,1,87.5,8|8,0:0|0:0,0:0:0:0:
148,64,159895,1,8,0:0:0:0:
288,36,160030,1,8,0:0:0:0:
248,168,160165,1,2,0:0:0:0:
248,168,160232,1,2,0:0:0:0:
248,168,160300,1,2,0:0:0:0:
288,36,160435,1,8,0:0:0:0:
408,224,160570,1,0,0:0:0:0:
232,368,160705,6,0,L|112:384,1,87.5,8|0,0:0|0:0,0:0:0:0:
16,308,160975,2,0,L|0:260,1,43.75
88,264,161110,2,0,L|100:316,1,43.75
68,240,161245,1,0,0:0:0:0:
48,212,161312,1,0,0:0:0:0:
40,180,161380,1,0,0:0:0:0:
40,144,161447,1,0,0:0:0:0:
56,112,161515,5,8,0:0:0:0:
288,36,161650,1,4,0:0:0:0:
224,176,161785,5,8,0:0:0:0:
432,292,161920,1,4,0:0:0:0:
316,112,162055,5,8,0:0:0:0:
168,332,162190,1,4,0:0:0:0:
296,352,162325,2,0,L|356:364,1,43.75,8|0,0:0|0:0,0:0:0:0:
432,292,162460,2,0,L|488:304,1,43.75,8|0,0:0|0:0,0:0:0:0:
436,216,162595,1,2,0:0:0:0:
396,184,162662,1,2,0:0:0:0:
356,148,162730,1,2,0:0:0:0:
316,112,162797,1,2,0:0:0:0:
276,76,162865,6,0,L|156:112,1,87.5,8|0,0:0|0:0,0:0:0:0:
160,208,163135,2,0,P|84:244|60:240,1,87.5
156,340,163405,1,0,0:0:0:0:
16,104,163540,1,0,0:0:0:0:
316,112,163675,1,0,0:0:0:0:
316,112,163810,1,0,0:0:0:0:
416,268,163945,5,0,0:0:0:0:
436,296,164012,1,0,0:0:0:0:
456,324,164080,1,0,0:0:0:0:
316,112,164215,1,0,0:0:0:0:
156,340,164350,1,0,0:0:0:0:
212,256,164485,5,0,0:0:0:0:
200,224,164552,1,0,0:0:0:0:
180,196,164620,1,0,0:0:0:0:
152,180,164687,1,0,0:0:0:0:
156,144,164755,5,0,0:0:0:0:
168,112,164822,1,0,0:0:0:0:
188,84,164890,1,0,0:0:0:0:
216,64,164957,1,0,0:0:0:0:
248,48,165025,6,0,L|344:28,1,87.5
456,108,165295,1,0,0:0:0:0:
156,144,165430,1,0,0:0:0:0:
252,192,165565,1,0,0:0:0:0:
280,212,165632,1,0,0:0:0:0:
312,232,165700,1,0,0:0:0:0:
392,304,165835,2,0,L|432:288,1,43.75
344,364,165970,2,0,L|316:324,1,43.75
288,312,166105,5,0,0:0:0:0:
256,304,166172,1,0,0:0:0:0:
220,300,166240,1,0,0:0:0:0:
184,304,166307,1,0,0:0:0:0:
152,316,166375,5,0,0:0:0:0:
216,64,166510,1,0,0:0:0:0:
296,124,166645,2,0,L|240:144,1,43.75
80,168,166780,2,0,L|140:160,1,43.75
216,64,166915,2,0,L|280:52,1,43.75
156,232,167050,2,0,L|88:244,1,43.75
44,340,167185,6,0,L|148:360,1,105.000004005432,8|0,0:0|0:0,0:0:0:0:
448,288,167455,2,0,L|344:272,1,105.000004005432,4|0,0:0|0:0,0:0:0:0:
18,151,167725,6,0,L|130:163,1,105.000004005432,8|0,0:0|0:0,0:0:0:0:
476,72,167995,2,0,L|356:56,1,105.000004005432,4|0,0:0|0:0,0:0:0:0:
255,327,168265,6,0,L|351:267,1,105.000004005432,8|0,0:0|0:0,0:0:0:0:
236,32,168535,2,0,L|136:92,1,105.000004005432,4|0,0:0|0:0,0:0:0:0:
18,151,168805,5,2,0:0:0:0:
44,200,168895,1,2,0:0:0:0:
24,252,168985,1,2,0:0:0:0:
64,292,169075,5,8,0:0:0:0:
108,328,169165,1,8,0:0:0:0:
160,308,169255,1,8,0:0:0:0:
200,332,169345,6,0,L|236:372,2,43.75,8|0|0,0:0|0:0|0:0,0:0:0:0:
344,271,169615,1,2,0:0:0:0:
344,271,169682,1,2,0:0:0:0:
344,271,169750,1,2,0:0:0:0:
440,176,169885,2,0,L|488:72,1,87.5,8|0,0:0|0:0,0:0:0:0:
236,32,170155,2,0,L|188:128,1,87.5,8|0,0:0|0:0,0:0:0:0:
344,271,170425,5,8,0:0:0:0:
64,292,170560,1,2,0:0:0:0:
200,332,170695,1,8,0:0:0:0:
236,32,170830,1,2,0:0:0:0:
68,72,170965,1,8,0:0:0:0:
56,104,171032,1,2,0:0:0:0:
44,136,171100,1,2,0:0:0:0:
128,212,171235,1,8,0:0:0:0:
152,236,171302,1,2,0:0:0:0:
180,260,171370,1,2,0:0:0:0:
204,284,171437,1,2,0:0:0:0:
232,308,171505,6,0,L|352:328,1,87.5,8|0,0:0|0:0,0:0:0:0:
496,200,171775,2,0,L|372:192,1,87.5,8|0,0:0|0:0,0:0:0:0:
328,68,172045,5,4,0:0:0:0:
276,92,172135,1,4,0:0:0:0:
220,72,172225,1,4,0:0:0:0:
144,140,172315,5,2,0:0:0:0:
92,112,172405,1,2,0:0:0:0:
40,140,172495,1,2,0:0:0:0:
16,192,172585,2,0,P|8:248|20:288,1,87.5
152,360,172855,1,0,0:0:0:0:
152,360,172922,1,0,0:0:0:0:
152,360,172990,1,0,0:0:0:0:
324,356,173125,5,0,0:0:0:0:
300,332,173192,1,0,0:0:0:0:
340,320,173260,5,0,0:0:0:0:
380,304,173327,1,0,0:0:0:0:
340,272,173395,5,0,0:0:0:0:
324,224,173462,1,0,0:0:0:0:
328,172,173530,1,0,0:0:0:0:
356,128,173597,1,0,0:0:0:0:
392,92,173665,6,0,L|492:68,1,87.5
280,56,173935,1,0,0:0:0:0:
16,192,174070,1,0,0:0:0:0:
72,368,174205,2,0,P|92:312|92:264,1,87.5
16,192,174475,2,0,L|-8:148,1,43.75
108,128,174610,2,0,L|140:172,1,43.75
116,108,174745,6,0,P|84:72|72:28,1,87.5
272,52,175015,2,0,L|228:92,1,43.75
392,112,175150,2,0,L|432:76,1,43.75
352,28,175285,1,0,0:0:0:0:
448,352,175420,1,0,0:0:0:0:
352,328,175555,2,0,L|324:352,6,21.875
252,312,175825,6,0,L|152:328,1,87.5,8|0,0:0|0:0,0:0:0:0:
16,192,176095,1,2,0:0:0:0:
360,32,176230,1,2,0:0:0:0:
272,84,176365,2,0,L|168:56,1,87.5,8|0,0:0|0:0,0:0:0:0:
88,92,176635,5,8,0:0:0:0:
252,312,176770,1,0,0:0:0:0:
188,168,176905,5,8,0:0:0:0:
84,344,177040,1,0,0:0:0:0:
364,224,177175,1,8,0:0:0:0:
275,18,177310,2,0,P|339:34|395:18,1,87.5,8|0,0:0|0:0,0:0:0:0:
440,108,177580,2,0,L|392:136,1,43.75,2|0,0:0|0:0,0:0:0:0:
480,236,177715,2,0,L|448:192,1,43.75,2|0,0:0|0:0,0:0:0:0:
436,312,177850,2,0,L|384:336,1,43.75,2|0,0:0|0:0,0:0:0:0:
320,304,177985,6,0,L|212:344,1,87.5,8|0,0:0|0:0,0:0:0:0:
84,344,178255,1,0,0:0:0:0:
92,312,178322,1,0,0:0:0:0:
100,276,178390,1,0,0:0:0:0:
48,160,178525,2,0,L|16:124,1,43.75
136,136,178660,2,0,L|184:188,1,43.75
248,24,178795,2,0,L|196:56,1,43.75
328,76,178930,2,0,L|380:44,1,43.75
400,60,179065,5,0,0:0:0:0:
428,80,179132,1,0,0:0:0:0:
452,104,179200,1,0,0:0:0:0:
468,136,179267,1,0,0:0:0:0:
436,148,179335,5,0,0:0:0:0:
408,168,179402,1,0,0:0:0:0:
384,192,179470,1,0,0:0:0:0:
368,224,179537,1,0,0:0:0:0:
348,268,179605,5,2,0:0:0:0:
292,300,179695,1,2,0:0:0:0:
232,276,179785,1,2,0:0:0:0:
152,336,179875,5,0,0:0:0:0:
92,312,179965,1,0,0:0:0:0:
32,336,180055,1,0,0:0:0:0:
16,252,180145,5,0,0:0:0:0:
16,216,180235,1,0,0:0:0:0:
16,176,180316,2,0,L|36:80,1,87.5
184,32,180586,1,0,0:0:0:0:
136,196,180721,1,0,0:0:0:0:
224,148,180856,2,0,L|252:120,6,21.875
260,232,181126,2,0,L|236:248,6,21.875
336,256,181396,6,0,P|352:296|392:336,1,87.5
508,232,181666,1,0,0:0:0:0:
392,136,181801,1,0,0:0:0:0:
500,28,181936,1,0,0:0:0:0:
500,28,182003,1,0,0:0:0:0:
500,28,182071,1,0,0:0:0:0:
392,136,182206,1,0,0:0:0:0:
184,32,182341,1,0,0:0:0:0:
16,176,182476,6,0,L|48:272,1,87.5
200,308,182746,1,0,0:0:0:0:
36,96,182881,1,0,0:0:0:0:
208,136,183016,1,0,0:0:0:0:
232,160,183083,1,0,0:0:0:0:
260,184,183151,1,0,0:0:0:0:
200,308,183286,1,0,0:0:0:0:
272,32,183421,1,0,0:0:0:0:
272,32,183556,6,0,P|328:52|396:44,1,87.5
428,136,183826,1,0,0:0:0:0:
200,308,183961,1,0,0:0:0:0:
324,288,184096,5,0,0:0:0:0:
68,180,184231,1,0,0:0:0:0:
272,32,184366,1,0,0:0:0:0:
276,172,184501,1,0,0:0:0:0:
200,308,184636,6,0,L|108:336,1,87.5
324,288,184906,2,0,P|376:300|424:292,1,87.5
456,180,185176,1,0,0:0:0:0:
464,148,185243,1,0,0:0:0:0:
472,112,185311,1,0,0:0:0:0:
408,48,185446,1,0,0:0:0:0:
68,180,185581,1,0,0:0:0:0:
68,180,185716,6,0,L|172:204,1,87.5
212,288,185986,1,0,0:0:0:0:
472,204,186121,1,0,0:0:0:0:
244,212,186256,5,0,0:0:0:0:
472,112,186391,1,0,0:0:0:0:
476,376,186526,1,0,0:0:0:0:
392,272,186661,1,0,0:0:0:0:
472,112,186796,6,0,L|376:76,1,87.5
240,88,187066,2,0,L|268:136,1,43.75
148,76,187201,2,0,L|120:32,1,43.75
104,184,187336,2,0,P|88:228|48:264,1,87.5
196,280,187606,2,0,P|204:344|232:376,1,87.5
320,324,187876,5,0,0:0:0:0:
148,76,188011,1,0,0:0:0:0:
396,192,188146,5,0,0:0:0:0:
60,256,188281,1,0,0:0:0:0:
148,76,188416,6,0,P|200:56|236:16,1,87.5
396,12,188686,1,0,0:0:0:0:
416,40,188753,1,0,0:0:0:0:
428,72,188821,1,0,0:0:0:0:
432,108,188888,1,0,0:0:0:0:
428,144,188956,6,0,L|492:240,1,87.5
360,280,189226,2,0,L|416:376,1,87.5
200,348,189496,1,0,0:0:0:0:
200,348,189563,1,0,0:0:0:0:
200,348,189631,1,0,0:0:0:0:
60,256,189766,2,0,L|112:172,1,87.5
88,108,190036,6,0,P|136:124|236:108,1,131.25
320,140,190306,2,0,L|300:80,1,43.75
360,24,190441,2,0,L|380:80,1,43.75
440,104,190576,2,0,L|460:156,1,43.75
424,240,190711,2,0,L|472:228,1,43.75
356,184,190846,2,0,P|336:228|344:280,1,87.5
196,280,191116,6,0,L|76:296,1,87.5
8,136,191386,1,0,0:0:0:0:
239,69,191521,1,0,0:0:0:0:
338,266,191656,5,0,0:0:0:0:
96,152,191791,1,0,0:0:0:0:
356,184,191926,5,0,0:0:0:0:
156,364,192061,1,0,0:0:0:0:
96,152,192196,2,0,L|44:72,1,87.5
239,69,192466,2,0,L|203:113,1,43.75,8|0,0:0|0:0,0:0:0:0:
339,61,192601,2,8,L|375:25,1,43.75
412,112,192736,1,8,0:0:0:0:
109,291,192871,1,8,0:0:0:0:
192,344,193006,2,0,L|208:372,4,21.875,8|0|0|0|8,0:0|0:0|0:0|0:0|0:0,0:0:0:0:
400,360,193276,6,0,P|444:320|456:268,1,87.5,8|0,0:0|0:0,0:0:0:0:
412,112,193546,1,8,0:0:0:0:
109,291,193681,1,4,0:0:0:0:
153,89,193816,2,0,P|109:125|89:185,1,87.5,8|0,0:0|0:0,0:0:0:0:
400,360,194086,5,8,0:0:0:0:
240,44,194221,1,4,0:0:0:0:
412,112,194356,2,0,P|404:160|368:204,1,87.5,8|0,0:0|0:0,0:0:0:0:
40,360,194626,5,8,0:0:0:0:
84,264,194761,2,0,P|64:228|56:172,1,87.5,8|0,0:0|0:0,0:0:0:0:
192,344,195031,1,8,0:0:0:0:
240,44,195166,1,4,0:0:0:0:
480,240,195301,1,8,0:0:0:0:
304,200,195436,6,0,L|204:232,1,87.5,8|0,0:0|0:0,0:0:0:0:
55,182,195706,1,8,0:0:0:0:
39,150,195773,1,0,0:0:0:0:
23,118,195841,1,0,0:0:0:0:
144,80,195976,1,8,0:0:0:0:
172,60,196043,1,0,0:0:0:0:
204,48,196111,1,0,0:0:0:0:
240,44,196178,1,0,0:0:0:0:
276,52,196246,6,8,L|328:88,1,43.75
448,112,196381,2,8,L|408:84,1,43.75
372,156,196516,5,8,0:0:0:0:
20,364,196651,1,8,0:0:0:0:
352,300,196786,5,8,0:0:0:0:
76,32,196921,1,8,0:0:0:0:
32,260,197056,5,8,0:0:0:0:
76,268,197123,1,0,0:0:0:0:
116,248,197191,1,8,0:0:0:0:
140,212,197258,1,0,0:0:0:0:
160,172,197326,1,8,0:0:0:0:
176,132,197393,1,0,0:0:0:0:
196,92,197461,1,8,0:0:0:0:
216,52,197528,1,0,0:0:0:0:
312,52,197596,5,8,0:0:0:0:
312,52,197866,1,0,0:0:0:0:
396,112,198136,5,0,0:0:0:0:
396,112,198271,1,2,0:0:0:0:
396,112,198406,1,2,0:0:0:0:
440,208,198676,5,0,0:0:0:0:
432,224,198946,1,0,0:0:0:0:
376,256,199036,1,0,0:0:0:0:
320,288,199126,1,0,0:0:0:0:
264,320,199216,5,0,0:0:0:0:
348,24,199351,1,0,0:0:0:0:
268,96,199486,1,0,0:0:0:0:
216,116,199553,1,0,0:0:0:0:
164,136,199621,1,0,0:0:0:0:
112,152,199688,1,0,0:0:0:0:
56,168,199756,6,0,L|36:288,1,87.5
164,364,200026,1,0,0:0:0:0:
116,48,200161,1,0,0:0:0:0:
216,116,200296,1,0,0:0:0:0:
268,128,200363,1,0,0:0:0:0:
320,136,200431,1,0,0:0:0:0:
436,80,200566,1,0,0:0:0:0:
436,80,200701,1,0,0:0:0:0:
496,264,200836,6,0,P|468:332|424:356,1,87.5
256,348,201106,2,0,L|320:340,1,43.75
344,244,201241,2,0,L|280:252,1,43.75
144,288,201376,2,0,L|112:240,1,43.75
164,136,201511,2,0,L|196:176,1,43.75
280,160,201646,1,0,0:0:0:0:
458,339,201781,1,0,0:0:0:0:
464,196,201916,6,0,P|456:152|472:76,1,87.5
504,16,202186,2,0,L|456:24,1,43.75
368,96,202321,2,0,L|420:92,1,43.75
328,64,202456,1,0,0:0:0:0:
276,60,202523,1,0,0:0:0:0:
224,56,202591,1,0,0:0:0:0:
256,348,202726,1,0,0:0:0:0:
192,252,202861,5,0,0:0:0:0:
16,352,202996,2,0,P|-8:308|-4:264,1,87.5
256,348,203266,1,0,0:0:0:0:
24,80,203401,1,0,0:0:0:0:
140,124,203581,2,0,L|200:128,1,58.3333333333333
328,64,203716,2,0,L|392:72,1,58.3333333333333
424,92,203873,5,0,0:0:0:0:
452,124,203941,1,0,0:0:0:0:
468,164,204008,1,0,0:0:0:0:
476,208,204076,6,0,L|448:304,1,87.5
256,348,204346,1,0,0:0:0:0:
224,56,204481,1,0,0:0:0:0:
284,216,204616,5,0,0:0:0:0:
32,152,204751,1,0,0:0:0:0:
408,28,204886,1,0,0:0:0:0:
284,216,205021,1,0,0:0:0:0:
12,28,205156,5,0,0:0:0:0:
116,368,205291,1,0,0:0:0:0:
140,248,205426,1,0,0:0:0:0:
152,196,205493,1,0,0:0:0:0:
160,144,205561,1,0,0:0:0:0:
224,56,205696,5,0,0:0:0:0:
396,360,205831,1,0,0:0:0:0:
424,92,205966,5,0,0:0:0:0:
32,184,206101,1,0,0:0:0:0:
140,248,206236,6,0,L|216:308,1,87.5
328,256,206506,2,0,L|292:296,1,43.75
212,176,206641,2,0,L|260:216,1,43.75
244,152,206776,5,0,0:0:0:0:
220,108,206843,1,0,0:0:0:0:
184,68,206911,1,0,0:0:0:0:
136,48,206978,1,0,0:0:0:0:
84,44,207046,2,0,P|56:116|60:136,1,87.5
16,252,207316,5,0,0:0:0:0:
396,360,207451,1,0,0:0:0:0:
296,232,207586,2,0,L|348:248,1,43.75
404,132,207721,2,0,L|396:192,1,43.75
456,56,207856,2,0,L|516:60,1,43.75
380,24,207991,2,0,L|360:12,2,21.875
296,60,208126,2,0,L|264:40,4,21.875
220,108,208396,6,0,L|136:76,1,87.5
24,192,208666,1,0,0:0:0:0:
24,192,208801,1,0,0:0:0:0:
120,296,208936,1,0,0:0:0:0:
172,284,209003,1,0,0:0:0:0:
224,288,209071,1,0,0:0:0:0:
272,308,209138,1,0,0:0:0:0:
360,348,209206,5,0,0:0:0:0:
404,320,209273,1,0,0:0:0:0:
436,280,209341,1,0,0:0:0:0:
448,228,209408,1,0,0:0:0:0:
432,176,209476,6,0,P|412:132|416:88,1,87.5
280,60,209746,5,0,0:0:0:0:
236,84,209813,1,0,0:0:0:0:
184,92,209881,1,0,0:0:0:0:
132,84,209948,1,0,0:0:0:0:
64,24,210016,5,0,0:0:0:0:
36,68,210083,1,0,0:0:0:0:
24,120,210151,1,0,0:0:0:0:
32,172,210218,1,0,0:0:0:0:
128,208,210286,5,0,0:0:0:0:
148,256,210353,1,0,0:0:0:0:
140,308,210421,1,0,0:0:0:0:
108,348,210488,1,0,0:0:0:0:
160,336,210556,6,0,L|276:304,1,87.5
360,328,210826,2,0,L|484:292,1,87.5
504,196,211096,1,0,0:0:0:0:
464,160,211163,1,0,0:0:0:0:
432,116,211231,1,0,0:0:0:0:
400,76,211298,1,0,0:0:0:0:
364,40,211366,6,0,L|304:12,1,43.75
284,108,211501,2,0,L|248:176,1,43.75
184,152,211636,1,0,0:0:0:0:
44,232,211771,2,0,L|12:256,2,21.875
76,312,211906,2,0,L|44:336,2,21.875
156,312,212041,5,0,0:0:0:0:
408,360,212176,1,0,0:0:0:0:
352,224,212311,1,0,0:0:0:0:
368,176,212378,1,0,0:0:0:0:
380,124,212446,1,0,0:0:0:0:
488,24,212581,1,0,0:0:0:0:
260,64,212716,6,0,L|172:32,1,87.5
60,72,212986,1,4,0:0:0:0:
40,120,213053,1,0,0:0:0:0:
36,172,213121,1,4,0:0:0:0:
56,220,213188,1,0,0:0:0:0:
152,276,213256,5,4,0:0:0:0:
172,236,213323,1,0,0:0:0:0:
180,192,213391,1,2,0:0:0:0:
172,148,213458,1,0,0:0:0:0:
204,156,213526,5,4,0:0:0:0:
236,168,213593,1,0,0:0:0:0:
268,180,213661,1,2,0:0:0:0:
300,192,213728,1,0,0:0:0:0:
332,204,213796,5,4,0:0:0:0:
316,356,213931,2,0,L|368:336,1,43.75,2|0,0:0|0:0,0:0:0:0:
396,304,214066,1,4,0:0:0:0:
420,256,214133,1,0,0:0:0:0:
432,204,214201,1,2,0:0:0:0:
428,152,214268,1,0,0:0:0:0:
344,96,214336,5,4,0:0:0:0:
292,64,214403,1,0,0:0:0:0:
232,68,214471,1,2,0:0:0:0:
188,108,214538,1,0,0:0:0:0:
232,192,214606,1,4,0:0:0:0:
196,244,214673,1,0,0:0:0:0:
136,256,214741,1,2,0:0:0:0:
84,224,214808,1,0,0:0:0:0:
60,208,214876,6,0,L|80:320,1,112,4|4,0:0|0:0,0:0:0:0:
256,352,217576,1,4,0:0:0:0:
256,352,217981,1,4,0:0:0:0:
320,244,218386,2,0,L|316:236,1,7,8|0,0:0|0:0,0:0:0:0:
320,244,218656,1,4,0:0:0:0:
244,24,219196,5,0,0:0:0:0:
244,24,219466,1,0,0:0:0:0:
260,176,219736,1,0,0:0:0:0:
260,176,220141,6,0,L|264:192,1,14,8|4,0:0|0:0,0:0:0:0:
336,256,220546,1,4,0:0:0:0:
268,360,220816,6,0,L|260:332,1,28,4|4,0:0|0:0,0:0:0:0:
