osu file format v14

[General]
AudioFilename: audio.mp3
AudioLeadIn: 0
PreviewTime: 55588
Countdown: 1
SampleSet: Drum
StackLeniency: 1
Mode: 2
LetterboxInBreaks: 0
WidescreenStoryboard: 1

[Editor]
Bookmarks: 11450,22484,33519,55588,77657,121795,137657,152140,154898
DistanceSpacing: 1.8
BeatDivisor: 16
GridSize: 32
TimelineZoom: 1.22

[Metadata]
Title:Miles Away [NCS Release]
TitleUnicode:Miles Away [NCS Release]
Artist:Kasger & Limitless
ArtistUnicode:Kasger & Limitless
Creator:[Force]
Version:Away from you
Source:
Tags:
BeatmapID:1481455
BeatmapSetID:699636

[Difficulty]
HPDrainRate:5
CircleSize:2
OverallDifficulty:9.2
ApproachRate:9.2
SliderMultiplier:2.56
SliderTickRate:0.5

[Events]
//Background and Video events
0,0,"bg.jpg",0,0
//Break Periods
//Storyboard Layer 0 (Background)
//Storyboard Layer 1 (Fail)
//Storyboard Layer 2 (Pass)
//Storyboard Layer 3 (Foreground)
//Storyboard Layer 4 (Overlay)
//Storyboard Sound Samples

[TimingPoints]
416,344.827586206897,4,3,0,100,1,0
54553,-80,4,3,0,100,0,0
54898,-200,4,3,0,100,0,0
55588,689.655172413793,4,3,0,100,1,0
55588,-100,4,3,0,100,0,1
77656,-100,4,3,0,100,0,0
79898,1379.31034482759,4,3,0,100,1,0
79898,-50,4,3,0,100,0,0
98863,-50,4,3,0,80,0,0
99035,-66.6666666666667,4,3,0,60,0,0
99208,-100,4,3,0,40,0,0
99380,-200,4,3,0,20,0,0
99725,5517.24138,4,3,0,100,1,0
99725,-250,4,3,0,20,0,0
121793,1379.31034482759,4,3,0,100,1,0
138689,-133.333333333333,4,3,0,100,0,0
139034,-200,4,3,0,100,0,0
139379,-400,4,3,0,100,0,0
139724,-200,4,3,0,100,0,0
149379,-100,4,3,0,100,0,0
150758,-66.6666666666667,4,3,0,100,0,0
155241,2758.62068965517,4,3,0,100,1,0
155241,-25,4,3,0,100,0,0
155413,1379.31034482759,4,3,0,100,1,0
155413,-50,4,3,0,100,0,0
155585,-25,4,3,0,100,0,0
156102,-33.3333333333333,4,3,0,100,0,0
156275,-25,4,3,0,100,0,0
157481,-50,4,3,0,100,0,0
157654,-25,4,3,0,100,0,0
158171,-50,4,3,0,100,0,0
158344,-25,4,3,0,100,0,0
158861,-50,4,3,0,100,0,0
159033,-25,4,3,0,100,0,0
159550,-83.3333333333333,4,3,0,100,0,0
159723,-100,4,3,0,100,0,0
159895,-50,4,3,0,100,0,0
160240,689.655172413793,4,3,0,100,1,0
160240,-33.3333333333333,4,3,0,100,0,0
160413,2758.62068965517,4,3,0,100,1,0
160413,-25,4,3,0,100,0,0
160757,2758.62068965517,4,3,0,100,1,0
160757,-25,4,3,0,100,0,0
160929,1379.31034482759,4,3,0,100,1,0
160929,-50,4,3,0,100,0,0
161101,-25,4,3,0,100,0,0
161618,-33.3333333333333,4,3,0,100,0,0
161791,-25,4,3,0,100,0,0
162308,-50,4,3,0,100,0,0
162480,-25,4,3,0,100,0,0
162997,-50,4,3,0,100,0,0
163170,-25,4,3,0,100,0,0
163687,-50,4,3,0,100,0,0
163860,-25,4,3,0,100,0,0
164377,-50,4,3,0,100,0,0
164549,-25,4,3,0,100,0,0
165066,-83.3333333333333,4,3,0,100,0,0
165239,-100,4,3,0,100,0,0
165411,-50,4,3,0,100,0,0
165756,689.655172413793,4,3,0,100,1,0
165756,-33.3333333333333,4,3,0,100,0,0
165928,2758.62068965517,4,3,0,100,1,0
165928,-25,4,3,0,100,0,0
166272,-250,4,3,0,100,0,0
177134,1379.31034482759,4,3,0,100,1,0
179726,-90.0900900900901,4,3,0,100,0,1
199036,-90.0900900900901,4,3,0,100,0,0

[HitObjects]
32,352,55588,6,0,L|480:352,1,448
32,288,55760,6,0,L|352:288,1,320
32,224,55933,6,0,L|224:224,1,192
32,160,56105,6,0,L|96:160,1,64
480,352,56794,6,0,L|480:160,1,192
480,160,57312,6,0,L|96:160,1,384
480,224,57484,6,0,L|96:224,1,384
480,288,57657,6,0,L|288:288,2,192
480,352,57829,6,0,L|416:352,1,64
480,288,58691,6,0,L|480:224,1,64
480,224,58864,6,0,L|288:224,1,192
480,160,59036,6,0,L|416:160,1,64
288,224,59381,6,0,L|352:224,1,64
352,224,59553,6,0,L|160:224,1,192
160,224,60071,6,0,L|480:224,1,320
160,224,60243,6,0,L|352:224,1,192
160,224,60416,6,0,B|160:32|160:32|160:96,1,256
224,288,60502,6,0,B|480:288|480:288|480:256|480:256,1,288
288,224,60588,6,0,B|480:224|480:224|352:224,1,320
352,224,61450,6,0,B|416:224|416:224|352:224,2,128
352,224,61450,6,0,B|288:224|288:224|352:224,2,128
160,224,61622,6,0,B|224:224|224:224|160:224,2,128
160,224,61622,6,0,B|96:224|96:224|160:224,2,128
160,224,62312,6,0,L|352:224,1,192
352,224,62829,6,0,L|32:224,1,320
352,224,63001,6,0,L|160:224,1,192
352,224,63174,6,0,L|288:224,1,64
32,224,63691,6,0,L|96:224,1,64
96,224,63863,6,0,B|160:224|160:224|96:224,3,128
96,224,63863,6,0,B|32:224|32:224|96:224,3,128
416,224,64036,6,0,B|352:224|352:224|416:224,3,128
416,224,64036,6,0,B|480:224|480:224|416:224,3,128
416,224,65070,6,0,B|256:224|256:224|256:192,1,192
256,192,65588,6,0,B|256:0|256:0|256:192,1,384
480,224,65760,6,0,B|480:32|480:32|480:96,1,256
256,192,65846,6,0,L|256:32,1,160
32,224,65932,6,0,L|96:224,1,64
256,192,66622,6,0,L|320:192,1,64
256,192,66622,6,0,B|448:192,1,192
256,192,66622,6,0,B|32:192|32:192|64:192,1,256
256,192,66622,6,0,B|480:192|480:192|384:192,1,320
256,192,66622,6,0,B|32:192|32:192|192:192,1,384
256,192,66622,6,0,B|480:192|480:192|256:192,1,448
256,192,66622,6,0,P|128:192|128:192,1,128
256,192,67828,6,0,L|256:0,1,192
256,128,68001,6,0,B|480:128|480:128|256:128,1,448
128,64,68174,6,0,B|32:64|32:64|256:64,1,320
256,0,68346,6,0,L|256:384,1,384
256,64,68519,6,0,L|384:64,1,128
256,128,68691,5,0,0:0:0:0:
256,384,69381,6,0,B|32:384|32:384|192:384,1,384
256,384,69381,6,0,B|480:384|480:384|256:384,1,448
256,384,69381,6,0,P|128:384|128:384,1,128
256,384,69381,6,0,B|480:384|480:384|384:384,1,320
256,384,69381,6,0,L|320:384,1,64
256,384,69381,6,0,B|448:384,1,192
256,384,69381,6,0,B|32:384|32:384|64:384,1,256
256,384,70587,6,0,L|64:384,1,192
64,384,71105,6,0,L|384:384,1,320
64,256,71277,6,0,L|256:256,1,192
320,320,71450,6,0,L|256:320,1,64
480,192,72139,6,0,B|256:192|256:192|480:192,1,448
32,192,72312,6,0,B|192:192|192:192|32:192,1,320
480,192,72484,6,0,B|384:192|384:192|480:192,1,192
256,192,72656,5,0,0:0:0:0:
256,192,72829,5,0,0:0:0:0:
480,192,73345,6,0,L|288:192,1,192
288,192,73863,6,0,B|224:192|224:192|288:192,3,128
288,192,73863,6,0,B|352:192|352:192|288:192,3,128
96,192,74036,6,0,B|160:192|160:192|96:192,2,128
96,192,74036,6,0,B|32:192|32:192|96:192,2,128
288,192,74898,6,0,B|480:192|480:192|480:32|480:32|480:128,1,448
288,192,75070,6,0,B|416:192|416:192|416:32|416:32|416:64,1,320
288,192,75243,6,0,B|352:192|352:192|352:64,1,192
288,192,75415,6,0,L|288:128,1,64
480,288,76104,6,0,L|288:288,1,192
288,288,76622,6,0,B|288:32|288:32|256:160,1,384
32,192,76794,6,0,B|32:32|32:32|32:128,1,256
480,192,76967,6,0,L|480:64,1,128
256,352,77053,6,0,B|256:224|256:224|256:320,1,224
32,192,77139,6,0,P|32:320|32:320,1,128
256,192,77656,6,0,B|512:192|512:192|256:192,1,512
256,192,77656,6,0,B|8:125|8:125|256:192,1,512
256,192,77656,6,0,B|503:125|503:125|256:192,1,512
256,192,77656,6,0,B|34:64|34:64|256:192,1,512
256,192,77656,6,0,B|477:64|477:64|256:192,1,512
256,192,77656,6,0,B|74:10|74:10|256:192,1,512
256,192,77656,6,0,B|437:10|437:10|256:192,1,512
256,192,77656,6,0,B|128:-30|128:-30|256:192,1,512
256,192,77656,6,0,B|384:-30|384:-30|256:192,1,512
256,192,77656,6,0,B|189:-56|189:-56|256:192,1,512
256,192,77656,6,0,B|322:-56|322:-56|256:192,1,512
256,192,77656,6,0,B|256:-64|256:-64|256:192,1,512
256,192,77656,6,0,B|384:414|384:414|256:192,1,512
256,192,77656,6,0,B|128:414|128:414|256:192,1,512
256,192,77656,6,0,B|437:374|437:374|256:192,1,512
256,192,77656,6,0,B|256:448|256:448|256:192,1,512
256,192,77656,6,0,B|322:440|322:440|256:192,1,512
256,192,77656,6,0,B|189:440|189:440|256:192,1,512
256,192,77656,6,0,B|74:374|74:374|256:192,1,512
256,192,77656,6,0,B|8:259|8:259|256:192,1,512
256,192,77656,6,0,B|0:192|0:192|256:192,1,512
256,192,77656,6,0,B|477:320|477:320|256:192,1,512
256,192,77656,6,0,B|34:320|34:320|256:192,1,512
256,192,77656,6,0,B|503:259|503:259|256:192,1,512
134,225,78001,5,0,0:0:0:0:
213,38,78088,5,0,0:0:0:0:
305,8,78174,5,0,0:0:0:0:
74,371,78346,5,0,0:0:0:0:
447,191,78519,5,0,0:0:0:0:
131,158,78691,5,0,0:0:0:0:
316,173,78863,5,0,0:0:0:0:
256,192,79036,6,0,L|192:192,1,64
256,192,79036,6,0,L|256:64,1,128
256,192,79036,6,0,L|448:192,1,192
256,191,79036,6,0,L|0:191,1,256
256,192,79036,6,0,B|256:32|256:32|256:192,1,320
256,192,79898,6,0,B|256:352|256:352|256:32|256:32|256:128|256:128,2,576
288,256,80070,6,0,B|512:256|512:256|512:32|512:32|512:160,1,576
224,320,80243,6,0,B|0:320|0:320|0:32|0:32|0:96,1,576
288,320,80415,6,0,B|512:320|512:320|512:32|512:32|512:96,1,576
224,256,80588,6,0,B|0:256|0:256|0:32|0:32|0:160,1,576
288,192,80760,6,0,B|512:192|512:192|512:32|512:32|512:224,1,576
224,128,80932,6,0,B|0:128|0:128|0:32|0:32|0:288,1,576
288,64,81105,6,0,B|512:64|512:64|512:32|512:32|512:352,1,576
224,64,81277,6,0,B|0:64|0:64|0:32|0:32|0:352,1,576
64,192,83173,6,0,B|64:128|64:128|128:128|128:128|128:192|128:192|192:192|192:192|192:128|192:128|256:128|256:128|256:192|256:192|320:192|320:192|320:128|320:128|384:128|384:128|384:192|384:192|448:192|448:192|448:128|448:128,1,832
64,128,83346,6,0,B|448:128|448:128|64:128|64:128|64:192,1,832
128,128,83518,6,0,B|128:192|128:192|192:192|192:192|192:128|192:128|320:128|320:128|320:192|320:192|384:192|384:192|384:128|384:128|448:128|448:128|448:192|448:192|256:192|256:192|256:128,1,832
128,192,83691,6,0,B|192:192|192:192|192:128|192:128|256:128|256:128|256:192|256:192|320:192|320:192|320:128|320:128|448:128|448:128|448:192|448:192|384:192|384:192|384:128|384:128|256:128,1,832
192,192,83863,6,0,B|192:128|192:128|64:128|64:128|64:192|64:192|128:192|128:192|128:128|128:128|256:128|256:128|256:192|256:192|448:192|448:192|448:128|448:128,1,832
192,128,84035,6,0,B|128:128|128:128|128:192|128:192|256:192|256:192|256:128|256:128|64:128|64:128|64:192|64:192|320:192|320:192,1,832
256,128,84208,6,0,B|256:192|256:192|192:192|192:192|192:128|192:128|128:128|128:128|128:192|128:192|64:192|64:192|64:128|64:128|320:128|320:128|320:192|320:192|384:192|384:192,1,832
256,192,84380,6,0,B|256:128|256:128|320:128|320:128|320:192|320:192|192:192|192:192|192:128|192:128|384:128|384:128|384:192|384:192|192:192,1,832
320,192,84553,6,0,B|320:128|320:128|256:128|256:128|192:128|192:128|192:192|192:192|128:192|128:192|64:192|64:192|64:128|64:128|128:128|128:128|448:128|448:128,1,832
320,128,84725,6,0,B|256:128|256:128|256:192|256:192|64:192|64:192|64:128|64:128|192:128|192:128|192:192|192:192|128:192|128:192|128:128|128:128|64:128|64:128|64:192,1,832
384,128,84898,6,0,B|384:192|384:192|320:192|320:192|320:128|320:128|448:128|448:128|448:160|448:192|448:192|256:192|256:192|256:128|256:128|192:128|192:128|192:192|192:192|128:192|128:192,1,832
384,192,85070,6,0,B|384:128|384:128|448:128|448:128|448:192|448:192|320:192|320:192|320:128|320:128|64:128|64:128|64:192|64:192|192:192|192:192,1,832
448,192,85242,6,0,B|448:128|448:128|64:128|64:128|64:192|64:192|384:192|384:192,1,832
384,192,87484,6,0,L|384:64,3,128
128,192,87656,6,0,L|128:64,3,128
128,64,88691,6,0,B|256:64|256:64|256:192|256:192|128:192|128:192|128:64,1,512
192,64,88863,1,0,0:0:0:0:
384,64,89035,6,0,B|256:64|256:64|256:192|256:192|384:192|384:192|384:64,1,512
320,64,89208,1,0,0:0:0:0:
128,320,89380,6,0,B|256:320|256:320|256:192|256:192|128:192|128:192|128:320,1,512
192,320,89553,1,0,0:0:0:0:
384,320,89725,6,0,B|256:320|256:320|256:192|256:192|384:192|384:192|384:320,1,512
320,320,89898,1,0,0:0:0:0:
192,192,90242,1,0,0:0:0:0:
320,192,90587,1,0,0:0:0:0:
384,256,90932,5,0,0:0:0:0:
32,320,91277,6,0,L|32:32,3,256
480,320,91449,6,0,L|480:32,3,256
192,320,91622,6,0,L|192:64,3,256
320,320,91794,6,0,L|320:64,3,256
320,64,93863,6,0,L|224:64,1,64
256,64,94035,6,0,L|256:192,1,128
256,128,94208,6,0,L|128:128,1,128
256,192,94380,6,0,L|96:192,1,128
128,192,94725,6,0,L|128:320,1,128
128,256,94898,6,0,L|256:256,1,128
128,320,95070,6,0,L|256:320,1,128
256,320,95415,6,0,L|256:192,1,128
256,256,95587,6,0,L|384:256,1,128
256,192,95760,6,0,L|384:192,1,128
384,192,96104,6,0,L|384:64,1,128
384,128,96277,6,0,L|384:64,1,64
384,128,96449,6,0,L|384:64,1,64
384,64,96622,6,0,L|320:64,1,64
320,64,96794,6,0,L|64:64,1,256
352,128,96966,6,0,L|96:128,1,256
320,192,97139,6,0,L|64:192,1,256
384,256,97311,6,0,L|128:256,1,256
64,64,97484,6,0,L|320:64,1,256
96,128,97656,6,0,L|352:128,1,256
64,192,97829,6,0,L|320:192,1,256
128,256,98001,6,0,L|384:256,1,256
320,64,98173,6,0,L|64:64,1,256
352,128,98346,6,0,L|96:128,1,256
320,192,98518,6,0,L|64:192,1,256
384,256,98691,6,0,L|128:256,1,256
64,64,98863,6,0,L|320:64,1,256
96,128,99035,6,0,L|288:128,1,192.000007324219
64,192,99208,6,0,L|192:192,1,128
128,256,99380,6,0,L|192:256,1,64
256,96,99725,6,0,L|256:300,1,204.8
192,96,99898,6,0,L|192:300,1,204.8
128,96,100070,6,0,L|128:300,1,204.8
64,96,100242,6,0,L|64:300,1,204.8
320,96,100415,6,0,L|320:300,1,204.8
256,96,100588,6,0,L|256:300,1,204.8
192,96,100760,6,0,L|192:300,1,204.8
128,96,100932,6,0,L|128:300,1,204.8
384,96,101104,6,0,L|384:300,1,204.8
320,96,101277,6,0,L|320:300,1,204.8
256,96,101449,6,0,L|256:300,1,204.8
192,96,101621,6,0,L|192:300,1,204.8
448,96,101794,6,0,L|448:300,1,204.8
384,96,101967,6,0,L|384:300,1,204.8
320,96,102139,6,0,L|320:300,1,204.8
256,96,102311,6,0,L|256:300,1,204.8
64,96,102484,6,0,L|64:300,1,204.8
128,96,102657,6,0,L|128:300,1,204.8
192,96,102829,6,0,L|192:300,1,204.8
256,96,103001,6,0,L|256:300,1,204.8
128,96,103173,6,0,L|128:300,1,204.8
192,96,103346,6,0,L|192:300,1,204.8
256,96,103518,6,0,L|256:300,1,204.8
320,96,103690,6,0,L|320:300,1,204.8
192,96,103863,6,0,L|192:300,1,204.8
256,96,104036,6,0,L|256:300,1,204.8
320,96,104208,6,0,L|320:300,1,204.8
384,96,104380,6,0,L|384:300,1,204.8
256,96,104553,6,0,L|256:300,1,204.8
320,96,104726,6,0,L|320:300,1,204.8
384,96,104898,6,0,L|384:300,1,204.8
448,96,105070,6,0,L|448:300,1,204.8
64,96,105242,6,0,L|64:300,1,204.8
320,96,105415,6,0,L|320:300,1,204.8
192,96,105587,6,0,L|192:300,1,204.8
448,96,105760,6,0,L|448:300,1,204.8
64,96,105932,6,0,L|64:300,1,204.8
320,96,106105,6,0,L|320:300,1,204.8
192,96,106277,6,0,L|192:300,1,204.8
448,96,106450,6,0,L|448:300,1,204.8
64,96,106622,6,0,L|64:300,1,204.8
320,96,106795,6,0,L|320:300,1,204.8
192,96,106967,6,0,L|192:300,1,204.8
448,96,107140,6,0,L|448:300,1,204.8
64,96,107311,6,0,L|64:300,1,204.8
320,96,107484,6,0,L|320:300,1,204.8
192,96,107656,6,0,L|192:300,1,204.8
448,96,107829,6,0,L|448:300,1,204.8
128,96,108001,6,0,L|128:300,1,204.8
256,96,108173,6,0,L|256:300,1,204.8
384,96,108346,6,0,L|384:300,1,204.8
256,96,108518,6,0,L|256:300,1,204.8
128,96,108691,6,0,L|128:300,1,204.8
256,96,108863,6,0,L|256:300,1,204.8
384,96,109036,6,0,L|384:300,1,204.8
256,96,109208,6,0,L|256:300,1,204.8
128,96,109380,6,0,L|128:300,1,204.8
256,96,109552,6,0,L|256:300,1,204.8
384,96,109725,6,0,L|384:300,1,204.8
256,96,109897,6,0,L|256:300,1,204.8
128,96,110070,6,0,L|128:300,1,204.8
256,96,110242,6,0,L|256:300,1,204.8
384,96,110415,6,0,L|384:300,1,204.8
256,96,110587,6,0,L|256:300,1,204.8
256,64,121793,6,0,B|256:320|256:320|256:64,4,512
64,256,122137,6,0,L|64:64,2,192
160,64,122482,6,0,B|160:320|160:320|160:224,1,352
448,64,122827,6,0,L|448:256,1,192
352,64,122999,6,0,L|352:160,1,96
256,224,123689,5,0,0:0:0:0:
352,64,124724,6,0,B|352:288|352:288|352:64|352:64,1,448
448,64,124896,6,0,B|448:256|448:256|448:64|448:64,1,384
352,96,125068,5,0,0:0:0:0:
160,64,125241,5,0,0:0:0:0:
64,64,125413,6,0,B|64:192|64:192|64:64|64:64,1,256
160,64,125586,6,0,B|160:160|160:160|160:64|160:64,1,192
256,64,125758,6,0,B|256:128|256:128|256:64|256:64,1,128
448,64,125930,6,0,B|448:96|448:96|448:64|448:64,1,64
352,256,126103,5,0,0:0:0:0:
448,256,127655,6,0,L|448:64,2,192
352,64,128000,6,0,B|352:320|352:320|352:224,1,352
64,64,128345,6,0,L|64:256,1,192
160,64,128517,6,0,L|160:160,1,96
256,224,129207,5,0,0:0:0:0:
160,64,130242,6,0,B|160:288|160:288|160:64|160:64,1,448
64,64,130414,6,0,B|64:256|64:256|64:64|64:64,1,384
160,96,130586,5,0,0:0:0:0:
352,64,130759,5,0,0:0:0:0:
448,64,130931,6,0,B|448:192|448:192|448:64|448:64,1,256
352,64,131104,6,0,B|352:160|352:160|352:64|352:64,1,192
256,64,131276,6,0,B|256:128|256:128|256:64|256:64,1,128
64,64,131448,6,0,B|64:96|64:96|64:64|64:64,1,64
160,256,131621,5,0,0:0:0:0:
256,192,132827,6,0,L|0:192,1,256
256,192,133172,6,0,L|512:192,1,256
256,192,133517,6,0,L|0:192,1,256
256,192,133861,6,0,L|512:192,1,256
0,192,134206,6,0,L|256:192,1,256
512,192,134551,6,0,L|256:192,1,256
0,192,134896,6,0,L|256:192,1,256
512,192,135241,6,0,L|256:192,1,256
256,192,135586,6,0,L|0:192,1,256
256,192,135931,6,0,L|512:192,1,256
256,192,136276,6,0,L|0:192,1,256
256,192,136620,6,0,L|512:192,1,256
0,192,136965,6,0,L|256:192,1,256
512,192,137310,6,0,L|256:192,1,256
0,192,137655,6,0,L|256:192,1,256
512,192,138000,6,0,L|256:192,1,256
256,192,138344,6,0,L|0:192,1,256
256,192,138689,6,0,L|448:192,1,192.000007324219
256,192,139034,6,0,L|128:192,1,128
256,192,139379,6,0,L|320:192,1,64
0,192,139724,6,0,L|0:64,1,128
448,192,140068,6,0,L|448:64,1,128
128,192,140413,6,0,L|128:64,1,128
320,192,140758,6,0,L|320:64,1,128
0,64,141103,6,0,L|0:192,1,128
448,64,141447,6,0,L|448:192,1,128
128,64,141792,6,0,L|128:192,1,128
320,64,142137,6,0,L|320:192,1,128
64,288,143861,6,0,L|192:288,1,128
64,224,144206,6,0,L|192:224,1,128
64,160,144551,6,0,L|192:160,1,128
64,96,144896,6,0,L|192:96,1,128
192,288,145241,6,0,L|320:288,1,128
192,224,145586,6,0,L|320:224,1,128
192,160,145931,6,0,L|320:160,1,128
192,96,146276,6,0,L|320:96,1,128
320,288,146620,6,0,L|448:288,1,128
320,224,146965,6,0,L|448:224,1,128
320,160,147310,6,0,L|448:160,1,128
320,96,147655,6,0,L|448:96,1,128
448,288,147999,6,0,L|320:288,1,128
448,224,148344,6,0,L|320:224,1,128
448,160,148689,6,0,L|320:160,1,128
448,96,149034,6,0,L|320:96,1,128
320,288,149379,6,0,L|64:288,1,256
320,224,149724,6,0,L|64:224,1,256
320,160,150068,6,0,L|64:160,1,256
320,96,150413,6,0,L|64:96,1,256
64,288,150758,6,0,L|448:288,1,384.000014648438
64,224,151103,6,0,L|448:224,1,384.000014648438
64,160,151448,6,0,L|448:160,1,384.000014648438
64,96,151793,6,0,L|448:96,1,384.000014648438
352,288,152310,5,0,0:0:0:0:
352,224,152655,5,0,0:0:0:0:
352,160,152999,5,0,0:0:0:0:
384,96,153258,5,0,0:0:0:0:
320,96,153344,5,0,0:0:0:0:
256,96,153430,5,0,0:0:0:0:
192,96,153517,5,0,0:0:0:0:
128,288,153689,5,0,0:0:0:0:
160,288,153689,5,0,0:0:0:0:
128,224,153775,5,0,0:0:0:0:
96,224,153775,5,0,0:0:0:0:
96,160,153861,5,0,0:0:0:0:
64,160,153861,5,0,0:0:0:0:
256,288,154034,5,0,0:0:0:0:
288,288,154034,5,0,0:0:0:0:
256,224,154120,5,0,0:0:0:0:
224,224,154120,5,0,0:0:0:0:
192,160,154206,5,0,0:0:0:0:
224,160,154206,5,0,0:0:0:0:
416,288,154379,5,0,0:0:0:0:
384,288,154379,5,0,0:0:0:0:
352,224,154465,5,0,0:0:0:0:
384,224,154465,5,0,0:0:0:0:
352,160,154551,5,0,0:0:0:0:
320,160,154551,5,0,0:0:0:0:
192,96,154724,5,0,0:0:0:0:
224,96,154724,5,0,0:0:0:0:
320,352,154896,6,0,L|320:256,1,96.0000036621095
320,256,155241,6,0,B|448:256|448:256|320:256|320:256|448:256|448:256|320:256|320:256|448:256|448:256|320:256|320:256|448:256|448:256|320:256|320:256|448:256|448:256|320:256|320:256|448:256|448:256|320:256|320:256|448:256|448:256|320:256|320:256|192:256|192:256,1,1920
320,256,155241,6,0,B|192:256|192:256|320:256|320:256|192:256|192:256|320:256|320:256|192:256|192:256|320:256|320:256|192:256|192:256|320:256|320:256|192:256|192:256|320:256|320:256|192:256|192:256|320:256|320:256|192:256|192:256|320:256|320:256|192:256,1,1920
64,192,155413,6,0,L|192:192,1,128
128,192,155585,6,0,L|384:192,1,256
448,128,156102,6,0,L|256:128,1,192.000007324219
384,128,156275,6,0,L|128:128,1,256
0,64,156792,6,0,B|128:64|128:64|0:64,1,256
128,64,156964,6,0,B|0:64|0:64|128:64,1,256
448,64,157481,6,0,L|320:64,1,128
384,64,157654,6,0,L|128:64,1,256
384,128,158171,6,0,L|256:128,1,128
320,128,158344,6,0,L|64:128,1,256
320,192,158861,6,0,L|192:192,1,128
256,192,159034,6,0,L|0:192,1,256
384,256,159550,6,0,L|192:256,1,191.999994140625
64,256,159723,6,0,L|192:256,1,128
384,256,159895,6,0,L|192:256,1,192
64,256,160068,6,0,L|192:256,1,128
384,256,160240,6,0,L|192:256,1,192.000007324219
192,256,160413,6,0,L|192:128,1,128
192,128,160757,6,0,B|320:128|320:128|192:128|192:128|320:128|320:128|192:128|192:128|320:128|320:128|192:128|192:128|320:128|320:128|192:128|192:128|320:128|320:128|192:128|192:128|320:128|320:128|192:128|192:128|320:128|320:128|192:128|192:128|320:128,1,1920
192,128,160757,6,0,B|64:128|64:128|192:128|192:128|64:128|64:128|192:128|192:128|64:128|64:128|192:128|192:128|64:128|64:128|192:128|192:128|64:128|64:128|192:128|192:128|64:128|64:128|192:128|192:128|64:128|64:128|192:128|192:128|320:128|320:128,1,1920
448,192,160929,6,0,L|320:192,1,128
384,192,161101,6,0,L|128:192,1,256
64,256,161618,6,0,L|256:256,1,192.000007324219
128,256,161791,6,0,L|384:256,1,256
64,320,162308,6,0,B|192:320|192:320|64:320,1,256
384,320,162480,6,0,B|512:320|512:320|384:320,1,256
288,256,162653,1,0,0:0:0:0:
64,320,162997,6,0,L|192:320,1,128
128,320,163170,6,0,L|384:320,1,256
128,256,163687,6,0,L|256:256,1,128
192,256,163860,6,0,L|448:256,1,256
192,192,164377,6,0,L|320:192,1,128
256,192,164550,6,0,L|512:192,1,256
128,128,165066,6,0,L|320:128,1,191.999994140625
448,128,165239,6,0,L|320:128,1,128
128,128,165411,6,0,L|320:128,1,192
448,128,165584,6,0,L|320:128,1,128
128,128,165756,6,0,L|320:128,1,192.000007324219
320,128,165929,6,0,L|320:256,1,128
320,96,166272,6,0,L|320:300,1,204.8
192,96,166445,6,0,L|192:300,1,204.8
320,96,166617,6,0,L|320:300,1,204.8
64,96,166790,6,0,L|64:300,1,204.8
448,96,166962,6,0,L|448:300,1,204.8
192,96,167135,6,0,L|192:300,1,204.8
384,96,167307,6,0,L|384:300,1,204.8
64,96,167480,6,0,L|64:300,1,204.8
448,96,167652,6,0,L|448:300,1,204.8
128,96,167825,6,0,L|128:300,1,204.8
320,96,167997,6,0,L|320:300,1,204.8
64,96,168170,6,0,L|64:300,1,204.8
448,96,168341,6,0,L|448:300,1,204.8
256,96,168514,6,0,L|256:300,1,204.8
320,96,168686,6,0,L|320:300,1,204.8
64,96,168859,6,0,L|64:300,1,204.8
384,96,169031,6,0,L|384:300,1,204.8
256,96,169203,6,0,L|256:300,1,204.8
128,96,169376,6,0,L|128:300,1,204.8
256,96,169548,6,0,L|256:300,1,204.8
448,96,169721,6,0,L|448:300,1,204.8
256,96,169893,6,0,L|256:300,1,204.8
64,96,170066,6,0,L|64:300,1,204.8
256,96,170238,6,0,L|256:300,1,204.8
448,96,170410,6,0,L|448:300,1,204.8
256,96,170582,6,0,L|256:300,1,204.8
64,96,170755,6,0,L|64:300,1,204.8
256,96,170927,6,0,L|256:300,1,204.8
448,96,171100,6,0,L|448:300,1,204.8
256,96,171272,6,0,L|256:300,1,204.8
64,96,171445,6,0,L|64:300,1,204.8
256,96,171617,6,0,L|256:300,1,204.8
256,352,177134,6,0,L|256:96,1,256
256,352,177134,2,0,B|128:352|128:352|256:352,1,256
256,352,177134,2,0,B|384:352|384:352|256:352,1,256
64,352,177306,6,0,L|64:96,1,256
64,352,177306,2,0,B|192:352|192:352|64:352,1,256
256,352,177478,6,0,L|256:96,1,256
256,352,177478,2,0,B|384:352|384:352|256:352,1,256
256,352,177478,2,0,B|128:352|128:352|256:352,1,256
64,352,177651,6,0,L|64:96,1,256
64,352,177651,2,0,B|192:352|192:352|64:352,1,256
448,352,177823,6,0,L|448:96,1,256
448,352,177823,2,0,B|320:352|320:352|448:352,1,256
64,352,177996,6,0,L|64:96,1,256
64,352,177996,2,0,B|192:352|192:352|64:352,1,256
448,352,178168,6,0,L|448:96,1,256
448,352,178168,2,0,B|320:352|320:352|448:352,1,256
448,96,178599,5,0,0:0:0:0:
