osu file format v14

[General]
AudioFilename: audio.mp3
AudioLeadIn: 0
PreviewTime: 89977
Countdown: 1
SampleSet: Normal
StackLeniency: 0.7
Mode: 1
LetterboxInBreaks: 0
WidescreenStoryboard: 0

[Editor]
Bookmarks: 40177,132492,171406
DistanceSpacing: 1.1
BeatDivisor: 4
GridSize: 4
TimelineZoom: 2.799999

[Metadata]
Title:Trinity Homerun
TitleUnicode:Trinity Homerun
Artist:Kasai Harcores
ArtistUnicode:葛西ハーコーズ
Creator:HiroK
Version:Triple Play
Source:
Tags:葛西ハーコーズep3 baseball classic dj genki c-show camellia かめりあ
BeatmapID:1857481
BeatmapSetID:888666

[Difficulty]
HPDrainRate:4.5
CircleSize:2
OverallDifficulty:6.7
ApproachRate:5
SliderMultiplier:1.4
SliderTickRate:1

[Events]
//Background and Video events
0,0,"trinity bg.jpg",0,70
//Break Periods
//Storyboard Layer 0 (Background)
//Storyboard Layer 1 (Fail)
//Storyboard Layer 2 (Pass)
//Storyboard Layer 3 (Foreground)
//Storyboard Sound Samples

[TimingPoints]
835,342.857142857143,4,1,0,70,1,0
2035,-102.564102564103,4,1,0,70,0,0
2206,-105.263157894737,4,1,0,90,0,0
3492,-100,4,1,0,70,0,0
4520,-76.9230769230769,4,1,0,90,0,0
4863,-105.263157894737,4,1,0,90,0,0
6235,-100,4,1,0,70,0,0
7263,-76.9230769230769,4,1,0,90,0,0
7435,-90.9090909090909,4,1,0,90,0,0
7606,-105.263157894737,4,1,0,90,0,0
8977,-100,4,1,0,70,0,0
10006,-76.9230769230769,4,1,0,90,0,0
10349,-105.263157894737,4,1,0,90,0,0
11977,-107.52688172043,4,1,0,90,0,0
12063,-109.89010989011,4,1,0,90,0,0
12149,-112.359550561798,4,1,0,90,0,0
12320,-114.942528735632,4,1,0,90,0,0
12492,-117.647058823529,4,1,0,90,0,0
12663,-76.9230769230769,4,1,0,90,0,0
13177,-100,4,1,0,90,0,0
15492,-76.9230769230769,4,1,0,90,0,0
15663,-100,4,1,0,90,0,0
18235,-76.9230769230769,4,1,0,90,0,0
18577,-100,4,1,0,90,0,0
20977,-76.9230769230769,4,1,0,90,0,0
21320,-100,4,1,0,90,0,0
23463,-98.0392156862745,4,1,0,90,0,0
23635,-96.1538461538461,4,1,0,90,0,0
23806,-91.743119266055,4,1,0,90,0,0
23892,-87.719298245614,4,1,0,90,0,0
23977,-84.0336134453781,4,1,0,90,0,0
24063,-80.6451612903226,4,1,0,90,0,0
24149,-77.5193798449612,4,1,0,90,0,0
25177,-55.5555555555556,4,1,0,90,0,0
25349,-64.5161290322581,4,1,0,90,0,0
25520,-76.9230769230769,4,1,0,90,0,0
26377,-55.5555555555556,4,1,0,90,0,0
26463,-58.8235294117647,4,1,0,90,0,0
26549,-62.5,4,1,0,90,0,0
26635,-66.6666666666667,4,1,0,90,0,0
26720,-71.4285714285714,4,1,0,90,0,0
26892,-76.9230769230769,4,1,0,90,0,0
27920,-55.5555555555556,4,1,0,90,0,0
28092,-64.5161290322581,4,1,0,90,0,0
28263,-76.9230769230769,4,1,0,90,0,0
28777,-66.6666666666667,4,1,0,90,0,0
29292,-58.8235294117647,4,1,0,90,0,0
29635,-76.9230769230769,4,1,0,90,0,0
30492,-58.8235294117647,4,1,0,90,0,0
30577,-60.6060606060606,4,1,0,90,0,0
30663,-62.5,4,1,0,90,0,0
30835,-66.6666666666667,4,1,0,90,0,0
31006,-76.9230769230769,4,1,0,90,0,0
32035,-58.8235294117647,4,1,0,90,0,0
32120,-62.5,4,1,0,90,0,0
32206,-66.6666666666667,4,1,0,90,0,0
32292,-71.4285714285714,4,1,0,90,0,0
32377,-76.9230769230769,4,1,0,90,0,0
33235,-66.6666666666667,4,1,0,90,0,0
33320,-64.5161290322581,4,1,0,90,0,0
33406,-62.5,4,1,0,90,0,0
33577,-58.8235294117647,4,1,0,90,0,0
33749,-55.5555555555556,4,1,0,90,0,0
34263,-62.5,4,1,0,90,0,0
34777,-76.9230769230769,4,1,0,90,0,0
35120,-100,4,1,0,90,0,0
40177,-99.009900990099,4,1,0,90,0,0
40263,-98.0392156862745,4,1,0,90,0,0
40349,-97.0873786407767,4,1,0,90,0,0
40435,-96.1538461538461,4,1,0,90,0,0
40492,-94.3396226415094,4,1,0,90,0,0
40549,-92.5925925925926,4,1,0,90,0,0
40606,-90.9090909090909,4,1,0,90,0,0
41635,-90.0900900900901,4,1,0,90,0,0
41692,-89.2857142857143,4,1,0,90,0,0
41749,-88.4955752212389,4,1,0,90,0,0
41806,-87.719298245614,4,1,0,90,0,0
41863,-86.9565217391304,4,1,0,90,0,0
41920,-86.2068965517241,4,1,0,90,0,0
41977,-85.4700854700855,4,1,0,90,0,0
43006,-84.7457627118644,4,1,0,90,0,0
43063,-84.0336134453781,4,1,0,90,0,0
43120,-83.3333333333333,4,1,0,90,0,0
43177,-82.6446280991736,4,1,0,90,0,0
43263,-81.9672131147541,4,1,0,90,0,0
43349,-81.3008130081301,4,1,0,90,0,0
45235,-71.4285714285714,4,1,0,90,0,0
45320,-72.7272727272727,4,1,0,90,0,0
45406,-74.0740740740741,4,1,0,90,0,0
45749,-75.4716981132076,4,1,0,90,0,0
46092,-90.9090909090909,4,1,0,90,0,0
51406,-95.2380952380952,4,1,0,90,0,0
51577,-99.9999999999999,4,1,0,90,0,0
57063,-76.9230769230769,4,1,0,90,0,0
57406,-55.5555555555556,4,1,0,90,0,0
57463,-58.8235294117647,4,1,0,90,0,0
57520,-62.5,4,1,0,90,0,0
57577,-66.6666666666667,4,1,0,90,0,0
57635,-71.4285714285714,4,1,0,90,0,0
57692,-76.9230769230769,4,1,0,90,0,0
57749,-83.3333333333333,4,1,0,90,0,0
58092,-80,4,1,0,90,0,0
58263,-76.9230769230769,4,1,0,90,0,0
58435,-71.4285714285714,4,1,0,90,0,0
58777,-52.6315789473684,4,1,0,90,0,0
58835,-55.5555555555556,4,1,0,90,0,0
58892,-58.8235294117647,4,1,0,90,0,0
58949,-62.5,4,1,0,90,0,0
59006,-66.6666666666667,4,1,0,90,0,0
59063,-71.4285714285714,4,1,0,90,0,0
59120,-76.9230769230769,4,1,0,90,0,0
59292,-83.3333333333333,4,1,0,90,0,0
59377,-80,4,1,0,90,0,0
59463,-76.9230769230769,4,1,0,90,0,0
59549,-74.0740740740741,4,1,0,90,0,0
59635,-71.4285714285714,4,1,0,90,0,0
59720,-68.9655172413793,4,1,0,90,0,0
59806,-66.6666666666667,4,1,0,90,0,0
60149,-50,4,1,0,90,0,0
60206,-52.6315789473684,4,1,0,90,0,0
60263,-55.5555555555556,4,1,0,90,0,0
60320,-58.8235294117647,4,1,0,90,0,0
60377,-62.5,4,1,0,90,0,0
60435,-66.6666666666667,4,1,0,90,0,0
60492,-71.4285714285714,4,1,0,90,0,0
60835,-74.0740740740741,4,1,0,90,0,0
60892,-76.9230769230769,4,1,0,90,0,0
60949,-80,4,1,0,90,0,0
61006,-83.3333333333333,4,1,0,90,0,0
61177,-90.9090909090909,4,1,0,90,0,0
61520,-92.5925925925926,4,1,0,90,0,0
61692,-94.3396226415094,4,1,0,90,0,0
61863,-96.1538461538461,4,1,0,90,0,0
62206,-98.0392156862745,4,1,0,90,0,0
62549,-100,4,1,0,90,0,0
63749,-97.5609756097561,4,1,0,90,0,0
63920,-95.2380952380952,4,1,0,90,0,0
65120,-93.4579439252336,4,1,0,90,0,0
65177,-92.5925925925926,4,1,0,90,0,0
65235,-91.743119266055,4,1,0,90,0,0
65292,-90.9090909090909,4,1,0,90,0,0
65377,-89.2857142857143,4,1,0,90,0,0
65463,-87.719298245614,4,1,0,90,0,0
65549,-86.2068965517241,4,1,0,90,0,0
65635,-84.7457627118644,4,1,0,90,0,0
65720,-83.3333333333333,4,1,0,90,0,0
65806,-81.9672131147541,4,1,0,90,0,0
65892,-80.6451612903226,4,1,0,90,0,0
65977,-79.3650793650794,4,1,0,90,0,0
66035,-78.7401574803149,4,1,0,90,0,0
66092,-78.125,4,1,0,90,0,0
66149,-77.5193798449612,4,1,0,90,0,0
66235,-76.3358778625954,4,1,0,90,0,0
66320,-75.187969924812,4,1,0,90,0,0
66406,-74.0740740740741,4,1,0,90,0,0
66492,-72.992700729927,4,1,0,90,0,0
66577,-71.9424460431655,4,1,0,90,0,0
66663,-70.9219858156028,4,1,0,90,0,0
67177,-71.4285714285714,4,1,0,90,0,0
67263,-72.7272727272727,4,1,0,90,0,0
67349,-74.0740740740741,4,1,0,90,0,0
67692,-75.4716981132076,4,1,0,90,0,0
67949,-25,4,1,0,10,0,0
68292,-55.5555555555556,4,1,0,90,0,0
68492,-57.1428571428571,4,1,0,90,0,0
68606,-58.8235294117647,4,1,0,90,0,0
68720,-60.6060606060606,4,1,0,90,0,0
68835,-62.5,4,1,0,90,0,0
68949,-64.5161290322581,4,1,0,90,0,0
69063,-66.6666666666667,4,1,0,90,0,0
69177,-68.9655172413793,4,1,0,90,0,0
69292,-71.4285714285714,4,1,0,90,0,0
69406,-76.9230769230769,4,1,0,90,0,0
69635,-80,4,1,0,90,0,0
69749,-83.3333333333333,4,1,0,90,0,0
69863,-86.9565217391304,4,1,0,90,0,0
69977,-90.9090909090909,4,1,0,90,0,0
70092,-95.2380952380952,4,1,0,90,0,0
70206,-100,4,1,0,90,0,0
70320,-105.263157894737,4,1,0,90,0,0
70435,-111.111111111111,4,1,0,90,0,0
70549,-117.647058823529,4,1,0,90,0,0
70663,-125,4,1,0,90,0,0
70777,-133.333333333333,4,1,0,90,0,0
71006,-54.054054054054,4,1,0,90,0,0
71120,-55.5555555555556,4,1,0,90,0,0
71235,-57.1428571428571,4,1,0,90,0,0
71349,-58.8235294117647,4,1,0,90,0,0
71463,-60.6060606060606,4,1,0,90,0,0
71577,-62.5,4,1,0,90,0,0
71692,-64.5161290322581,4,1,0,90,0,0
71806,-66.6666666666667,4,1,0,90,0,0
71920,-68.9655172413793,4,1,0,90,0,0
72035,-71.4285714285714,4,1,0,90,0,0
72149,-74.0740740740741,4,1,0,90,0,0
72263,-71.4285714285714,4,1,0,90,0,0
72377,-68.9655172413793,4,1,0,90,0,0
72492,-66.6666666666667,4,1,0,90,0,0
72606,-64.5161290322581,4,1,0,90,0,0
72720,-62.5,4,1,0,90,0,0
72835,-60.6060606060606,4,1,0,90,0,0
72949,-58.8235294117647,4,1,0,90,0,0
73063,-57.1428571428571,4,1,0,90,0,0
73177,-55.5555555555556,4,1,0,90,0,0
73292,-58.8235294117647,4,1,0,90,0,0
73406,-62.5,4,1,0,90,0,0
73520,-66.6666666666667,4,1,0,90,0,0
73749,-105.263157894737,4,1,0,90,0,0
79006,-76.9230769230769,4,1,0,90,0,0
79349,-55.5555555555556,4,1,0,90,0,0
79406,-60.6060606060606,4,1,0,90,0,0
79463,-66.6666666666667,4,1,0,90,0,0
79520,-74.0740740740741,4,1,0,90,0,0
79577,-83.3333333333333,4,1,0,90,0,0
79635,-95.2380952380952,4,1,0,90,0,0
79692,-111.111111111111,4,1,0,90,0,0
79920,-108.108108108108,4,1,0,90,0,0
80035,-105.263157894737,4,1,0,90,0,0
80263,-100,4,1,0,90,0,0
80377,-97.5609756097561,4,1,0,90,0,0
80720,-55.5555555555556,4,1,0,90,0,0
80777,-60.6060606060606,4,1,0,90,0,0
80835,-66.6666666666667,4,1,0,90,0,0
80892,-74.0740740740741,4,1,0,90,0,0
80949,-83.3333333333333,4,1,0,90,0,0
81006,-95.2380952380952,4,1,0,90,0,0
81063,-111.111111111111,4,1,0,90,0,0
81292,-108.108108108108,4,1,0,90,0,0
81349,-105.263157894737,4,1,0,90,0,0
81406,-102.564102564103,4,1,0,90,0,0
81520,-100,4,1,0,90,0,0
81635,-97.5609756097561,4,1,0,90,0,0
81749,-95.2380952380952,4,1,0,90,0,0
82092,-55.5555555555556,4,1,0,90,0,0
82149,-60.6060606060606,4,1,0,90,0,0
82206,-66.6666666666667,4,1,0,90,0,0
82263,-74.0740740740741,4,1,0,90,0,0
82320,-83.3333333333333,4,1,0,90,0,0
82377,-95.2380952380952,4,1,0,90,0,0
82435,-111.111111111111,4,1,0,90,0,0
82663,-108.108108108108,4,1,0,90,0,0
82777,-105.263157894737,4,1,0,90,0,0
82892,-102.564102564103,4,1,0,90,0,0
83006,-100,4,1,0,90,0,0
83120,-97.5609756097561,4,1,0,90,0,0
84263,-95.2380952380952,4,1,0,90,0,0
84492,-90.9090909090909,4,1,0,90,0,0
85863,-88.8888888888889,4,1,0,90,0,0
86806,-87.719298245614,4,1,0,90,0,0
86892,-86.9565217391304,4,1,0,90,0,0
86977,-86.2068965517241,4,1,0,90,0,0
87063,-85.4700854700855,4,1,0,90,0,0
87120,-84.7457627118644,4,1,0,90,0,0
87177,-84.0336134453781,4,1,0,90,0,0
87235,-83.3333333333333,4,1,0,90,0,0
87320,-82.6446280991736,4,1,0,90,0,0
87406,-81.9672131147541,4,1,0,90,0,0
87463,-81.3008130081301,4,1,0,90,0,0
87520,-80.6451612903226,4,1,0,90,0,0
87577,-80,4,1,0,90,0,0
87663,-79.3650793650794,4,1,0,90,0,0
87749,-78.7401574803149,4,1,0,90,0,0
87806,-78.125,4,1,0,90,0,0
87863,-77.5193798449612,4,1,0,90,0,0
87920,-76.9230769230769,4,1,0,90,0,0
88006,-76.3358778625954,4,1,0,90,0,0
88092,-75.7575757575758,4,1,0,90,0,0
88149,-75.187969924812,4,1,0,90,0,0
88206,-74.6268656716418,4,1,0,90,0,0
88263,-74.0740740740741,4,1,0,90,0,0
88320,-73.5294117647059,4,1,0,90,0,0
88377,-72.992700729927,4,1,0,90,0,0
88435,-72.463768115942,4,1,0,90,0,0
88520,-71.9424460431655,4,1,0,90,0,0
88606,-71.4285714285714,4,1,0,90,0,0
89120,-74.0740740740741,4,1,0,90,0,0
89206,-75.4716981132076,4,1,0,90,0,0
89292,-76.9230769230769,4,1,0,90,0,0
89635,-83.3333333333333,4,1,0,90,0,0
89977,-90.9090909090909,4,1,0,95,0,1
99406,-83.3333333333333,4,1,0,95,0,1
99577,-76.9230769230769,4,1,0,95,0,1
99920,-71.4285714285714,4,1,0,95,0,1
100092,-66.6666666666667,4,1,0,95,0,1
100435,-71.4285714285714,4,1,0,95,0,1
100606,-76.9230769230769,4,1,0,95,0,1
100777,-83.3333333333333,4,1,0,95,0,1
100863,-86.9565217391304,4,1,0,95,0,1
100949,-90.9090909090909,4,1,0,95,0,1
106263,-88.8888888888889,4,1,0,95,0,1
106349,-86.9565217391304,4,1,0,95,0,1
107635,-85.1063829787234,4,1,0,95,0,1
107806,-83.3333333333333,4,1,0,95,0,1
109006,-81.6326530612245,4,1,0,95,0,1
109177,-80,4,1,0,95,0,1
111749,-83.3333333333333,4,1,0,95,0,1
111835,-86.9565217391304,4,1,0,95,0,1
111920,-90.9090909090909,4,1,0,95,0,0
112006,-125,4,1,0,60,0,0
122892,-111.111111111111,4,1,0,70,0,0
123577,-76.9230769230769,4,1,0,70,0,0
124263,-111.111111111111,4,1,0,70,0,0
124949,-76.9230769230769,4,1,0,70,0,0
125549,-111.111111111111,4,1,0,70,0,0
126320,-76.9230769230769,4,1,0,70,0,0
126920,-111.111111111111,4,1,0,70,0,0
127692,-76.9230769230769,4,1,0,70,0,0
128292,-111.111111111111,4,1,0,70,0,0
128977,-76.9230769230769,4,1,0,70,0,0
129663,-111.111111111111,4,1,0,70,0,0
130349,-76.9230769230769,4,1,0,70,0,0
131035,-111.111111111111,4,1,0,70,0,0
131720,-76.9230769230769,4,1,0,70,0,0
132492,-100,4,1,0,75,0,0
133692,-102.564102564103,4,1,0,75,0,0
133863,-105.263157894737,4,1,0,90,0,0
135149,-99.9999999999999,4,1,0,70,0,0
136177,-76.9230769230769,4,1,0,90,0,0
136606,-105.263157894737,4,1,0,75,0,0
137892,-100,4,1,0,70,0,0
138920,-76.9230769230769,4,1,0,90,0,0
139092,-90.9090909090909,4,1,0,90,0,0
139263,-105.263157894737,4,1,0,90,0,0
140635,-100,4,1,0,70,0,0
141663,-76.9230769230769,4,1,0,90,0,0
142006,-105.263157894737,4,1,0,90,0,0
143635,-107.52688172043,4,1,0,90,0,0
143720,-109.89010989011,4,1,0,90,0,0
143806,-112.359550561798,4,1,0,90,0,0
143977,-114.942528735632,4,1,0,90,0,0
144149,-117.647058823529,4,1,0,90,0,0
144320,-76.9230769230769,4,1,0,90,0,0
144749,-100,4,1,0,90,0,0
147149,-76.9230769230769,4,1,0,90,0,0
147320,-100,4,1,0,90,0,0
149892,-76.9230769230769,4,1,0,90,0,0
150063,-100,4,1,0,90,0,0
152635,-76.9230769230769,4,1,0,90,0,0
152806,-100,4,1,0,90,0,0
155035,-98.0392156862745,4,1,0,90,0,0
155206,-96.1538461538461,4,1,0,90,0,0
155463,-92.5925925925926,4,1,0,90,0,0
155549,-89.2857142857143,4,1,0,90,0,0
155635,-86.2068965517241,4,1,0,90,0,0
155720,-83.3333333333333,4,1,0,90,0,0
155806,-80.6451612903226,4,1,0,90,0,0
156063,-100,4,1,0,90,0,0
157177,-76.9230769230769,4,1,0,90,0,0
157435,-100,4,1,0,90,0,0
158463,-76.9230769230769,4,1,0,90,0,0
158806,-100,4,1,0,90,0,0
159920,-76.9230769230769,4,1,0,90,0,0
160435,-66.6666666666667,4,1,0,90,0,0
160949,-58.8235294117647,4,1,0,90,0,0
161292,-76.9230769230769,4,1,0,90,0,0
161549,-100,4,1,0,90,0,0
162663,-76.9230769230769,4,1,0,90,0,0
162920,-100,4,1,0,90,0,0
163949,-76.9230769230769,4,1,0,90,0,0
164292,-100,4,1,0,90,0,0
165406,-76.9230769230769,4,1,0,90,0,0
165920,-62.5,4,1,0,90,0,0
166435,-76.9230769230769,4,1,0,90,0,0
166777,-100,4,1,0,90,0,0
171577,-99.009900990099,4,1,0,90,0,0
171663,-98.0392156862745,4,1,0,90,0,0
171749,-97.0873786407767,4,1,0,90,0,0
171835,-96.1538461538461,4,1,0,90,0,0
171920,-95.2380952380952,4,1,0,90,0,0
172006,-94.3396226415094,4,1,0,90,0,0
172092,-93.4579439252336,4,1,0,90,0,0
172149,-92.5925925925926,4,1,0,90,0,0
172206,-91.743119266055,4,1,0,90,0,0
172263,-90.9090909090909,4,1,0,90,0,0
173292,-90.0900900900901,4,1,0,90,0,0
173349,-89.2857142857143,4,1,0,90,0,0
173406,-88.4955752212389,4,1,0,90,0,0
173463,-87.719298245614,4,1,0,90,0,0
173520,-86.9565217391304,4,1,0,90,0,0
173577,-86.2068965517241,4,1,0,90,0,0
173635,-85.4700854700855,4,1,0,90,0,0
174663,-84.7457627118644,4,1,0,90,0,0
174720,-84.0336134453781,4,1,0,90,0,0
174777,-83.3333333333333,4,1,0,90,0,0
174835,-82.6446280991736,4,1,0,90,0,0
174920,-81.9672131147541,4,1,0,90,0,0
175006,-81.3008130081301,4,1,0,90,0,0
177063,-69.4444444444444,4,1,0,90,0,0
177149,-70.9219858156028,4,1,0,90,0,0
177235,-72.463768115942,4,1,0,90,0,0
177320,-74.0740740740741,4,1,0,90,0,0
177406,-75.7575757575758,4,1,0,90,0,0
177492,-77.5193798449612,4,1,0,90,0,0
177577,-79.3650793650794,4,1,0,90,0,0
177663,-81.3008130081301,4,1,0,90,0,0
177749,-83.3333333333333,4,1,0,95,0,1
185806,-82.6446280991736,4,1,0,95,0,1
185892,-81.9672131147541,4,1,0,95,0,1
185977,-81.3008130081301,4,1,0,95,0,1
186149,-80.6451612903226,4,1,0,95,0,1
186235,-80,4,1,0,95,0,1
186320,-79.3650793650794,4,1,0,95,0,1
186492,-78.7401574803149,4,1,0,95,0,1
186577,-78.125,4,1,0,95,0,1
186663,-77.5193798449612,4,1,0,95,0,1
186835,-76.9230769230769,4,1,0,95,0,1
186920,-76.3358778625954,4,1,0,95,0,1
187006,-75.7575757575758,4,1,0,95,0,1
187177,-75.187969924812,4,1,0,95,0,1
187263,-74.6268656716418,4,1,0,95,0,1
187349,-74.0740740740741,4,1,0,95,0,1
188035,-75.187969924812,4,1,0,95,0,1
188120,-76.3358778625954,4,1,0,95,0,1
188206,-77.5193798449612,4,1,0,95,0,1
188292,-78.7401574803149,4,1,0,95,0,1
188377,-80,4,1,0,95,0,1
188549,-81.6326530612245,4,1,0,95,0,1
188720,-83.3333333333333,4,1,0,95,0,1
193863,-84.7457627118644,4,1,0,95,0,1
193949,-86.2068965517241,4,1,0,95,0,1
194035,-87.719298245614,4,1,0,95,0,1
194120,-89.2857142857143,4,1,0,95,0,1
194206,-90.9090909090909,4,1,0,95,0,0
196777,-90.0900900900901,4,1,0,95,0,0
196835,-89.2857142857143,4,1,0,95,0,0
196892,-88.4955752212389,4,1,0,95,0,0
196949,-87.719298245614,4,1,0,95,0,0
197035,-86.9565217391304,4,1,0,95,0,0
197120,-86.2068965517241,4,1,0,95,0,0
197206,-85.4700854700855,4,1,0,95,0,0
197292,-84.7457627118644,4,1,0,95,0,0
197377,-84.0336134453781,4,1,0,95,0,0
197463,-83.3333333333333,4,1,0,95,0,0
197520,-82.6446280991736,4,1,0,95,0,0
197577,-81.9672131147541,4,1,0,95,0,0
197635,-81.3008130081301,4,1,0,95,0,0
197720,-80.6451612903226,4,1,0,95,0,0
197806,-80,4,1,0,95,0,0
197892,-79.3650793650794,4,1,0,95,0,0
197977,-78.7401574803149,4,1,0,95,0,0
198035,-78.125,4,1,0,95,0,0
198092,-77.5193798449612,4,1,0,95,0,0
198149,-76.9230769230769,4,1,0,95,0,0
198206,-76.3358778625954,4,1,0,95,0,0
198263,-75.7575757575758,4,1,0,95,0,0
198320,-75.187969924812,4,1,0,95,0,0
199006,-64.1025641025641,4,1,0,95,0,0
199092,-65.359477124183,4,1,0,95,0,0
199177,-66.6666666666667,4,1,0,95,0,0
199263,-68.0272108843537,4,1,0,95,0,0
199349,-69.4444444444444,4,1,0,95,0,0
199435,-70.9219858156028,4,1,0,95,0,0
199520,-72.463768115942,4,1,0,95,0,0
199606,-74.0740740740741,4,1,0,95,0,0
199692,-75.7575757575758,4,1,0,95,0,0
199777,-77.5193798449612,4,1,0,95,0,0
199863,-79.3650793650794,4,1,0,95,0,0
199949,-81.3008130081301,4,1,0,95,0,0
200035,-83.3333333333333,4,1,0,95,0,1
207749,-82.6446280991736,4,1,0,95,0,1
207835,-81.9672131147541,4,1,0,95,0,1
207920,-81.3008130081301,4,1,0,95,0,1
208092,-80.6451612903226,4,1,0,95,0,1
208177,-80,4,1,0,95,0,1
208263,-79.3650793650794,4,1,0,95,0,1
208435,-78.7401574803149,4,1,0,95,0,1
208520,-78.125,4,1,0,95,0,1
208606,-77.5193798449612,4,1,0,95,0,1
208777,-76.9230769230769,4,1,0,95,0,1
208863,-76.3358778625954,4,1,0,95,0,1
208949,-75.7575757575758,4,1,0,95,0,1
209120,-75.187969924812,4,1,0,95,0,1
209206,-74.6268656716418,4,1,0,95,0,1
209292,-74.0740740740741,4,1,0,95,0,1
209977,-75.187969924812,4,1,0,95,0,1
210063,-76.3358778625954,4,1,0,95,0,1
210149,-77.5193798449612,4,1,0,95,0,1
210235,-78.7401574803149,4,1,0,95,0,1
210320,-80,4,1,0,95,0,1
210406,-81.3008130081301,4,1,0,95,0,1
210492,-82.6446280991736,4,1,0,95,0,1
210663,-84.0336134453781,4,1,0,95,0,1
210835,-85.4700854700855,4,1,0,95,0,1
211006,-83.3333333333333,4,1,0,95,0,1
218720,-82.6446280991736,4,1,0,95,0,1
218777,-81.9672131147541,4,1,0,95,0,1
218835,-81.3008130081301,4,1,0,95,0,1
218892,-80.6451612903226,4,1,0,95,0,1
218949,-80,4,1,0,95,0,1
219006,-79.3650793650794,4,1,0,95,0,1
219063,-78.7401574803149,4,1,0,95,0,1
219149,-78.125,4,1,0,95,0,1
219235,-77.5193798449612,4,1,0,95,0,1
219292,-76.9230769230769,4,1,0,95,0,1
219349,-76.3358778625954,4,1,0,95,0,1
219406,-75.7575757575758,4,1,0,95,0,1
219492,-75.187969924812,4,1,0,95,0,1
219577,-74.6268656716418,4,1,0,95,0,1
219635,-74.0740740740741,4,1,0,95,0,1
219692,-73.5294117647059,4,1,0,95,0,1
219749,-72.992700729927,4,1,0,95,0,1
219835,-72.463768115942,4,1,0,95,0,1
219920,-71.9424460431655,4,1,0,95,0,1
219977,-71.4285714285714,4,1,0,95,0,1
220035,-70.9219858156028,4,1,0,95,0,1
220092,-70.4225352112676,4,1,0,95,0,1
220149,-69.9300699300699,4,1,0,95,0,1
220206,-69.4444444444444,4,1,0,95,0,1
220263,-68.9655172413793,4,1,0,95,0,1
220949,-83.3333333333333,4,1,0,95,0,1
221292,-95.2380952380952,4,1,0,95,0,1
221463,-100,4,1,0,95,0,1
221635,-105.263157894737,4,1,0,95,0,0
222920,-100,4,1,0,60,0,0
223949,-95.2380952380954,4,1,0,70,0,0
224206,-93.0232558139538,4,1,0,70,0,0
224377,-90.9090909090909,4,1,0,95,0,0
231063,-86.9565217391304,4,1,0,95,0,0
231235,-83.3333333333333,4,1,0,95,0,0
231577,-76.9230769230769,4,1,0,95,0,0
231749,-71.4285714285714,4,1,0,95,0,0
232092,-76.9230769230769,4,1,0,95,0,0
232263,-83.3333333333333,4,1,0,95,0,0
232435,-86.9565217391304,4,1,0,95,0,0
232520,-88.8888888888889,4,1,0,95,0,0
232606,-90.9090909090909,4,1,0,95,0,0
237920,-88.8888888888889,4,1,0,95,0,0
238092,-86.9565217391304,4,1,0,95,0,0
239292,-85.1063829787234,4,1,0,95,0,0
239463,-83.3333333333333,4,1,0,95,0,0
240663,-81.6326530612245,4,1,0,95,0,0
240835,-80,4,1,0,95,0,0
243406,-83.3333333333333,4,1,0,95,0,0
243577,-86.9565217391304,4,1,0,95,0,0
243663,-33.3333333333333,4,1,0,40,0,0
244263,-33.3333333333333,4,1,0,30,0,0
244949,-100,4,1,0,20,0,0
246320,-125,4,1,0,15,0,0
247692,-166.666666666667,4,1,0,10,0,0
249063,-250,4,1,0,5,0,0

[HitObjects]
272,170,835,5,0,0:0:0:0:
276,198,1006,1,0,0:0:0:0:
276,198,1092,1,8,0:0:0:0:
276,198,1177,1,8,0:0:0:0:
269,179,1349,1,8,0:0:0:0:
269,179,1435,1,8,0:0:0:0:
269,179,1520,1,0,0:0:0:0:
269,179,1606,1,8,0:0:0:0:
269,180,1692,1,0,0:0:0:0:
269,180,1777,1,0,0:0:0:0:
269,180,1863,1,8,0:0:0:0:
269,180,2035,1,8,0:0:0:0:
269,180,2206,1,4,0:0:0:0:
281,163,2549,1,8,0:0:0:0:
269,180,2720,1,8,0:0:0:0:
261,154,3063,1,0,0:0:0:0:
269,180,3235,1,8,0:0:0:0:
266,174,3406,1,8,0:0:0:0:
267,176,3577,2,0,L|211:181,10,35
267,176,4606,1,12,0:0:0:0:
259,176,4949,1,0,0:0:0:0:
257,176,5292,1,0,0:0:0:0:
257,176,5463,1,8,0:0:0:0:
259,176,5806,1,0,0:0:0:0:
259,176,5977,1,8,0:0:0:0:
257,176,6149,1,0,0:0:0:0:
282,191,6320,2,0,L|230:180,10,35
266,180,7349,1,12,0:0:0:0:
266,180,7520,1,12,0:0:0:0:
278,185,7692,1,0,0:0:0:0:
278,185,8035,1,8,0:0:0:0:
278,185,8206,1,0,0:0:0:0:
245,177,8549,1,0,0:0:0:0:
278,185,8720,1,8,0:0:0:0:
278,185,8892,1,0,0:0:0:0:
275,174,9063,2,0,L|331:178,10,35
281,188,10092,1,12,0:0:0:0:
281,188,10435,1,0,0:0:0:0:
281,188,10777,1,0,0:0:0:0:
270,178,10949,1,8,0:0:0:0:
270,178,11292,1,0,0:0:0:0:
270,178,11463,1,8,0:0:0:0:
270,178,11635,1,8,0:0:0:0:
253,187,11806,1,0,0:0:0:0:
268,194,11977,1,8,0:0:0:0:
266,188,12063,1,8,0:0:0:0:
266,188,12149,1,8,0:0:0:0:
256,178,12320,1,8,0:0:0:0:
256,178,12492,1,0,0:0:0:0:
256,178,12663,1,12,0:0:0:0:
256,178,12835,1,12,0:0:0:0:
286,194,13177,1,4,0:0:0:0:
272,188,13349,1,0,0:0:0:0:
265,199,13435,1,0,0:0:0:0:
272,188,13520,1,8,0:0:0:0:
273,187,13692,1,0,0:0:0:0:
273,187,13777,1,8,0:0:0:0:
273,187,13863,1,0,0:0:0:0:
273,187,13949,1,8,0:0:0:0:
273,187,14035,1,0,0:0:0:0:
267,179,14206,1,8,0:0:0:0:
267,179,14377,1,8,0:0:0:0:
267,179,14463,1,8,0:0:0:0:
267,179,14549,1,0,0:0:0:0:
267,179,14720,1,0,0:0:0:0:
267,179,14806,1,0,0:0:0:0:
267,179,14892,1,8,0:0:0:0:
260,175,15063,1,8,0:0:0:0:
260,175,15149,1,8,0:0:0:0:
260,175,15235,1,0,0:0:0:0:
260,175,15320,1,8,0:0:0:0:
260,175,15406,1,0,0:0:0:0:
258,164,15577,1,12,0:0:0:0:
258,164,15920,1,0,0:0:0:0:
252,192,16092,1,0,0:0:0:0:
252,192,16177,1,0,0:0:0:0:
252,192,16263,1,8,0:0:0:0:
260,175,16435,1,0,0:0:0:0:
265,174,16520,1,8,0:0:0:0:
265,174,16606,1,0,0:0:0:0:
265,174,16692,1,8,0:0:0:0:
265,174,16777,1,0,0:0:0:0:
253,171,16949,1,8,0:0:0:0:
254,172,17120,1,0,0:0:0:0:
254,172,17206,1,8,0:0:0:0:
254,172,17292,1,8,0:0:0:0:
257,166,17463,1,0,0:0:0:0:
257,166,17635,1,8,0:0:0:0:
257,166,17720,1,0,0:0:0:0:
253,171,17892,1,0,0:0:0:0:
253,171,17977,1,8,0:0:0:0:
254,172,18063,1,8,0:0:0:0:
254,172,18149,1,0,0:0:0:0:
254,172,18320,1,12,0:0:0:0:
253,172,18663,1,0,0:0:0:0:
253,173,18835,1,0,0:0:0:0:
253,171,18920,1,0,0:0:0:0:
253,171,19006,1,8,0:0:0:0:
254,172,19177,1,0,0:0:0:0:
254,172,19263,1,8,0:0:0:0:
254,172,19349,1,0,0:0:0:0:
253,172,19435,1,8,0:0:0:0:
253,172,19520,1,0,0:0:0:0:
277,173,19692,1,8,0:0:0:0:
277,173,19863,1,0,0:0:0:0:
277,173,19949,1,8,0:0:0:0:
277,173,20035,1,0,0:0:0:0:
211,175,20206,1,0,0:0:0:0:
261,183,20377,1,8,0:0:0:0:
261,183,20549,1,0,0:0:0:0:
261,183,20635,1,8,0:0:0:0:
261,183,20720,1,8,0:0:0:0:
261,183,20806,1,8,0:0:0:0:
261,183,20892,1,0,0:0:0:0:
261,183,21063,1,12,0:0:0:0:
235,156,21406,1,0,0:0:0:0:
235,156,21577,1,0,0:0:0:0:
235,156,21663,1,0,0:0:0:0:
235,156,21749,1,8,0:0:0:0:
266,171,21920,1,0,0:0:0:0:
266,171,22006,1,8,0:0:0:0:
266,171,22092,1,0,0:0:0:0:
266,171,22177,1,8,0:0:0:0:
266,171,22263,1,0,0:0:0:0:
266,171,22435,1,8,0:0:0:0:
266,171,22606,1,0,0:0:0:0:
266,171,22777,1,0,0:0:0:0:
266,171,22949,1,0,0:0:0:0:
250,171,23035,1,0,0:0:0:0:
250,171,23120,1,8,0:0:0:0:
266,186,23206,1,8,0:0:0:0:
250,171,23292,1,0,0:0:0:0:
252,167,23463,1,8,0:0:0:0:
252,167,23635,1,8,0:0:0:0:
252,167,23806,1,8,0:0:0:0:
252,167,23892,1,8,0:0:0:0:
252,167,23977,1,8,0:0:0:0:
250,171,24063,1,8,0:0:0:0:
250,171,24149,1,4,0:0:0:0:
241,198,25177,1,8,0:0:0:0:
248,198,25220,1,8,0:0:0:0:
259,176,25349,1,0,0:0:0:0:
259,176,25392,1,0,0:0:0:0:
270,178,25520,1,4,0:0:0:0:
305,183,26377,1,8,0:0:0:0:
280,183,26463,1,0,0:0:0:0:
337,169,26549,1,8,0:0:0:0:
323,176,26635,1,8,0:0:0:0:
313,206,26720,1,0,0:0:0:0:
270,169,26892,1,4,0:0:0:0:
250,184,27920,1,0,0:0:0:0:
250,184,27963,1,0,0:0:0:0:
250,184,28092,1,8,0:0:0:0:
250,184,28135,1,8,0:0:0:0:
250,184,28263,1,4,0:0:0:0:
250,184,28777,1,12,0:0:0:0:
250,184,29292,1,12,0:0:0:0:
250,184,29635,1,4,0:0:0:0:
260,185,30492,1,0,0:0:0:0:
261,188,30577,1,8,0:0:0:0:
266,174,30663,1,0,0:0:0:0:
266,174,30706,1,0,0:0:0:0:
266,174,30835,1,0,0:0:0:0:
266,174,30877,1,8,0:0:0:0:
266,174,31006,1,4,0:0:0:0:
253,171,32035,1,8,0:0:0:0:
253,171,32120,1,8,0:0:0:0:
253,171,32206,1,0,0:0:0:0:
253,171,32292,1,8,0:0:0:0:
253,171,32377,1,4,0:0:0:0:
253,171,33235,1,0,0:0:0:0:
253,171,33320,1,0,0:0:0:0:
266,174,33406,1,8,0:0:0:0:
263,174,33449,1,8,0:0:0:0:
261,168,33577,1,8,0:0:0:0:
261,168,33620,1,8,0:0:0:0:
261,169,33749,1,4,0:0:0:0:
261,169,34263,1,12,0:0:0:0:
261,169,34777,1,12,0:0:0:0:
261,169,35120,1,4,0:0:0:0:
261,169,35292,1,0,0:0:0:0:
261,169,35377,1,8,0:0:0:0:
261,169,35463,1,0,0:0:0:0:
261,169,35549,1,0,0:0:0:0:
261,169,35635,1,8,0:0:0:0:
272,188,35806,1,0,0:0:0:0:
272,188,35892,1,0,0:0:0:0:
272,188,36063,1,8,0:0:0:0:
272,188,36149,1,0,0:0:0:0:
265,188,36320,1,8,0:0:0:0:
265,188,36492,1,0,0:0:0:0:
265,188,36663,1,0,0:0:0:0:
265,188,36749,1,8,0:0:0:0:
271,179,36835,1,0,0:0:0:0:
266,150,36920,1,0,0:0:0:0:
251,181,37006,1,8,0:0:0:0:
295,189,37177,1,0,0:0:0:0:
291,178,37263,1,8,0:0:0:0:
291,178,37435,1,8,0:0:0:0:
291,178,37520,1,0,0:0:0:0:
270,178,37692,1,8,0:0:0:0:
270,178,37749,1,8,0:0:0:0:
271,179,37806,1,8,0:0:0:0:
271,179,37863,1,0,0:0:0:0:
276,170,38035,1,0,0:0:0:0:
276,170,38120,1,8,0:0:0:0:
276,170,38206,1,0,0:0:0:0:
276,170,38292,1,0,0:0:0:0:
276,170,38377,1,8,0:0:0:0:
276,170,38549,1,8,0:0:0:0:
274,173,38635,1,0,0:0:0:0:
276,170,38806,1,0,0:0:0:0:
276,170,38892,1,8,0:0:0:0:
276,170,38977,1,8,0:0:0:0:
276,170,39063,1,0,0:0:0:0:
276,170,39149,1,0,0:0:0:0:
276,170,39235,1,8,0:0:0:0:
259,172,39406,1,0,0:0:0:0:
259,172,39492,1,8,0:0:0:0:
259,172,39577,1,0,0:0:0:0:
259,172,39749,1,8,0:0:0:0:
259,172,39835,1,0,0:0:0:0:
259,172,39920,1,8,0:0:0:0:
259,172,40006,1,8,0:0:0:0:
259,172,40177,1,8,0:0:0:0:
259,172,40263,1,8,0:0:0:0:
259,172,40349,1,0,0:0:0:0:
289,153,40435,1,8,0:0:0:0:
287,153,40492,1,8,0:0:0:0:
286,153,40549,1,8,0:0:0:0:
286,153,40606,1,0,0:0:0:0:
271,156,40692,1,8,0:0:0:0:
271,156,40777,1,0,0:0:0:0:
271,156,40863,1,0,0:0:0:0:
271,156,40949,1,8,0:0:0:0:
271,156,41035,1,8,0:0:0:0:
271,156,41120,1,0,0:0:0:0:
271,156,41206,1,8,0:0:0:0:
271,156,41292,1,0,0:0:0:0:
268,157,41377,1,8,0:0:0:0:
268,157,41463,1,8,0:0:0:0:
303,127,41549,1,8,0:0:0:0:
297,133,41635,1,0,0:0:0:0:
272,171,41692,1,8,0:0:0:0:
272,171,41749,1,8,0:0:0:0:
272,171,41806,1,0,0:0:0:0:
272,171,41863,1,8,0:0:0:0:
272,171,41920,1,8,0:0:0:0:
272,171,41977,1,0,0:0:0:0:
271,135,42063,1,0,0:0:0:0:
284,183,42149,1,8,0:0:0:0:
284,183,42235,1,0,0:0:0:0:
284,183,42320,1,8,0:0:0:0:
284,183,42406,1,8,0:0:0:0:
284,183,42492,1,0,0:0:0:0:
284,183,42577,1,8,0:0:0:0:
284,183,42663,1,0,0:0:0:0:
284,183,42749,1,8,0:0:0:0:
284,183,42835,1,8,0:0:0:0:
284,183,42920,1,0,0:0:0:0:
246,161,43006,1,8,0:0:0:0:
246,161,43063,1,0,0:0:0:0:
246,161,43120,1,0,0:0:0:0:
273,183,43177,1,8,0:0:0:0:
271,180,43263,1,0,0:0:0:0:
256,175,43349,1,8,0:0:0:0:
256,170,43406,1,8,0:0:0:0:
256,169,43463,1,8,0:0:0:0:
256,169,43520,1,0,0:0:0:0:
256,169,43577,1,0,0:0:0:0:
256,168,43635,1,0,0:0:0:0:
256,168,43692,1,8,0:0:0:0:
251,173,43777,1,8,0:0:0:0:
269,172,43863,1,0,0:0:0:0:
269,172,43920,1,0,0:0:0:0:
269,172,43977,1,0,0:0:0:0:
269,172,44035,1,8,0:0:0:0:
259,181,44092,1,8,0:0:0:0:
251,152,44149,1,8,0:0:0:0:
251,153,44206,1,0,0:0:0:0:
251,153,44292,1,0,0:0:0:0:
251,153,44377,1,8,0:0:0:0:
251,153,44435,1,8,0:0:0:0:
251,153,44492,1,8,0:0:0:0:
256,169,44549,1,8,0:0:0:0:
271,188,44606,1,8,0:0:0:0:
266,168,44663,1,8,0:0:0:0:
271,180,44720,1,0,0:0:0:0:
298,186,45235,1,8,0:0:0:0:
298,186,45320,1,8,0:0:0:0:
298,186,45406,1,8,0:0:0:0:
277,194,45749,1,8,0:0:0:0:
275,183,46092,1,4,0:0:0:0:
267,178,46263,1,8,0:0:0:0:
267,178,46349,1,8,0:0:0:0:
267,178,46435,1,0,0:0:0:0:
267,184,46606,1,8,0:0:0:0:
267,184,46692,1,8,0:0:0:0:
267,184,46777,1,0,0:0:0:0:
267,184,46863,1,8,0:0:0:0:
267,184,46949,1,8,0:0:0:0:
266,181,47120,1,0,0:0:0:0:
219,160,47206,1,8,0:0:0:0:
268,199,47292,1,8,0:0:0:0:
262,110,47463,1,0,0:0:0:0:
256,184,47635,1,8,0:0:0:0:
256,184,47720,1,8,0:0:0:0:
256,184,47806,1,0,0:0:0:0:
256,184,47892,1,8,0:0:0:0:
256,184,48063,1,8,0:0:0:0:
256,184,48149,1,0,0:0:0:0:
256,184,48235,1,8,0:0:0:0:
256,184,48320,1,8,0:0:0:0:
256,184,48406,1,8,0:0:0:0:
256,184,48492,1,0,0:0:0:0:
286,180,48577,1,8,0:0:0:0:
286,179,48663,1,8,0:0:0:0:
286,179,48749,1,8,0:0:0:0:
286,179,48835,1,0,0:0:0:0:
258,177,49006,1,8,0:0:0:0:
258,177,49092,1,8,0:0:0:0:
258,177,49177,1,0,0:0:0:0:
297,145,49349,1,8,0:0:0:0:
297,145,49435,1,8,0:0:0:0:
262,152,49520,1,0,0:0:0:0:
307,137,49606,1,8,0:0:0:0:
306,138,49649,1,8,0:0:0:0:
306,138,49692,1,8,0:0:0:0:
277,159,49777,1,8,0:0:0:0:
276,161,49863,1,0,0:0:0:0:
266,156,49949,1,0,0:0:0:0:
265,156,49992,1,8,0:0:0:0:
265,156,50035,1,8,0:0:0:0:
283,173,50120,1,8,0:0:0:0:
283,173,50206,1,0,0:0:0:0:
282,169,50377,1,0,0:0:0:0:
282,169,50463,1,8,0:0:0:0:
282,169,50549,1,0,0:0:0:0:
282,169,50720,1,8,0:0:0:0:
282,169,50806,1,8,0:0:0:0:
282,169,50892,1,0,0:0:0:0:
282,169,50977,1,8,0:0:0:0:
282,169,51063,1,8,0:0:0:0:
283,173,51149,1,8,0:0:0:0:
283,173,51235,1,0,0:0:0:0:
282,169,51406,1,8,0:0:0:0:
282,169,51577,1,4,0:0:0:0:
264,180,51749,1,0,0:0:0:0:
264,180,51835,1,0,0:0:0:0:
264,180,51920,1,8,0:0:0:0:
264,180,52092,1,0,0:0:0:0:
264,180,52263,1,8,0:0:0:0:
259,183,52349,1,8,0:0:0:0:
257,173,52435,1,0,0:0:0:0:
257,173,52520,1,0,0:0:0:0:
257,173,52606,1,8,0:0:0:0:
257,173,52777,1,8,0:0:0:0:
289,180,52949,1,0,0:0:0:0:
277,168,53120,1,0,0:0:0:0:
277,168,53206,1,0,0:0:0:0:
277,168,53292,1,8,0:0:0:0:
277,168,53463,1,0,0:0:0:0:
277,168,53635,1,8,0:0:0:0:
277,168,53720,1,0,0:0:0:0:
277,168,53806,1,8,0:0:0:0:
330,179,53892,1,8,0:0:0:0:
284,173,53977,1,0,0:0:0:0:
284,173,54149,1,8,0:0:0:0:
261,177,54320,1,0,0:0:0:0:
250,173,54492,1,0,0:0:0:0:
250,173,54577,1,0,0:0:0:0:
250,173,54663,1,8,0:0:0:0:
259,174,54835,1,0,0:0:0:0:
255,174,55006,1,8,0:0:0:0:
255,174,55092,1,8,0:0:0:0:
254,173,55177,1,0,0:0:0:0:
261,177,55263,1,0,0:0:0:0:
254,173,55349,1,8,0:0:0:0:
250,173,55520,1,8,0:0:0:0:
263,174,55692,1,0,0:0:0:0:
259,174,55863,1,0,0:0:0:0:
263,174,55949,1,0,0:0:0:0:
263,174,56035,1,8,0:0:0:0:
263,174,56206,1,8,0:0:0:0:
287,192,56377,1,0,0:0:0:0:
265,169,56549,1,8,0:0:0:0:
263,174,56635,1,8,0:0:0:0:
263,174,56720,1,0,0:0:0:0:
263,174,57063,1,4,0:0:0:0:
286,212,57406,1,8,0:0:0:0:
285,203,57463,1,8,0:0:0:0:
269,191,57520,1,8,0:0:0:0:
269,191,57577,1,8,0:0:0:0:
269,191,57635,1,8,0:0:0:0:
269,191,57692,1,8,0:0:0:0:
269,191,57749,1,0,0:0:0:0:
248,184,58092,1,0,0:0:0:0:
246,184,58135,1,0,0:0:0:0:
271,217,58263,1,0,0:0:0:0:
271,217,58306,1,0,0:0:0:0:
271,217,58435,1,4,0:0:0:0:
259,201,58777,1,8,0:0:0:0:
259,201,58835,1,8,0:0:0:0:
259,201,58892,1,8,0:0:0:0:
259,201,58949,1,8,0:0:0:0:
259,201,59006,1,8,0:0:0:0:
259,201,59063,1,8,0:0:0:0:
259,201,59120,1,0,0:0:0:0:
272,167,59292,1,8,0:0:0:0:
267,170,59377,1,0,0:0:0:0:
267,170,59463,1,8,0:0:0:0:
267,170,59549,1,8,0:0:0:0:
267,170,59635,1,0,0:0:0:0:
261,178,59720,1,8,0:0:0:0:
262,178,59806,1,4,0:0:0:0:
273,179,60149,1,8,0:0:0:0:
273,179,60206,1,8,0:0:0:0:
273,179,60263,1,8,0:0:0:0:
273,180,60320,1,8,0:0:0:0:
273,180,60377,1,8,0:0:0:0:
273,180,60435,1,8,0:0:0:0:
273,180,60492,1,0,0:0:0:0:
265,152,60835,1,0,0:0:0:0:
236,207,60892,1,8,0:0:0:0:
235,195,60949,1,8,0:0:0:0:
235,195,61006,1,0,0:0:0:0:
273,179,61177,1,4,0:0:0:0:
273,180,61520,1,0,0:0:0:0:
268,178,61692,1,0,0:0:0:0:
268,178,61863,1,8,0:0:0:0:
273,179,62206,1,8,0:0:0:0:
273,180,62549,1,4,0:0:0:0:
249,190,62720,1,8,0:0:0:0:
268,178,62806,1,8,0:0:0:0:
249,190,62892,1,0,0:0:0:0:
249,190,63063,1,8,0:0:0:0:
264,189,63235,1,0,0:0:0:0:
260,184,63406,1,0,0:0:0:0:
260,184,63492,1,0,0:0:0:0:
260,184,63577,1,8,0:0:0:0:
269,184,63749,1,8,0:0:0:0:
269,184,63920,1,0,0:0:0:0:
269,184,64092,1,8,0:0:0:0:
269,184,64177,1,8,0:0:0:0:
269,184,64263,1,0,0:0:0:0:
269,184,64435,1,8,0:0:0:0:
269,184,64606,1,0,0:0:0:0:
269,184,64777,1,0,0:0:0:0:
269,184,64863,1,0,0:0:0:0:
269,184,64949,1,8,0:0:0:0:
259,171,65120,1,0,0:0:0:0:
256,173,65177,1,0,0:0:0:0:
256,173,65235,1,0,0:0:0:0:
256,173,65292,1,8,0:0:0:0:
262,160,65377,1,0,0:0:0:0:
262,160,65463,1,8,0:0:0:0:
262,160,65549,1,8,0:0:0:0:
262,160,65635,1,0,0:0:0:0:
262,160,65720,1,0,0:0:0:0:
262,160,65806,1,8,0:0:0:0:
245,171,65892,1,0,0:0:0:0:
256,153,65977,1,8,0:0:0:0:
236,156,66035,1,8,0:0:0:0:
290,179,66092,1,8,0:0:0:0:
290,179,66149,1,0,0:0:0:0:
244,162,66235,1,8,0:0:0:0:
246,163,66320,1,0,0:0:0:0:
245,163,66406,1,0,0:0:0:0:
245,163,66492,1,8,0:0:0:0:
245,163,66577,1,8,0:0:0:0:
245,163,66663,1,0,0:0:0:0:
264,181,67177,1,8,0:0:0:0:
264,181,67263,1,8,0:0:0:0:
264,181,67349,1,8,0:0:0:0:
257,180,67692,1,8,0:0:0:0:
256,192,68035,12,8,68206,0:0:0:0:
236,213,68377,5,0,0:0:0:0:
245,193,68492,1,8,0:0:0:0:
245,193,68606,1,8,0:0:0:0:
278,181,68720,1,0,0:0:0:0:
278,181,68835,1,8,0:0:0:0:
278,181,68949,1,8,0:0:0:0:
278,181,69063,1,0,0:0:0:0:
278,181,69177,1,8,0:0:0:0:
278,181,69292,1,8,0:0:0:0:
275,183,69406,1,0,0:0:0:0:
275,186,69635,1,8,0:0:0:0:
278,181,69749,1,0,0:0:0:0:
266,182,69863,1,0,0:0:0:0:
261,185,69977,1,8,0:0:0:0:
261,186,70092,1,0,0:0:0:0:
268,188,70206,1,0,0:0:0:0:
268,188,70320,1,8,0:0:0:0:
268,188,70435,1,0,0:0:0:0:
275,186,70549,1,0,0:0:0:0:
275,186,70663,1,8,0:0:0:0:
268,188,70777,1,0,0:0:0:0:
268,188,71006,1,8,0:0:0:0:
268,188,71120,1,0,0:0:0:0:
283,192,71235,1,8,0:0:0:0:
283,192,71349,1,8,0:0:0:0:
283,192,71463,1,0,0:0:0:0:
283,192,71577,1,8,0:0:0:0:
283,192,71692,1,8,0:0:0:0:
283,192,71806,1,0,0:0:0:0:
268,175,71920,1,0,0:0:0:0:
283,192,72035,1,8,0:0:0:0:
281,192,72149,1,0,0:0:0:0:
265,188,72263,1,8,0:0:0:0:
265,188,72377,1,8,0:0:0:0:
264,190,72492,1,0,0:0:0:0:
264,190,72606,1,8,0:0:0:0:
264,190,72720,1,8,0:0:0:0:
264,190,72835,1,0,0:0:0:0:
264,190,72949,1,8,0:0:0:0:
264,190,73063,1,8,0:0:0:0:
264,190,73177,1,0,0:0:0:0:
265,188,73292,1,8,0:0:0:0:
265,188,73406,1,8,0:0:0:0:
264,190,73520,1,4,0:0:0:0:
256,183,73749,1,0,0:0:0:0:
256,183,73863,1,8,0:0:0:0:
256,183,74092,1,0,0:0:0:0:
256,183,74206,1,0,0:0:0:0:
259,182,74435,1,0,0:0:0:0:
271,161,74549,1,8,0:0:0:0:
256,175,74777,1,8,0:0:0:0:
256,175,74892,1,0,0:0:0:0:
276,174,75120,1,0,0:0:0:0:
276,174,75235,1,8,0:0:0:0:
276,174,75463,1,0,0:0:0:0:
276,174,75577,1,0,0:0:0:0:
269,133,75692,1,0,0:0:0:0:
269,133,75749,1,0,0:0:0:0:
269,133,75806,1,0,0:0:0:0:
269,133,75920,1,8,0:0:0:0:
273,160,76149,1,8,0:0:0:0:
273,160,76263,1,0,0:0:0:0:
266,180,76492,1,0,0:0:0:0:
266,180,76606,1,8,0:0:0:0:
266,181,76835,1,0,0:0:0:0:
266,181,76949,1,0,0:0:0:0:
266,181,77177,1,0,0:0:0:0:
266,181,77292,1,8,0:0:0:0:
266,180,77520,1,8,0:0:0:0:
266,180,77635,1,0,0:0:0:0:
251,187,77749,1,8,0:0:0:0:
251,187,77863,1,8,0:0:0:0:
251,187,77977,1,0,0:0:0:0:
251,187,78206,1,0,0:0:0:0:
251,187,78320,1,8,0:0:0:0:
251,187,78435,1,8,0:0:0:0:
251,187,78549,1,0,0:0:0:0:
251,187,78663,1,8,0:0:0:0:
255,173,79006,1,4,0:0:0:0:
250,178,79349,1,8,0:0:0:0:
248,177,79406,1,0,0:0:0:0:
248,177,79463,1,8,0:0:0:0:
248,177,79520,1,0,0:0:0:0:
248,177,79577,1,8,0:0:0:0:
248,177,79635,1,0,0:0:0:0:
248,177,79692,1,8,0:0:0:0:
211,203,79920,1,0,0:0:0:0:
239,188,80035,1,8,0:0:0:0:
263,207,80263,1,8,0:0:0:0:
261,206,80377,1,0,0:0:0:0:
266,179,80720,1,8,0:0:0:0:
294,212,80777,1,0,0:0:0:0:
266,179,80835,1,8,0:0:0:0:
284,213,80892,1,0,0:0:0:0:
284,213,80949,1,8,0:0:0:0:
284,213,81006,1,0,0:0:0:0:
284,213,81063,1,8,0:0:0:0:
255,216,81292,1,0,0:0:0:0:
257,181,81349,1,0,0:0:0:0:
253,180,81406,1,8,0:0:0:0:
279,187,81520,1,0,0:0:0:0:
279,187,81635,1,8,0:0:0:0:
279,187,81749,1,0,0:0:0:0:
266,186,82092,1,8,0:0:0:0:
266,186,82149,1,0,0:0:0:0:
266,186,82206,1,8,0:0:0:0:
266,186,82263,1,0,0:0:0:0:
268,186,82320,1,8,0:0:0:0:
268,186,82377,1,0,0:0:0:0:
266,176,82435,1,8,0:0:0:0:
278,195,82663,1,0,0:0:0:0:
286,195,82777,1,8,0:0:0:0:
198,178,82892,1,8,0:0:0:0:
286,195,83006,1,8,0:0:0:0:
286,195,83120,1,0,0:0:0:0:
258,179,83349,1,0,0:0:0:0:
258,179,83463,1,8,0:0:0:0:
258,179,83692,1,8,0:0:0:0:
258,179,83806,1,8,0:0:0:0:
286,195,83920,1,0,0:0:0:0:
286,195,84035,1,8,0:0:0:0:
347,144,84263,1,8,0:0:0:0:
266,183,84492,1,4,0:0:0:0:
261,195,84663,1,0,0:0:0:0:
261,195,84749,1,8,0:0:0:0:
261,195,84835,1,0,0:0:0:0:
276,183,85006,1,8,0:0:0:0:
249,191,85177,1,8,0:0:0:0:
246,188,85263,1,0,0:0:0:0:
246,188,85435,1,0,0:0:0:0:
246,188,85520,1,8,0:0:0:0:
180,255,85606,1,8,0:0:0:0:
261,195,85692,1,0,0:0:0:0:
256,181,85863,1,0,0:0:0:0:
258,183,86035,1,0,0:0:0:0:
258,183,86120,1,8,0:0:0:0:
258,183,86206,1,0,0:0:0:0:
258,183,86377,1,8,0:0:0:0:
258,183,86549,1,0,0:0:0:0:
272,186,86635,1,8,0:0:0:0:
272,186,86806,1,8,0:0:0:0:
272,186,86892,1,0,0:0:0:0:
264,179,86977,1,0,0:0:0:0:
236,185,87063,1,8,0:0:0:0:
258,183,87120,1,8,0:0:0:0:
258,183,87177,1,8,0:0:0:0:
258,183,87235,1,0,0:0:0:0:
247,195,87320,1,8,0:0:0:0:
247,195,87406,1,0,0:0:0:0:
264,220,87463,1,0,0:0:0:0:
281,222,87520,1,0,0:0:0:0:
278,222,87577,1,8,0:0:0:0:
265,183,87663,1,0,0:0:0:0:
265,183,87749,1,8,0:0:0:0:
263,183,87806,1,0,0:0:0:0:
253,217,87863,1,0,0:0:0:0:
250,206,87920,1,8,0:0:0:0:
249,182,88006,1,8,0:0:0:0:
261,154,88092,1,0,0:0:0:0:
259,153,88149,1,0,0:0:0:0:
259,153,88206,1,0,0:0:0:0:
259,153,88263,1,8,0:0:0:0:
259,153,88320,1,8,0:0:0:0:
228,202,88377,1,8,0:0:0:0:
259,153,88435,1,0,0:0:0:0:
244,184,88520,1,0,0:0:0:0:
261,163,88606,1,8,0:0:0:0:
267,178,89120,1,8,0:0:0:0:
267,178,89206,1,8,0:0:0:0:
267,178,89292,1,8,0:0:0:0:
280,173,89635,1,8,0:0:0:0:
280,173,89977,1,4,0:0:0:0:
267,178,90149,1,8,0:0:0:0:
267,178,90235,1,8,0:0:0:0:
267,178,90320,1,0,0:0:0:0:
256,177,90492,1,8,0:0:0:0:
291,167,90663,1,0,0:0:0:0:
272,170,90835,1,0,0:0:0:0:
272,170,90920,1,0,0:0:0:0:
272,170,91006,1,8,0:0:0:0:
272,170,91177,1,8,0:0:0:0:
264,167,91349,1,0,0:0:0:0:
264,167,91520,1,8,0:0:0:0:
264,167,91606,1,0,0:0:0:0:
264,167,91692,1,8,0:0:0:0:
264,167,91777,1,8,0:0:0:0:
264,167,91863,1,0,0:0:0:0:
264,167,92035,1,8,0:0:0:0:
264,167,92206,1,0,0:0:0:0:
264,167,92292,1,0,0:0:0:0:
264,167,92377,1,8,0:0:0:0:
196,173,92463,1,8,0:0:0:0:
264,167,92549,1,0,0:0:0:0:
264,167,92720,1,0,0:0:0:0:
276,168,92892,1,8,0:0:0:0:
264,167,92977,1,8,0:0:0:0:
264,167,93063,1,0,0:0:0:0:
254,162,93235,1,8,0:0:0:0:
254,162,93406,1,0,0:0:0:0:
254,163,93577,1,0,0:0:0:0:
254,163,93663,1,0,0:0:0:0:
254,163,93749,1,8,0:0:0:0:
249,159,93920,1,0,0:0:0:0:
271,167,94092,1,8,0:0:0:0:
271,167,94177,1,0,0:0:0:0:
271,167,94349,1,0,0:0:0:0:
271,167,94435,1,8,0:0:0:0:
271,167,94606,1,0,0:0:0:0:
271,167,94692,1,0,0:0:0:0:
271,167,94777,1,8,0:0:0:0:
271,167,94863,1,0,0:0:0:0:
271,167,94949,1,0,0:0:0:0:
271,167,95120,1,8,0:0:0:0:
271,167,95292,1,8,0:0:0:0:
271,167,95463,1,0,0:0:0:0:
271,167,95635,1,8,0:0:0:0:
266,178,95720,1,8,0:0:0:0:
266,178,95806,1,0,0:0:0:0:
266,178,95977,1,8,0:0:0:0:
251,173,96149,1,0,0:0:0:0:
266,172,96320,1,0,0:0:0:0:
257,171,96406,1,0,0:0:0:0:
258,171,96492,1,8,0:0:0:0:
250,192,96663,1,0,0:0:0:0:
259,169,96835,1,8,0:0:0:0:
259,169,97006,1,0,0:0:0:0:
259,169,97092,1,0,0:0:0:0:
259,169,97177,1,8,0:0:0:0:
259,169,97263,1,8,0:0:0:0:
259,169,97349,1,0,0:0:0:0:
266,178,97520,1,8,0:0:0:0:
264,177,97692,1,8,0:0:0:0:
264,177,97777,1,0,0:0:0:0:
264,177,97863,1,8,0:0:0:0:
261,176,97949,1,8,0:0:0:0:
261,176,98035,1,0,0:0:0:0:
261,176,98206,1,8,0:0:0:0:
261,176,98377,1,0,0:0:0:0:
266,178,98463,1,0,0:0:0:0:
266,178,98549,1,8,0:0:0:0:
264,177,98720,1,0,0:0:0:0:
264,177,98892,1,8,0:0:0:0:
261,176,99063,1,8,0:0:0:0:
294,178,99149,1,8,0:0:0:0:
281,179,99235,1,0,0:0:0:0:
253,167,99406,1,8,0:0:0:0:
263,165,99577,1,4,0:0:0:0:
263,165,99920,1,4,0:0:0:0:
263,165,100092,1,4,0:0:0:0:
261,173,100435,1,4,0:0:0:0:
250,170,100606,1,12,0:0:0:0:
263,165,100777,1,0,0:0:0:0:
263,165,100863,1,8,0:0:0:0:
263,165,100949,1,0,0:0:0:0:
261,182,101120,1,8,0:0:0:0:
261,182,101206,1,8,0:0:0:0:
261,183,101292,1,0,0:0:0:0:
256,181,101463,1,8,0:0:0:0:
255,181,101635,1,0,0:0:0:0:
251,183,101806,1,0,0:0:0:0:
251,183,101892,1,0,0:0:0:0:
251,182,101977,1,8,0:0:0:0:
226,173,102149,1,0,0:0:0:0:
260,173,102320,1,8,0:0:0:0:
265,171,102492,1,8,0:0:0:0:
265,171,102577,1,0,0:0:0:0:
265,171,102663,1,8,0:0:0:0:
265,171,102749,1,8,0:0:0:0:
265,171,102835,1,0,0:0:0:0:
267,178,103006,1,8,0:0:0:0:
276,174,103177,1,0,0:0:0:0:
276,175,103263,1,0,0:0:0:0:
276,175,103349,1,8,0:0:0:0:
276,175,103435,1,8,0:0:0:0:
276,175,103520,1,0,0:0:0:0:
276,181,103692,1,0,0:0:0:0:
265,171,103863,1,8,0:0:0:0:
306,173,103949,1,8,0:0:0:0:
306,173,104035,1,0,0:0:0:0:
276,174,104206,1,8,0:0:0:0:
276,167,104377,1,0,0:0:0:0:
271,166,104549,1,0,0:0:0:0:
271,166,104635,1,0,0:0:0:0:
271,166,104720,1,8,0:0:0:0:
271,166,104892,1,8,0:0:0:0:
271,166,104977,1,0,0:0:0:0:
271,166,105063,1,8,0:0:0:0:
228,165,105149,1,8,0:0:0:0:
285,186,105235,1,0,0:0:0:0:
271,166,105406,1,8,0:0:0:0:
253,185,105577,1,8,0:0:0:0:
261,175,105663,1,8,0:0:0:0:
261,175,105749,1,0,0:0:0:0:
260,165,105835,1,0,0:0:0:0:
260,165,105920,1,0,0:0:0:0:
260,165,106006,1,0,0:0:0:0:
260,165,106092,1,8,0:0:0:0:
280,180,106263,1,8,0:0:0:0:
271,166,106435,1,0,0:0:0:0:
271,168,106520,1,0,0:0:0:0:
271,168,106606,1,8,0:0:0:0:
271,168,106692,1,8,0:0:0:0:
271,168,106777,1,0,0:0:0:0:
271,168,106863,1,0,0:0:0:0:
271,168,106949,1,8,0:0:0:0:
271,168,107035,1,8,0:0:0:0:
288,165,107120,1,0,0:0:0:0:
286,160,107206,1,8,0:0:0:0:
286,160,107292,1,8,0:0:0:0:
286,160,107377,1,0,0:0:0:0:
286,160,107463,1,8,0:0:0:0:
292,169,107635,1,0,0:0:0:0:
280,186,107806,1,8,0:0:0:0:
280,186,107892,1,8,0:0:0:0:
277,183,107977,1,0,0:0:0:0:
277,183,108063,1,0,0:0:0:0:
271,166,108149,1,8,0:0:0:0:
240,162,108235,1,8,0:0:0:0:
240,162,108320,1,0,0:0:0:0:
240,162,108406,1,0,0:0:0:0:
240,162,108492,1,8,0:0:0:0:
240,162,108577,1,8,0:0:0:0:
240,162,108663,1,0,0:0:0:0:
240,162,108749,1,8,0:0:0:0:
240,162,108835,1,0,0:0:0:0:
241,154,109006,1,8,0:0:0:0:
261,170,109177,1,0,0:0:0:0:
261,170,109235,1,8,0:0:0:0:
261,170,109292,1,8,0:0:0:0:
261,170,109349,1,0,0:0:0:0:
260,183,109435,1,8,0:0:0:0:
261,182,109520,1,0,0:0:0:0:
261,182,109606,1,0,0:0:0:0:
246,206,109692,1,8,0:0:0:0:
249,200,109777,1,0,0:0:0:0:
271,178,109863,1,8,0:0:0:0:
271,178,109920,1,0,0:0:0:0:
271,178,109977,1,0,0:0:0:0:
271,178,110035,1,8,0:0:0:0:
263,198,110120,1,0,0:0:0:0:
260,198,110206,1,8,0:0:0:0:
261,181,110292,1,8,0:0:0:0:
261,181,110377,1,0,0:0:0:0:
260,183,110463,1,8,0:0:0:0:
261,182,110549,1,0,0:0:0:0:
261,182,110606,1,0,0:0:0:0:
261,176,110663,1,0,0:0:0:0:
261,176,110720,1,8,0:0:0:0:
251,188,110806,1,0,0:0:0:0:
269,193,110892,1,8,0:0:0:0:
276,189,110949,1,8,0:0:0:0:
276,189,111006,1,8,0:0:0:0:
276,189,111063,1,0,0:0:0:0:
251,175,111149,1,8,0:0:0:0:
268,178,111235,1,0,0:0:0:0:
268,178,111292,1,8,0:0:0:0:
272,186,111349,1,8,0:0:0:0:
272,186,111406,1,8,0:0:0:0:
290,198,111492,1,0,0:0:0:0:
290,198,111577,1,8,0:0:0:0:
290,198,111749,1,8,0:0:0:0:
275,205,111835,1,8,0:0:0:0:
275,205,111920,1,4,0:0:0:0:
263,192,112949,1,0,0:0:0:0:
263,192,113292,1,0,0:0:0:0:
309,193,114663,1,8,0:0:0:0:
269,179,115692,1,0,0:0:0:0:
269,179,116035,1,8,0:0:0:0:
269,179,116120,1,8,0:0:0:0:
269,179,116206,1,0,0:0:0:0:
281,178,117749,1,0,0:0:0:0:
262,178,118263,1,8,0:0:0:0:
278,171,118777,1,8,0:0:0:0:
278,171,119977,1,8,0:0:0:0:
278,171,120063,1,8,0:0:0:0:
278,171,120149,1,0,0:0:0:0:
278,171,121177,1,0,0:0:0:0:
278,171,121520,1,8,0:0:0:0:
246,187,122892,1,0,0:0:0:0:
246,187,123235,1,0,0:0:0:0:
246,187,123577,1,12,0:0:0:0:
252,177,124263,1,0,0:0:0:0:
252,177,124606,1,0,0:0:0:0:
252,177,124949,1,12,0:0:0:0:
259,180,125635,1,0,0:0:0:0:
259,180,125977,1,0,0:0:0:0:
259,180,126320,1,12,0:0:0:0:
259,180,127006,1,0,0:0:0:0:
259,180,127349,1,0,0:0:0:0:
259,180,127692,1,12,0:0:0:0:
259,180,128377,1,0,0:0:0:0:
259,180,128720,1,0,0:0:0:0:
259,180,129063,1,12,0:0:0:0:
259,180,129749,1,0,0:0:0:0:
259,180,130092,1,0,0:0:0:0:
259,180,130435,1,12,0:0:0:0:
259,180,131120,1,0,0:0:0:0:
259,180,131463,1,0,0:0:0:0:
259,180,131806,1,12,0:0:0:0:
302,176,132492,1,0,0:0:0:0:
301,168,132663,1,0,0:0:0:0:
301,168,132749,1,8,0:0:0:0:
301,168,132835,1,8,0:0:0:0:
298,169,133006,1,8,0:0:0:0:
298,169,133092,1,8,0:0:0:0:
298,169,133177,1,0,0:0:0:0:
298,169,133263,1,8,0:0:0:0:
298,169,133349,1,0,0:0:0:0:
298,169,133435,1,0,0:0:0:0:
298,169,133520,1,8,0:0:0:0:
277,174,133692,1,8,0:0:0:0:
277,174,133863,1,4,0:0:0:0:
281,163,134206,1,8,0:0:0:0:
269,180,134377,1,8,0:0:0:0:
261,154,134720,1,0,0:0:0:0:
269,180,134892,1,8,0:0:0:0:
266,174,135063,1,8,0:0:0:0:
274,201,135235,2,0,L|215:198,10,35
267,176,136263,1,12,0:0:0:0:
259,176,136606,1,0,0:0:0:0:
257,176,136949,1,0,0:0:0:0:
257,176,137120,1,8,0:0:0:0:
259,176,137463,1,0,0:0:0:0:
259,176,137634,1,8,0:0:0:0:
257,176,137806,1,0,0:0:0:0:
282,191,137977,2,0,L|230:180,10,35
266,180,139006,1,12,0:0:0:0:
266,180,139177,1,12,0:0:0:0:
278,185,139349,1,0,0:0:0:0:
278,185,139692,1,8,0:0:0:0:
278,185,139863,1,0,0:0:0:0:
245,177,140206,1,0,0:0:0:0:
278,185,140377,1,8,0:0:0:0:
278,185,140549,1,0,0:0:0:0:
275,174,140720,2,0,L|331:178,10,35
281,188,141749,1,12,0:0:0:0:
281,188,142092,1,0,0:0:0:0:
281,188,142434,1,0,0:0:0:0:
270,178,142606,1,8,0:0:0:0:
270,178,142949,1,0,0:0:0:0:
270,178,143120,1,8,0:0:0:0:
270,178,143292,1,8,0:0:0:0:
253,187,143463,1,0,0:0:0:0:
268,194,143634,1,8,0:0:0:0:
266,188,143720,1,8,0:0:0:0:
266,188,143806,1,8,0:0:0:0:
256,178,143977,1,8,0:0:0:0:
256,178,144149,1,0,0:0:0:0:
256,178,144320,1,12,0:0:0:0:
256,178,144492,1,12,0:0:0:0:
286,194,144835,1,4,0:0:0:0:
272,188,145006,1,0,0:0:0:0:
265,199,145092,1,0,0:0:0:0:
272,188,145177,1,8,0:0:0:0:
273,187,145349,1,0,0:0:0:0:
273,187,145435,1,8,0:0:0:0:
273,187,145520,1,0,0:0:0:0:
273,187,145606,1,8,0:0:0:0:
273,187,145692,1,0,0:0:0:0:
267,179,145863,1,8,0:0:0:0:
267,179,146034,1,8,0:0:0:0:
267,179,146120,1,8,0:0:0:0:
267,179,146206,1,0,0:0:0:0:
267,179,146377,1,0,0:0:0:0:
267,179,146463,1,0,0:0:0:0:
267,179,146549,1,8,0:0:0:0:
260,175,146720,1,8,0:0:0:0:
260,175,146806,1,8,0:0:0:0:
260,175,146892,1,0,0:0:0:0:
260,175,146977,1,8,0:0:0:0:
260,175,147063,1,0,0:0:0:0:
258,164,147234,1,12,0:0:0:0:
258,164,147577,1,0,0:0:0:0:
252,192,147749,1,0,0:0:0:0:
252,192,147834,1,0,0:0:0:0:
252,192,147920,1,8,0:0:0:0:
260,175,148092,1,0,0:0:0:0:
265,174,148177,1,8,0:0:0:0:
265,174,148263,1,0,0:0:0:0:
265,174,148349,1,8,0:0:0:0:
265,174,148434,1,0,0:0:0:0:
253,171,148606,1,8,0:0:0:0:
254,172,148777,1,0,0:0:0:0:
254,172,148863,1,8,0:0:0:0:
254,172,148949,1,8,0:0:0:0:
257,166,149120,1,0,0:0:0:0:
257,166,149292,1,8,0:0:0:0:
257,166,149377,1,0,0:0:0:0:
253,171,149549,1,0,0:0:0:0:
253,171,149634,1,8,0:0:0:0:
254,172,149720,1,8,0:0:0:0:
254,172,149806,1,0,0:0:0:0:
254,172,149977,1,12,0:0:0:0:
253,172,150320,1,0,0:0:0:0:
253,173,150492,1,0,0:0:0:0:
253,171,150577,1,0,0:0:0:0:
253,171,150663,1,8,0:0:0:0:
254,172,150834,1,0,0:0:0:0:
254,172,150920,1,8,0:0:0:0:
254,172,151006,1,0,0:0:0:0:
253,172,151092,1,8,0:0:0:0:
253,172,151177,1,0,0:0:0:0:
277,173,151349,1,8,0:0:0:0:
277,173,151520,1,0,0:0:0:0:
277,173,151606,1,8,0:0:0:0:
277,173,151692,1,0,0:0:0:0:
211,175,151863,1,0,0:0:0:0:
261,183,152034,1,8,0:0:0:0:
261,183,152206,1,0,0:0:0:0:
261,183,152292,1,8,0:0:0:0:
261,183,152377,1,8,0:0:0:0:
261,183,152463,1,8,0:0:0:0:
261,183,152549,1,0,0:0:0:0:
261,183,152720,1,12,0:0:0:0:
235,156,153063,1,0,0:0:0:0:
235,156,153234,1,0,0:0:0:0:
235,156,153320,1,0,0:0:0:0:
235,156,153406,1,8,0:0:0:0:
266,171,153577,1,0,0:0:0:0:
266,171,153663,1,8,0:0:0:0:
266,171,153749,1,0,0:0:0:0:
266,171,153834,1,8,0:0:0:0:
266,171,153920,1,0,0:0:0:0:
266,171,154092,1,8,0:0:0:0:
266,171,154263,1,0,0:0:0:0:
266,171,154434,1,0,0:0:0:0:
266,171,154606,1,0,0:0:0:0:
250,171,154692,1,0,0:0:0:0:
250,171,154777,1,8,0:0:0:0:
266,186,154863,1,8,0:0:0:0:
250,171,154949,1,0,0:0:0:0:
252,167,155120,1,8,0:0:0:0:
252,167,155292,1,8,0:0:0:0:
252,167,155463,1,8,0:0:0:0:
252,167,155549,1,8,0:0:0:0:
252,167,155635,1,8,0:0:0:0:
250,171,155720,1,8,0:0:0:0:
250,171,155806,1,4,0:0:0:0:
276,188,156063,1,0,0:0:0:0:
276,188,156149,1,8,0:0:0:0:
276,188,156320,1,0,0:0:0:0:
276,188,156406,1,0,0:0:0:0:
276,188,156492,1,8,0:0:0:0:
286,168,156577,1,0,0:0:0:0:
278,166,156663,1,8,0:0:0:0:
251,180,156835,1,0,0:0:0:0:
251,180,156920,1,8,0:0:0:0:
251,181,157006,1,0,0:0:0:0:
265,185,157177,1,4,0:0:0:0:
285,171,157435,1,8,0:0:0:0:
285,171,157520,1,0,0:0:0:0:
285,171,157692,1,8,0:0:0:0:
285,171,157777,1,8,0:0:0:0:
285,171,157863,1,0,0:0:0:0:
285,171,157949,1,0,0:0:0:0:
285,171,158035,1,8,0:0:0:0:
285,171,158120,1,0,0:0:0:0:
285,171,158206,1,8,0:0:0:0:
285,171,158377,1,0,0:0:0:0:
289,152,158549,1,4,0:0:0:0:
272,174,158806,1,0,0:0:0:0:
272,174,158892,1,8,0:0:0:0:
272,174,159063,1,8,0:0:0:0:
272,174,159149,1,8,0:0:0:0:
272,174,159235,1,0,0:0:0:0:
272,174,159320,1,0,0:0:0:0:
272,174,159463,1,0,0:0:0:0:
279,178,159577,1,8,0:0:0:0:
279,178,159635,1,8,0:0:0:0:
279,178,159692,1,8,0:0:0:0:
279,178,159749,1,0,0:0:0:0:
257,178,159920,1,4,0:0:0:0:
268,166,160435,1,12,0:0:0:0:
268,166,160949,1,12,0:0:0:0:
261,154,161292,1,4,0:0:0:0:
268,166,161549,1,0,0:0:0:0:
268,166,161635,1,8,0:0:0:0:
251,197,161806,1,0,0:0:0:0:
268,166,161920,1,8,0:0:0:0:
268,166,161977,1,0,0:0:0:0:
266,165,162149,1,8,0:0:0:0:
266,165,162320,1,0,0:0:0:0:
268,166,162406,1,0,0:0:0:0:
268,166,162492,1,0,0:0:0:0:
268,174,162663,1,4,0:0:0:0:
268,174,162920,1,8,0:0:0:0:
268,174,163006,1,0,0:0:0:0:
276,178,163177,1,8,0:0:0:0:
276,178,163263,1,8,0:0:0:0:
276,178,163349,1,0,0:0:0:0:
276,178,163435,1,0,0:0:0:0:
276,178,163520,1,8,0:0:0:0:
276,178,163606,1,0,0:0:0:0:
276,178,163692,1,8,0:0:0:0:
265,164,163863,1,0,0:0:0:0:
265,164,164035,1,4,0:0:0:0:
265,164,164292,1,0,0:0:0:0:
265,164,164377,1,8,0:0:0:0:
265,164,164549,1,0,0:0:0:0:
265,164,164635,1,0,0:0:0:0:
265,164,164720,1,8,0:0:0:0:
265,164,164806,1,0,0:0:0:0:
265,164,164977,1,0,0:0:0:0:
265,164,165063,1,8,0:0:0:0:
251,169,165235,1,0,0:0:0:0:
261,174,165406,1,4,0:0:0:0:
261,174,165920,1,12,0:0:0:0:
261,174,166435,1,12,0:0:0:0:
261,169,166777,1,4,0:0:0:0:
261,169,166949,1,0,0:0:0:0:
261,169,167034,1,8,0:0:0:0:
261,169,167120,1,0,0:0:0:0:
261,169,167206,1,0,0:0:0:0:
261,169,167292,1,8,0:0:0:0:
272,188,167463,1,0,0:0:0:0:
272,188,167549,1,0,0:0:0:0:
272,188,167720,1,8,0:0:0:0:
272,188,167806,1,0,0:0:0:0:
265,188,167977,1,8,0:0:0:0:
265,188,168149,1,0,0:0:0:0:
265,188,168320,1,0,0:0:0:0:
265,188,168406,1,8,0:0:0:0:
271,179,168492,1,0,0:0:0:0:
266,150,168577,1,0,0:0:0:0:
251,181,168663,1,8,0:0:0:0:
295,189,168834,1,0,0:0:0:0:
291,178,168920,1,8,0:0:0:0:
291,178,169092,1,8,0:0:0:0:
291,178,169177,1,0,0:0:0:0:
270,178,169349,1,8,0:0:0:0:
270,178,169406,1,8,0:0:0:0:
271,179,169463,1,8,0:0:0:0:
271,179,169520,1,0,0:0:0:0:
276,170,169692,1,0,0:0:0:0:
276,170,169777,1,8,0:0:0:0:
276,170,169863,1,0,0:0:0:0:
276,170,169949,1,0,0:0:0:0:
276,170,170034,1,8,0:0:0:0:
276,170,170206,1,8,0:0:0:0:
274,173,170292,1,0,0:0:0:0:
276,170,170463,1,0,0:0:0:0:
276,170,170549,1,8,0:0:0:0:
276,170,170634,1,8,0:0:0:0:
276,170,170720,1,0,0:0:0:0:
276,170,170806,1,0,0:0:0:0:
276,170,170892,1,8,0:0:0:0:
259,172,171063,1,0,0:0:0:0:
259,172,171149,1,8,0:0:0:0:
259,172,171234,1,0,0:0:0:0:
259,172,171406,1,8,0:0:0:0:
259,172,171492,1,0,0:0:0:0:
259,172,171577,1,8,0:0:0:0:
259,172,171663,1,8,0:0:0:0:
220,191,171749,1,0,0:0:0:0:
259,172,171835,1,0,0:0:0:0:
259,172,171920,1,8,0:0:0:0:
259,172,172006,1,0,0:0:0:0:
289,153,172092,1,8,0:0:0:0:
287,153,172149,1,8,0:0:0:0:
286,153,172206,1,8,0:0:0:0:
286,153,172263,1,0,0:0:0:0:
271,156,172349,1,8,0:0:0:0:
271,156,172434,1,0,0:0:0:0:
271,156,172520,1,0,0:0:0:0:
271,156,172606,1,8,0:0:0:0:
271,156,172692,1,8,0:0:0:0:
271,156,172777,1,0,0:0:0:0:
271,156,172863,1,8,0:0:0:0:
271,156,172949,1,0,0:0:0:0:
268,157,173034,1,8,0:0:0:0:
268,157,173120,1,8,0:0:0:0:
303,127,173206,1,8,0:0:0:0:
297,133,173292,1,0,0:0:0:0:
272,171,173349,1,8,0:0:0:0:
272,171,173406,1,8,0:0:0:0:
272,171,173463,1,0,0:0:0:0:
272,171,173520,1,8,0:0:0:0:
272,171,173577,1,8,0:0:0:0:
272,171,173635,1,0,0:0:0:0:
271,135,173720,1,0,0:0:0:0:
284,183,173806,1,8,0:0:0:0:
284,183,173892,1,0,0:0:0:0:
284,183,173977,1,8,0:0:0:0:
284,183,174063,1,8,0:0:0:0:
284,183,174149,1,0,0:0:0:0:
284,183,174234,1,8,0:0:0:0:
284,183,174320,1,0,0:0:0:0:
284,183,174406,1,8,0:0:0:0:
284,183,174492,1,8,0:0:0:0:
284,183,174577,1,0,0:0:0:0:
246,161,174663,1,8,0:0:0:0:
246,161,174720,1,0,0:0:0:0:
246,161,174777,1,0,0:0:0:0:
273,183,174835,1,8,0:0:0:0:
271,180,174920,1,0,0:0:0:0:
256,175,175006,1,8,0:0:0:0:
256,170,175063,1,8,0:0:0:0:
256,169,175120,1,8,0:0:0:0:
256,169,175177,1,0,0:0:0:0:
256,169,175234,1,0,0:0:0:0:
256,168,175292,1,0,0:0:0:0:
256,168,175349,1,8,0:0:0:0:
251,173,175434,1,8,0:0:0:0:
269,172,175520,1,0,0:0:0:0:
269,172,175577,1,0,0:0:0:0:
269,172,175634,1,0,0:0:0:0:
269,172,175692,1,8,0:0:0:0:
259,181,175749,1,8,0:0:0:0:
251,152,175806,1,8,0:0:0:0:
251,153,175863,1,0,0:0:0:0:
251,153,175949,1,0,0:0:0:0:
251,153,176034,1,8,0:0:0:0:
251,153,176092,1,8,0:0:0:0:
251,153,176149,1,8,0:0:0:0:
256,169,176206,1,8,0:0:0:0:
271,188,176263,1,8,0:0:0:0:
266,168,176320,1,8,0:0:0:0:
271,180,176377,1,0,0:0:0:0:
276,182,177063,1,8,0:0:0:0:
276,182,177149,1,8,0:0:0:0:
276,182,177235,1,0,0:0:0:0:
276,182,177320,1,0,0:0:0:0:
271,180,177406,1,8,0:0:0:0:
276,182,177492,1,8,0:0:0:0:
276,182,177577,1,8,0:0:0:0:
276,182,177663,1,8,0:0:0:0:
276,182,177749,1,0,0:0:0:0:
276,182,177835,1,8,0:0:0:0:
276,182,177920,1,0,0:0:0:0:
276,182,178006,1,0,0:0:0:0:
276,182,178092,1,8,0:0:0:0:
276,182,178177,1,8,0:0:0:0:
276,182,178263,1,0,0:0:0:0:
276,182,178349,1,8,0:0:0:0:
271,180,178435,1,0,0:0:0:0:
276,182,178520,1,0,0:0:0:0:
276,182,178606,1,8,0:0:0:0:
265,176,178692,1,8,0:0:0:0:
260,179,178777,1,0,0:0:0:0:
260,179,178863,1,0,0:0:0:0:
260,179,178949,1,8,0:0:0:0:
260,179,179035,1,0,0:0:0:0:
254,182,179120,1,8,0:0:0:0:
254,182,179206,1,8,0:0:0:0:
254,182,179292,1,8,0:0:0:0:
254,182,179377,1,0,0:0:0:0:
254,182,179463,1,8,0:0:0:0:
254,182,179549,1,0,0:0:0:0:
254,182,179635,1,8,0:0:0:0:
254,182,179720,1,8,0:0:0:0:
260,179,179806,1,0,0:0:0:0:
260,179,179892,1,8,0:0:0:0:
260,179,179977,1,8,0:0:0:0:
260,179,180063,1,8,0:0:0:0:
265,177,180149,1,0,0:0:0:0:
268,175,180235,1,0,0:0:0:0:
268,175,180320,1,8,0:0:0:0:
268,175,180406,1,8,0:0:0:0:
254,182,180492,1,0,0:0:0:0:
283,166,180577,1,0,0:0:0:0:
281,167,180620,1,0,0:0:0:0:
278,167,180663,1,8,0:0:0:0:
260,179,180835,1,0,0:0:0:0:
260,179,180920,1,8,0:0:0:0:
260,179,181006,1,0,0:0:0:0:
260,179,181092,1,0,0:0:0:0:
258,174,181177,1,8,0:0:0:0:
252,173,181349,1,0,0:0:0:0:
252,173,181435,1,8,0:0:0:0:
266,167,181606,1,0,0:0:0:0:
266,167,181692,1,8,0:0:0:0:
266,167,181777,1,8,0:0:0:0:
266,167,181863,1,0,0:0:0:0:
174,200,181906,1,0,0:0:0:0:
214,183,181949,1,0,0:0:0:0:
266,167,182035,1,8,0:0:0:0:
253,176,182120,1,0,0:0:0:0:
252,173,182292,1,0,0:0:0:0:
252,173,182377,1,8,0:0:0:0:
241,161,182549,1,8,0:0:0:0:
241,161,182635,1,8,0:0:0:0:
256,167,182720,1,8,0:0:0:0:
256,167,182806,1,0,0:0:0:0:
256,167,182892,1,8,0:0:0:0:
256,167,182977,1,0,0:0:0:0:
256,167,183063,1,8,0:0:0:0:
256,167,183149,1,8,0:0:0:0:
256,167,183235,1,0,0:0:0:0:
266,163,183406,1,0,0:0:0:0:
266,164,183492,1,0,0:0:0:0:
266,164,183577,1,8,0:0:0:0:
261,171,183749,1,0,0:0:0:0:
261,171,183920,1,0,0:0:0:0:
261,171,184006,1,0,0:0:0:0:
261,171,184177,1,8,0:0:0:0:
261,171,184263,1,0,0:0:0:0:
261,171,184435,1,8,0:0:0:0:
261,171,184606,1,0,0:0:0:0:
249,203,184692,1,8,0:0:0:0:
250,188,184863,1,8,0:0:0:0:
250,188,184949,1,0,0:0:0:0:
250,188,185035,1,0,0:0:0:0:
250,188,185120,1,8,0:0:0:0:
256,183,185206,1,0,0:0:0:0:
269,185,185377,1,0,0:0:0:0:
269,185,185463,1,8,0:0:0:0:
269,185,185635,1,8,0:0:0:0:
262,181,185806,1,0,0:0:0:0:
262,181,185892,1,8,0:0:0:0:
262,181,185977,1,0,0:0:0:0:
264,174,186149,1,0,0:0:0:0:
264,174,186235,1,0,0:0:0:0:
264,174,186320,1,0,0:0:0:0:
264,174,186492,1,0,0:0:0:0:
264,174,186577,1,0,0:0:0:0:
264,174,186663,1,8,0:0:0:0:
294,168,186835,1,0,0:0:0:0:
294,168,186920,1,8,0:0:0:0:
294,168,187006,1,8,0:0:0:0:
264,174,187177,1,8,0:0:0:0:
264,174,187263,1,8,0:0:0:0:
264,174,187349,1,8,0:0:0:0:
264,174,187520,1,8,0:0:0:0:
264,174,187692,1,0,0:0:0:0:
281,178,187863,1,8,0:0:0:0:
281,178,188035,1,0,0:0:0:0:
281,178,188120,1,8,0:0:0:0:
277,178,188206,1,8,0:0:0:0:
277,178,188292,1,8,0:0:0:0:
277,178,188377,1,0,0:0:0:0:
277,178,188549,1,8,0:0:0:0:
277,178,188720,1,0,0:0:0:0:
281,178,188806,1,0,0:0:0:0:
281,178,188892,1,8,0:0:0:0:
281,178,188977,1,8,0:0:0:0:
281,178,189063,1,0,0:0:0:0:
281,178,189149,1,0,0:0:0:0:
277,178,189235,1,0,0:0:0:0:
277,178,189320,1,8,0:0:0:0:
247,155,189406,1,0,0:0:0:0:
231,168,189492,1,8,0:0:0:0:
266,173,189577,1,8,0:0:0:0:
256,178,189663,1,0,0:0:0:0:
256,178,189749,1,8,0:0:0:0:
256,178,189835,1,0,0:0:0:0:
256,178,189920,1,8,0:0:0:0:
256,178,190006,1,8,0:0:0:0:
256,178,190092,1,0,0:0:0:0:
256,178,190177,1,0,0:0:0:0:
256,178,190263,1,8,0:0:0:0:
256,178,190349,1,0,0:0:0:0:
256,178,190435,1,8,0:0:0:0:
256,178,190520,1,8,0:0:0:0:
256,178,190606,1,8,0:0:0:0:
276,185,190692,1,0,0:0:0:0:
276,185,190777,1,0,0:0:0:0:
271,172,190863,1,8,0:0:0:0:
271,172,190949,1,0,0:0:0:0:
271,172,191035,1,0,0:0:0:0:
271,172,191120,1,8,0:0:0:0:
271,172,191206,1,8,0:0:0:0:
271,172,191292,1,0,0:0:0:0:
272,172,191377,1,8,0:0:0:0:
272,172,191463,1,0,0:0:0:0:
272,172,191549,1,0,0:0:0:0:
272,172,191635,1,8,0:0:0:0:
303,158,191720,1,8,0:0:0:0:
300,163,191806,1,0,0:0:0:0:
290,165,191892,1,0,0:0:0:0:
290,165,191977,1,0,0:0:0:0:
290,165,192063,1,8,0:0:0:0:
290,165,192149,1,0,0:0:0:0:
253,168,192235,1,8,0:0:0:0:
257,164,192320,1,0,0:0:0:0:
257,164,192406,1,0,0:0:0:0:
257,164,192492,1,8,0:0:0:0:
257,164,192577,1,0,0:0:0:0:
257,164,192663,1,8,0:0:0:0:
257,164,192749,1,8,0:0:0:0:
257,164,192835,1,0,0:0:0:0:
257,164,192920,1,0,0:0:0:0:
257,164,193006,1,8,0:0:0:0:
257,164,193092,1,0,0:0:0:0:
257,164,193177,1,8,0:0:0:0:
253,168,193263,1,8,0:0:0:0:
257,164,193349,1,8,0:0:0:0:
257,164,193435,1,0,0:0:0:0:
257,164,193520,1,8,0:0:0:0:
257,164,193606,1,0,0:0:0:0:
257,164,193692,1,8,0:0:0:0:
257,164,193777,1,8,0:0:0:0:
257,164,193863,1,0,0:0:0:0:
257,164,193949,1,8,0:0:0:0:
257,164,194035,1,8,0:0:0:0:
257,164,194120,1,8,0:0:0:0:
257,164,194206,1,0,0:0:0:0:
215,162,194377,1,8,0:0:0:0:
263,173,194463,1,8,0:0:0:0:
263,173,194549,1,0,0:0:0:0:
263,173,194720,1,8,0:0:0:0:
256,172,194777,1,8,0:0:0:0:
256,172,194835,1,8,0:0:0:0:
256,172,194892,1,0,0:0:0:0:
270,160,194977,1,8,0:0:0:0:
270,160,195149,1,8,0:0:0:0:
270,160,195235,1,0,0:0:0:0:
268,165,195406,1,8,0:0:0:0:
268,165,195492,1,8,0:0:0:0:
268,165,195577,1,0,0:0:0:0:
268,165,195749,1,0,0:0:0:0:
268,165,195835,1,0,0:0:0:0:
268,165,195920,1,8,0:0:0:0:
257,178,196092,1,0,0:0:0:0:
257,178,196177,1,0,0:0:0:0:
257,178,196263,1,8,0:0:0:0:
262,174,196349,1,0,0:0:0:0:
286,161,196520,1,0,0:0:0:0:
286,161,196606,1,8,0:0:0:0:
242,172,196777,1,0,0:0:0:0:
245,170,196835,1,8,0:0:0:0:
245,170,196892,1,8,0:0:0:0:
245,170,196949,1,0,0:0:0:0:
266,152,197035,1,8,0:0:0:0:
266,152,197120,1,0,0:0:0:0:
246,163,197206,1,0,0:0:0:0:
266,152,197292,1,8,0:0:0:0:
266,152,197377,1,0,0:0:0:0:
266,158,197463,1,8,0:0:0:0:
265,161,197520,1,0,0:0:0:0:
265,161,197577,1,0,0:0:0:0:
265,161,197635,1,8,0:0:0:0:
266,164,197720,1,0,0:0:0:0:
264,168,197806,1,8,0:0:0:0:
274,173,197892,1,0,0:0:0:0:
261,160,197977,1,8,0:0:0:0:
263,163,198035,1,8,0:0:0:0:
263,163,198092,1,8,0:0:0:0:
263,163,198149,1,8,0:0:0:0:
226,170,198206,1,8,0:0:0:0:
278,173,198263,1,8,0:0:0:0:
278,173,198320,1,0,0:0:0:0:
259,186,199006,1,8,0:0:0:0:
286,183,199092,1,8,0:0:0:0:
286,183,199177,1,0,0:0:0:0:
286,183,199263,1,0,0:0:0:0:
286,183,199349,1,8,0:0:0:0:
286,183,199435,1,8,0:0:0:0:
286,183,199520,1,8,0:0:0:0:
286,183,199606,1,8,0:0:0:0:
286,183,199692,1,0,0:0:0:0:
286,183,199777,1,0,0:0:0:0:
286,183,199863,1,0,0:0:0:0:
286,183,199949,1,0,0:0:0:0:
286,183,200035,1,8,0:0:0:0:
274,173,200120,1,0,0:0:0:0:
273,173,200206,1,0,0:0:0:0:
309,166,200292,1,8,0:0:0:0:
254,167,200377,1,8,0:0:0:0:
258,169,200463,1,0,0:0:0:0:
258,169,200549,1,8,0:0:0:0:
258,169,200635,1,8,0:0:0:0:
292,178,200720,1,0,0:0:0:0:
292,178,200806,1,8,0:0:0:0:
292,178,200892,1,8,0:0:0:0:
292,178,200977,1,8,0:0:0:0:
292,178,201063,1,0,0:0:0:0:
297,168,201149,1,8,0:0:0:0:
298,168,201235,1,0,0:0:0:0:
298,168,201320,1,0,0:0:0:0:
298,168,201406,1,8,0:0:0:0:
298,168,201492,1,0,0:0:0:0:
298,168,201577,1,8,0:0:0:0:
298,168,201663,1,8,0:0:0:0:
298,168,201749,1,8,0:0:0:0:
298,168,201835,1,0,0:0:0:0:
298,168,201920,1,0,0:0:0:0:
298,168,202006,1,0,0:0:0:0:
298,168,202092,1,8,0:0:0:0:
297,168,202177,1,0,0:0:0:0:
298,168,202263,1,8,0:0:0:0:
298,168,202349,1,8,0:0:0:0:
298,168,202435,1,0,0:0:0:0:
266,170,202477,1,0,0:0:0:0:
264,167,202520,1,8,0:0:0:0:
270,173,202606,1,8,0:0:0:0:
292,158,202692,1,0,0:0:0:0:
279,140,202777,1,0,0:0:0:0:
286,163,202863,1,8,0:0:0:0:
267,160,202949,1,8,0:0:0:0:
267,160,203035,1,0,0:0:0:0:
267,160,203120,1,8,0:0:0:0:
267,160,203206,1,0,0:0:0:0:
267,160,203292,1,0,0:0:0:0:
267,160,203377,1,8,0:0:0:0:
267,160,203463,1,0,0:0:0:0:
248,166,203549,1,0,0:0:0:0:
276,148,203635,1,8,0:0:0:0:
276,152,203720,1,8,0:0:0:0:
238,159,203806,1,0,0:0:0:0:
242,158,203849,1,0,0:0:0:0:
242,158,203892,1,0,0:0:0:0:
223,158,203977,1,0,0:0:0:0:
287,147,204063,1,8,0:0:0:0:
267,160,204149,1,0,0:0:0:0:
266,168,204235,1,0,0:0:0:0:
261,168,204320,1,8,0:0:0:0:
236,164,204406,1,0,0:0:0:0:
253,177,204492,1,8,0:0:0:0:
253,177,204577,1,8,0:0:0:0:
253,177,204663,1,0,0:0:0:0:
253,177,204749,1,0,0:0:0:0:
247,178,204835,1,8,0:0:0:0:
251,170,204920,1,0,0:0:0:0:
251,170,205006,1,8,0:0:0:0:
251,170,205092,1,8,0:0:0:0:
243,153,205177,1,0,0:0:0:0:
248,162,205349,1,8,0:0:0:0:
263,174,205520,1,0,0:0:0:0:
263,174,205606,1,0,0:0:0:0:
263,174,205692,1,8,0:0:0:0:
263,174,205863,1,0,0:0:0:0:
263,174,205949,1,8,0:0:0:0:
263,174,206120,1,8,0:0:0:0:
263,174,206206,1,0,0:0:0:0:
263,174,206292,1,8,0:0:0:0:
263,174,206377,1,8,0:0:0:0:
263,174,206549,1,0,0:0:0:0:
263,174,206720,1,8,0:0:0:0:
256,183,206806,1,8,0:0:0:0:
263,174,206892,1,0,0:0:0:0:
239,178,207063,1,8,0:0:0:0:
239,178,207149,1,0,0:0:0:0:
275,173,207320,1,0,0:0:0:0:
263,174,207406,1,8,0:0:0:0:
297,169,207577,1,8,0:0:0:0:
297,169,207749,1,0,0:0:0:0:
297,169,207835,1,8,0:0:0:0:
297,169,207920,1,0,0:0:0:0:
297,169,208092,1,0,0:0:0:0:
275,173,208177,1,0,0:0:0:0:
275,173,208263,1,0,0:0:0:0:
276,178,208435,1,0,0:0:0:0:
276,178,208520,1,0,0:0:0:0:
276,178,208606,1,8,0:0:0:0:
276,178,208777,1,0,0:0:0:0:
276,178,208863,1,8,0:0:0:0:
276,178,208949,1,8,0:0:0:0:
276,178,209120,1,8,0:0:0:0:
275,173,209206,1,8,0:0:0:0:
275,173,209292,1,8,0:0:0:0:
271,170,209463,1,8,0:0:0:0:
271,170,209635,1,0,0:0:0:0:
306,160,209806,1,8,0:0:0:0:
306,160,209977,1,0,0:0:0:0:
306,160,210063,1,8,0:0:0:0:
306,160,210149,1,8,0:0:0:0:
306,160,210235,1,0,0:0:0:0:
306,160,210320,1,8,0:0:0:0:
306,160,210406,1,8,0:0:0:0:
306,160,210492,1,0,0:0:0:0:
282,178,210663,1,0,0:0:0:0:
276,170,210835,1,0,0:0:0:0:
254,137,211006,1,8,0:0:0:0:
254,137,211092,1,8,0:0:0:0:
264,167,211177,1,0,0:0:0:0:
264,167,211263,1,8,0:0:0:0:
275,164,211349,1,0,0:0:0:0:
275,164,211435,1,8,0:0:0:0:
275,164,211520,1,0,0:0:0:0:
275,164,211606,1,0,0:0:0:0:
276,151,211692,1,8,0:0:0:0:
276,186,211777,1,0,0:0:0:0:
260,179,211863,1,8,0:0:0:0:
260,179,211949,1,8,0:0:0:0:
273,159,212035,1,0,0:0:0:0:
273,159,212120,1,0,0:0:0:0:
273,159,212206,1,8,0:0:0:0:
273,159,212292,1,0,0:0:0:0:
274,153,212377,1,8,0:0:0:0:
274,153,212463,1,8,0:0:0:0:
274,153,212549,1,0,0:0:0:0:
274,153,212635,1,8,0:0:0:0:
276,151,212720,1,0,0:0:0:0:
274,153,212806,1,8,0:0:0:0:
271,169,212892,1,0,0:0:0:0:
271,169,212977,1,0,0:0:0:0:
271,169,213063,1,8,0:0:0:0:
271,169,213149,1,0,0:0:0:0:
271,169,213235,1,8,0:0:0:0:
271,169,213320,1,8,0:0:0:0:
239,183,213406,1,0,0:0:0:0:
243,167,213492,1,0,0:0:0:0:
243,167,213577,1,8,0:0:0:0:
243,167,213663,1,8,0:0:0:0:
243,167,213749,1,0,0:0:0:0:
243,167,213835,1,0,0:0:0:0:
243,167,213920,1,0,0:0:0:0:
243,167,214006,1,8,0:0:0:0:
243,167,214092,1,0,0:0:0:0:
243,167,214177,1,8,0:0:0:0:
243,167,214263,1,0,0:0:0:0:
266,138,214349,1,0,0:0:0:0:
263,143,214435,1,8,0:0:0:0:
263,143,214520,1,0,0:0:0:0:
263,143,214606,1,8,0:0:0:0:
236,151,214692,1,8,0:0:0:0:
226,170,214777,1,0,0:0:0:0:
281,188,214863,1,0,0:0:0:0:
267,168,214949,1,8,0:0:0:0:
271,163,215035,1,8,0:0:0:0:
271,163,215120,1,8,0:0:0:0:
271,163,215206,1,0,0:0:0:0:
271,163,215292,1,8,0:0:0:0:
271,163,215377,1,8,0:0:0:0:
271,163,215463,1,0,0:0:0:0:
271,163,215549,1,0,0:0:0:0:
271,163,215635,1,8,0:0:0:0:
266,161,215720,1,0,0:0:0:0:
266,161,215806,1,8,0:0:0:0:
266,161,215892,1,8,0:0:0:0:
267,168,215977,1,0,0:0:0:0:
271,163,216063,1,8,0:0:0:0:
271,163,216149,1,8,0:0:0:0:
271,173,216320,1,8,0:0:0:0:
271,173,216406,1,8,0:0:0:0:
271,173,216492,1,0,0:0:0:0:
291,148,216663,1,8,0:0:0:0:
261,150,216720,1,8,0:0:0:0:
261,150,216777,1,8,0:0:0:0:
261,150,216835,1,0,0:0:0:0:
271,170,216920,1,8,0:0:0:0:
267,168,217092,1,8,0:0:0:0:
265,157,217177,1,0,0:0:0:0:
260,173,217349,1,8,0:0:0:0:
260,173,217435,1,8,0:0:0:0:
260,173,217520,1,0,0:0:0:0:
260,173,217692,1,0,0:0:0:0:
260,173,217777,1,0,0:0:0:0:
260,173,217863,1,8,0:0:0:0:
260,173,218035,1,0,0:0:0:0:
260,173,218120,1,0,0:0:0:0:
260,173,218206,1,8,0:0:0:0:
260,173,218292,1,0,0:0:0:0:
260,173,218463,1,0,0:0:0:0:
260,173,218549,1,8,0:0:0:0:
265,179,218720,1,0,0:0:0:0:
226,118,218777,1,8,0:0:0:0:
228,125,218835,1,8,0:0:0:0:
228,125,218892,1,0,0:0:0:0:
232,177,218949,1,0,0:0:0:0:
260,173,219006,1,0,0:0:0:0:
260,173,219063,1,8,0:0:0:0:
231,184,219149,1,0,0:0:0:0:
237,183,219235,1,8,0:0:0:0:
250,150,219292,1,8,0:0:0:0:
251,150,219349,1,8,0:0:0:0:
271,162,219406,1,0,0:0:0:0:
236,208,219492,1,8,0:0:0:0:
261,114,219577,1,0,0:0:0:0:
320,194,219635,1,0,0:0:0:0:
276,192,219692,1,0,0:0:0:0:
276,192,219749,1,8,0:0:0:0:
261,184,219835,1,0,0:0:0:0:
255,195,219920,1,8,0:0:0:0:
254,181,219977,1,8,0:0:0:0:
254,181,220035,1,8,0:0:0:0:
254,181,220092,1,8,0:0:0:0:
254,181,220149,1,8,0:0:0:0:
254,181,220206,1,8,0:0:0:0:
254,181,220263,1,0,0:0:0:0:
263,185,220949,1,8,0:0:0:0:
259,173,221292,1,8,0:0:0:0:
259,173,221463,1,8,0:0:0:0:
270,183,221635,1,4,0:0:0:0:
266,178,221977,1,0,0:0:0:0:
266,178,222149,1,8,0:0:0:0:
266,178,222492,1,0,0:0:0:0:
270,183,222663,1,8,0:0:0:0:
266,178,222835,1,0,0:0:0:0:
266,178,223006,2,0,L|209:183,10,35
257,171,224035,1,8,0:0:0:0:
257,171,224206,1,0,0:0:0:0:
281,181,224377,1,4,0:0:0:0:
281,183,224549,1,8,0:0:0:0:
281,183,224635,1,8,0:0:0:0:
281,183,224720,1,0,0:0:0:0:
280,183,224892,1,8,0:0:0:0:
261,185,225063,1,0,0:0:0:0:
261,185,225235,1,0,0:0:0:0:
261,185,225320,1,0,0:0:0:0:
261,185,225406,1,8,0:0:0:0:
270,184,225577,1,0,0:0:0:0:
270,184,225749,1,8,0:0:0:0:
270,184,225835,1,0,0:0:0:0:
270,184,225920,1,0,0:0:0:0:
270,184,226006,1,8,0:0:0:0:
261,166,226092,1,0,0:0:0:0:
270,184,226177,1,0,0:0:0:0:
270,184,226263,1,8,0:0:0:0:
270,184,226435,1,0,0:0:0:0:
270,184,226606,1,0,0:0:0:0:
270,184,226692,1,0,0:0:0:0:
270,184,226777,1,8,0:0:0:0:
247,177,226949,1,8,0:0:0:0:
261,166,227120,1,0,0:0:0:0:
261,171,227292,1,8,0:0:0:0:
266,118,227377,1,8,0:0:0:0:
266,205,227463,1,0,0:0:0:0:
258,160,227635,1,8,0:0:0:0:
258,160,227806,1,0,0:0:0:0:
258,160,227977,1,0,0:0:0:0:
261,166,228063,1,0,0:0:0:0:
261,166,228149,1,8,0:0:0:0:
261,171,228320,1,0,0:0:0:0:
260,176,228492,1,8,0:0:0:0:
260,176,228577,1,0,0:0:0:0:
260,176,228663,1,0,0:0:0:0:
260,176,228749,1,8,0:0:0:0:
260,176,228835,1,0,0:0:0:0:
260,176,228920,1,0,0:0:0:0:
260,176,229006,1,8,0:0:0:0:
260,176,229177,1,0,0:0:0:0:
256,181,229263,1,0,0:0:0:0:
260,176,229435,1,8,0:0:0:0:
252,179,229520,1,0,0:0:0:0:
252,179,229692,1,0,0:0:0:0:
251,171,229863,1,8,0:0:0:0:
251,171,230035,1,0,0:0:0:0:
241,183,230120,1,0,0:0:0:0:
242,181,230206,1,8,0:0:0:0:
277,178,230377,1,0,0:0:0:0:
277,178,230549,1,8,0:0:0:0:
256,187,230720,1,8,0:0:0:0:
256,187,230806,1,8,0:0:0:0:
256,187,230892,1,0,0:0:0:0:
276,201,231063,1,8,0:0:0:0:
277,177,231235,1,4,0:0:0:0:
277,178,231577,1,4,0:0:0:0:
277,180,231749,1,4,0:0:0:0:
277,180,232092,1,4,0:0:0:0:
277,177,232263,1,8,0:0:0:0:
277,178,232435,1,8,0:0:0:0:
277,178,232520,1,8,0:0:0:0:
277,178,232606,1,4,0:0:0:0:
277,180,232777,1,0,0:0:0:0:
277,180,232863,1,8,0:0:0:0:
277,180,232949,1,0,0:0:0:0:
266,180,233120,1,8,0:0:0:0:
266,180,233292,1,0,0:0:0:0:
254,169,233463,1,0,0:0:0:0:
254,169,233549,1,0,0:0:0:0:
254,169,233635,1,8,0:0:0:0:
251,169,233806,1,0,0:0:0:0:
252,165,233977,1,8,0:0:0:0:
252,165,234063,1,8,0:0:0:0:
252,165,234149,1,0,0:0:0:0:
252,165,234235,1,8,0:0:0:0:
252,165,234320,1,0,0:0:0:0:
254,169,234406,1,0,0:0:0:0:
254,169,234492,1,8,0:0:0:0:
276,173,234663,1,0,0:0:0:0:
276,173,234749,1,8,0:0:0:0:
276,173,234920,1,8,0:0:0:0:
276,173,235006,1,0,0:0:0:0:
276,173,235092,1,0,0:0:0:0:
276,173,235177,1,8,0:0:0:0:
271,169,235349,1,0,0:0:0:0:
271,169,235520,1,8,0:0:0:0:
263,176,235606,1,8,0:0:0:0:
263,176,235692,1,0,0:0:0:0:
263,176,235863,1,8,0:0:0:0:
263,176,236035,1,0,0:0:0:0:
263,176,236206,1,0,0:0:0:0:
263,176,236292,1,0,0:0:0:0:
263,176,236377,1,8,0:0:0:0:
263,176,236549,1,0,0:0:0:0:
263,176,236720,1,8,0:0:0:0:
263,176,236806,1,8,0:0:0:0:
263,176,236892,1,0,0:0:0:0:
263,176,236977,1,8,0:0:0:0:
263,176,237063,1,8,0:0:0:0:
263,176,237149,1,0,0:0:0:0:
263,176,237235,1,8,0:0:0:0:
263,176,237406,1,0,0:0:0:0:
263,176,237492,1,0,0:0:0:0:
263,176,237577,1,0,0:0:0:0:
263,176,237663,1,0,0:0:0:0:
263,176,237749,1,8,0:0:0:0:
263,176,237920,1,0,0:0:0:0:
263,176,238092,1,0,0:0:0:0:
248,181,238177,1,0,0:0:0:0:
248,181,238263,1,8,0:0:0:0:
258,165,238349,1,8,0:0:0:0:
258,165,238435,1,0,0:0:0:0:
258,165,238520,1,0,0:0:0:0:
258,165,238606,1,8,0:0:0:0:
258,165,238692,1,8,0:0:0:0:
258,165,238777,1,0,0:0:0:0:
258,165,238863,1,8,0:0:0:0:
258,165,238949,1,8,0:0:0:0:
258,165,239035,1,0,0:0:0:0:
258,165,239120,1,8,0:0:0:0:
241,165,239292,1,0,0:0:0:0:
241,165,239463,1,8,0:0:0:0:
252,169,239549,1,8,0:0:0:0:
252,169,239635,1,0,0:0:0:0:
280,150,239720,1,0,0:0:0:0:
280,150,239806,1,8,0:0:0:0:
280,150,239892,1,8,0:0:0:0:
279,148,239977,1,0,0:0:0:0:
279,148,240063,1,0,0:0:0:0:
279,148,240149,1,8,0:0:0:0:
279,148,240235,1,8,0:0:0:0:
279,148,240320,1,0,0:0:0:0:
279,148,240406,1,8,0:0:0:0:
279,148,240492,1,0,0:0:0:0:
279,148,240663,1,0,0:0:0:0:
261,170,240835,1,0,0:0:0:0:
261,170,240893,1,8,0:0:0:0:
261,170,240950,1,8,0:0:0:0:
261,170,241007,1,0,0:0:0:0:
260,183,241093,1,8,0:0:0:0:
261,182,241178,1,0,0:0:0:0:
261,182,241264,1,0,0:0:0:0:
246,206,241350,1,8,0:0:0:0:
249,200,241435,1,0,0:0:0:0:
271,178,241521,1,8,0:0:0:0:
271,178,241578,1,0,0:0:0:0:
271,178,241635,1,0,0:0:0:0:
271,178,241693,1,8,0:0:0:0:
263,198,241778,1,0,0:0:0:0:
260,198,241864,1,8,0:0:0:0:
261,181,241950,1,8,0:0:0:0:
261,181,242035,1,0,0:0:0:0:
260,183,242121,1,8,0:0:0:0:
261,182,242207,1,0,0:0:0:0:
261,182,242264,1,0,0:0:0:0:
261,176,242321,1,0,0:0:0:0:
261,176,242378,1,8,0:0:0:0:
251,188,242464,1,0,0:0:0:0:
269,193,242550,1,8,0:0:0:0:
276,189,242607,1,8,0:0:0:0:
276,189,242664,1,8,0:0:0:0:
276,189,242721,1,0,0:0:0:0:
251,175,242807,1,8,0:0:0:0:
268,178,242893,1,0,0:0:0:0:
268,178,242950,1,8,0:0:0:0:
272,186,243007,1,8,0:0:0:0:
272,186,243064,1,8,0:0:0:0:
290,198,243150,1,0,0:0:0:0:
290,198,243235,1,8,0:0:0:0:
290,198,243407,1,8,0:0:0:0:
275,205,243578,1,4,0:0:0:0:
256,192,243663,12,0,249063,0:0:0:0:
