osu file format v14

[General]
AudioFilename: audio.mp3
AudioLeadIn: 0
PreviewTime: 37510
Countdown: 0
SampleSet: Soft
StackLeniency: 0.3
Mode: 0
LetterboxInBreaks: 0
WidescreenStoryboard: 0

[Editor]
Bookmarks: 38882,60824,77282,87910,93739,105739,115682,148596,165053,186996,219910,240482,252824,258310,269282,279053,280253,302196
DistanceSpacing: 0.8
BeatDivisor: 4
GridSize: 16
TimelineZoom: 6.000002

[Metadata]
Title:Cycle Hit
TitleUnicode:サイクルヒット
Artist:Kasai Harcores
ArtistUnicode:葛西ハーコーズ
Creator:Arbane
Version:Grand Slam
Source:
Tags:かめりあ dj genki c-show kamelcamellia cametek
BeatmapID:1483032
BeatmapSetID:700496

[Difficulty]
HPDrainRate:5
CircleSize:4.3
OverallDifficulty:9
ApproachRate:9.7
SliderMultiplier:2.2
SliderTickRate:1

[Events]
//Background and Video events
0,0,"JwDnrIB.jpg",0,0
//Break Periods
2,192682,197472
//Storyboard Layer 0 (Background)
//Storyboard Layer 1 (Fail)
//Storyboard Layer 2 (Pass)
//Storyboard Layer 3 (Foreground)
//Storyboard Sound Samples

[TimingPoints]
482,342.857142857143,4,2,1,20,1,0
482,-200,4,2,1,20,0,0
8710,-200,4,1,1,10,0,0
9053,-200,4,1,1,15,0,0
9396,-200,4,1,1,20,0,0
9567,-200,4,1,1,30,0,0
9739,-200,4,1,1,40,0,0
9910,-200,4,1,1,50,0,0
10082,-200,4,1,1,60,0,0
10424,-200,4,1,1,70,0,0
10767,-133.333333333333,4,1,1,70,0,0
11110,-80,4,1,1,70,0,0
11453,-100,4,2,1,70,0,0
13510,-133.333333333333,4,2,1,70,0,0
13853,-200,4,2,1,70,0,0
14196,-100,4,2,1,70,0,0
16596,-200,4,2,1,70,0,0
16939,-100,4,2,1,70,0,0
18996,-133.333333333333,4,2,1,70,0,0
19339,-200,4,2,1,70,0,0
20367,-200,4,2,1,30,0,0
22424,-133.333333333333,4,2,1,35,0,0
26539,-133.333333333333,4,2,1,40,0,0
27224,-133.333333333333,4,2,1,50,0,0
27396,-133.333333333333,4,2,1,60,0,0
27567,-200,4,2,1,60,0,0
27910,-100,4,1,1,60,0,0
33396,-100,4,1,1,60,0,0
36139,-50,4,1,1,50,0,0
36824,-66.6666666666667,4,1,1,50,0,0
37510,-133.333333333333,4,2,2,50,0,0
38282,-133.333333333333,4,2,2,30,0,0
38539,-133.333333333333,4,2,2,50,0,0
38882,-54.054054054054,4,2,1,80,0,1
39224,-100,4,2,1,80,0,1
41624,-66.6666666666667,4,2,1,80,0,1
42053,-54.054054054054,4,2,1,80,0,1
42996,-100,4,2,1,80,0,1
43424,-54.054054054054,4,2,1,80,0,1
44710,-100,4,2,1,80,0,1
47110,-66.6666666666667,4,2,1,80,0,1
47539,-54.054054054054,4,2,1,80,0,1
48482,-100,4,2,1,50,0,1
48739,-66.6666666666667,4,2,1,50,0,1
49167,-100,4,2,1,50,0,1
49853,-50,4,2,1,50,0,0
49939,-50,4,2,1,5,0,0
50196,-100,4,2,1,60,0,0
50882,-54.054054054054,4,2,1,80,0,1
51224,-54.054054054054,4,2,1,80,0,1
52596,-66.6666666666667,4,2,1,80,0,1
52767,-100,4,2,1,80,0,1
53024,-54.054054054054,4,2,1,80,0,1
53967,-100,4,2,1,80,0,1
54139,-100,4,2,1,80,0,1
54396,-54.054054054054,4,2,1,80,0,1
56367,-50,4,2,1,80,0,1
56710,-100,4,2,1,80,0,1
57739,-50,4,2,1,80,0,1
58082,-100,4,2,1,80,0,1
58167,-100,4,2,1,60,0,1
59453,-66.6666666666667,4,2,1,50,0,1
60139,-50,4,2,1,50,0,1
60824,-66.6666666666667,4,2,1,80,0,0
66139,-66.6666666666667,4,2,1,5,0,0
66310,-200,4,2,1,30,0,0
70424,-100,4,2,1,30,0,0
70767,-100,4,2,1,40,0,0
71110,-100,4,2,1,50,0,0
71453,-200,4,2,1,60,0,0
71796,-100,4,2,1,70,0,0
75910,-100,4,2,1,65,0,0
76253,-100,4,2,1,60,0,0
76596,-100,4,2,1,50,0,0
76939,-100,4,2,1,40,0,0
77282,-133.333333333333,4,2,1,35,0,0
81396,-133.333333333333,4,2,1,40,0,0
81739,-133.333333333333,4,2,1,50,0,0
82082,-200,4,2,1,60,0,0
82767,-100,4,1,1,60,0,0
90996,-50,4,1,1,60,0,0
91682,-66.6666666666667,4,1,1,60,0,0
92367,-133.333333333333,4,2,2,50,0,0
93739,-60.6060606060606,4,2,1,80,0,1
94082,-200,4,2,1,80,0,1
94339,-100,4,2,1,80,0,1
95110,-100,4,2,1,80,0,1
95453,-200,4,2,1,80,0,1
95710,-100,4,2,1,80,0,1
96482,-54.054054054054,4,2,1,80,0,1
96824,-50,4,2,1,80,0,1
98024,-50,4,2,1,80,0,1
98539,-200,4,2,1,80,0,1
98710,-50,4,2,1,80,0,1
98882,-80,4,2,1,80,0,1
99224,-60.6060606060606,4,2,1,80,0,1
99567,-200,4,2,1,80,0,1
99824,-100,4,2,1,80,0,1
100939,-200,4,2,1,80,0,1
101196,-100,4,2,1,80,0,1
101967,-54.054054054054,4,2,1,80,0,1
102310,-50,4,2,1,80,0,1
103339,-100,4,2,1,40,0,0
104024,-100,4,2,1,50,0,0
104367,-100,4,2,1,60,0,0
104710,-60.6060606060606,4,2,1,80,0,1
105053,-200,4,2,1,80,0,1
105310,-100,4,2,1,80,0,1
106082,-60.6060606060606,4,2,1,80,0,1
106424,-200,4,2,1,80,0,1
106682,-100,4,2,1,80,0,1
107453,-54.054054054054,4,2,1,80,0,1
107796,-50,4,2,1,80,0,1
108824,-80,4,2,1,80,0,1
109167,-54.054054054054,4,2,1,80,0,1
109682,-81.3008130081301,4,2,1,80,0,1
109939,-74.0740740740741,4,2,1,80,0,1
110196,-60.6060606060606,4,2,1,80,0,1
110539,-200,4,2,1,80,0,1
110796,-100,4,2,1,80,0,1
111567,-60.6060606060606,4,2,1,80,0,1
111910,-200,4,2,1,80,0,1
112167,-100,4,2,1,80,0,1
112939,-54.054054054054,4,2,1,80,0,1
113282,-80,4,2,1,60,0,1
114310,-66.6666666666667,4,2,1,40,0,1
115682,-66.6666666666667,4,2,1,80,0,0
125282,-66.6666666666667,4,2,1,10,0,0
126653,-100,4,2,2,20,0,0
133510,-100,4,2,2,25,0,0
134196,-100,4,2,2,30,0,0
134882,-100,4,2,1,10,0,0
135224,-100,4,2,1,15,0,0
135567,-100,4,2,1,20,0,0
135739,-100,4,2,1,30,0,0
135910,-100,4,2,1,40,0,0
136082,-100,4,2,1,50,0,0
136253,-100,4,2,1,60,0,0
136596,-100,4,2,1,70,0,0
136939,-133.333333333333,4,2,1,70,0,0
137282,-80,4,2,1,70,0,0
137624,-100,4,2,1,70,0,0
139682,-133.333333333333,4,2,1,70,0,0
140024,-200,4,2,1,70,0,0
140367,-100,4,2,1,70,0,0
142767,-200,4,2,1,70,0,0
143110,-100,4,2,1,70,0,0
145167,-133.333333333333,4,2,1,70,0,0
145510,-200,4,2,1,70,0,0
146539,-200,4,2,1,30,0,0
148596,-133.333333333333,4,2,1,35,0,0
152710,-133.333333333333,4,2,1,40,0,0
153396,-133.333333333333,4,2,1,50,0,0
153567,-133.333333333333,4,2,1,60,0,0
153739,-200,4,2,1,60,0,0
154082,-100,4,1,1,60,0,0
163682,-133.333333333333,4,2,2,50,0,0
164367,-200,4,2,2,50,0,0
164710,-100,4,2,1,50,0,0
165053,-80,4,2,1,70,0,1
165567,-66.6666666666667,4,2,1,70,0,1
166253,-200,4,2,1,70,0,1
166424,-80,4,2,1,70,0,1
166939,-66.6666666666667,4,2,1,70,0,1
167796,-80,4,2,1,70,0,1
168310,-100,4,2,1,70,0,1
169167,-66.6666666666667,4,2,1,70,0,1
169853,-100,4,2,1,70,0,1
170196,-66.6666666666667,4,2,1,70,0,1
170539,-80,4,2,1,70,0,1
171053,-66.6666666666667,4,2,1,70,0,1
171739,-200,4,2,1,70,0,1
171910,-80,4,2,1,70,0,1
172424,-66.6666666666667,4,2,1,70,0,1
173282,-80,4,2,1,70,0,1
173796,-100,4,2,1,50,0,0
174996,-57.1428571428571,4,2,1,50,0,0
175339,-100,4,2,1,50,0,0
176024,-80,4,2,1,70,0,1
176539,-57.1428571428571,4,2,1,70,0,1
176882,-100,4,2,1,70,0,1
177224,-200,4,2,1,70,0,1
177396,-80,4,2,1,70,0,1
177910,-66.6666666666667,4,2,1,70,0,1
178767,-200,4,2,1,70,0,1
179282,-100,4,2,1,70,0,1
180139,-66.6666666666667,4,2,1,70,0,1
180824,-100,4,2,1,70,0,1
181167,-66.6666666666667,4,2,1,70,0,1
181510,-80,4,2,1,70,0,1
182024,-57.1428571428571,4,2,1,70,0,1
182367,-80,4,2,1,70,0,1
182710,-200,4,2,1,70,0,1
182882,-80,4,2,1,70,0,1
183396,-66.6666666666667,4,2,1,70,0,1
184339,-66.6666666666667,4,2,1,60,0,1
184939,-100,4,2,1,50,0,0
192482,-100,4,2,1,5,0,0
197967,-133.333333333333,4,2,1,40,0,0
214767,-133.333333333333,4,2,1,45,0,0
215110,-133.333333333333,4,2,1,50,0,0
215453,-133.333333333333,4,2,1,55,0,0
215796,-133.333333333333,4,2,1,60,0,0
216139,-133.333333333333,4,2,1,65,0,0
216482,-133.333333333333,4,2,1,70,0,0
217167,-66.6666666666667,4,2,1,50,0,0
218539,-200,4,2,1,60,0,0
219224,-133.333333333333,4,2,1,70,0,0
219567,-80,4,2,1,70,0,0
219910,-100,4,2,1,70,0,0
221967,-133.333333333333,4,2,1,70,0,0
222310,-200,4,2,1,70,0,0
222653,-100,4,2,1,70,0,0
225053,-200,4,2,1,70,0,0
225396,-100,4,2,1,70,0,0
227453,-133.333333333333,4,2,1,70,0,0
227796,-200,4,2,1,70,0,0
229853,-100,4,2,1,70,0,0
232939,-133.333333333333,4,2,1,70,0,0
233282,-200,4,2,1,70,0,0
233624,-100,4,2,1,70,0,0
236024,-200,4,2,1,70,0,0
236367,-100,4,2,1,70,0,0
238424,-133.333333333333,4,2,1,70,0,0
238767,-200,4,2,1,70,0,0
239110,-100,4,2,1,70,0,0
240139,-133.333333333333,4,2,1,70,0,0
240482,-200,4,2,1,30,0,0
241853,-133.333333333333,4,2,1,35,0,0
245967,-133.333333333333,4,2,1,40,0,0
246653,-133.333333333333,4,2,1,50,0,0
246824,-133.333333333333,4,2,1,60,0,0
246996,-200,4,2,1,60,0,0
247339,-80,4,2,1,60,0,0
249739,-100,4,2,1,60,0,0
250082,-80,4,2,1,60,0,0
252824,-100,4,1,1,60,0,0
255567,-50,4,1,1,60,0,0
256253,-66.6666666666667,4,1,1,60,0,0
256939,-133.333333333333,4,2,1,50,0,0
257624,-200,4,2,1,50,0,0
257967,-400,4,2,1,50,0,0
258310,-66.6666666666667,4,2,1,70,0,1
267910,-100,4,2,1,70,0,1
268939,-66.6666666666667,4,2,1,70,0,1
277510,-66.6666666666667,4,2,1,60,0,1
278882,-200,4,2,1,30,0,0
278967,-200,4,2,1,5,0,0
279053,-200,4,2,1,40,0,0
279139,-200,4,2,1,5,0,0
279224,-100,4,2,1,50,0,0
279310,-100,4,2,1,5,0,0
279396,-100,4,2,1,60,0,0
279482,-100,4,2,1,5,0,0
279567,-66.6666666666667,4,2,1,70,0,0
279824,-66.6666666666667,4,2,1,5,0,0
279910,-400,4,2,1,70,0,0
280167,-400,4,2,1,5,0,0
280253,-60.6060606060606,4,2,1,70,0,1
280596,-74.0740740740741,4,2,1,70,0,1
283339,-200,4,2,1,70,0,1
283510,-74.0740740740741,4,2,1,70,0,1
286253,-66.6666666666667,4,2,1,70,0,1
286596,-66.6666666666667,4,2,1,70,0,1
286767,-133.333333333333,4,2,1,70,0,1
287110,-74.0740740740741,4,2,1,70,0,1
287624,-66.6666666666667,4,2,1,70,0,1
288482,-74.0740740740741,4,2,1,70,0,1
289853,-133.333333333333,4,2,1,70,0,0
290110,-153.846153846153,4,2,1,50,0,0
290539,-181.818181818181,4,2,1,50,0,0
290882,-100,4,2,1,70,0,0
291224,-60.6060606060606,4,2,1,70,0,1
292596,-74.0740740740741,4,2,1,70,0,1
296710,-74.0740740740741,4,2,1,60,0,1
299453,-66.6666666666667,4,2,1,60,0,1
300824,-200,4,2,1,40,0,0
301082,-200,4,2,1,5,0,0
301167,-200,4,2,1,40,0,0
301424,-200,4,2,1,5,0,0
301510,-200,4,2,1,40,0,0
301767,-200,4,2,1,5,0,0
301853,-133.333333333333,4,2,1,50,0,0
302196,-200,4,2,1,40,0,0
303567,-133.333333333333,4,2,1,40,0,0
303910,-133.333333333333,4,2,1,45,0,0
304082,-133.333333333333,4,2,1,50,0,0
304253,-100,4,2,1,55,0,0
304596,-100,4,2,1,60,0,0
306310,-200,4,2,1,60,0,0
307682,-200,4,2,2,55,0,0
308024,-200,4,2,1,50,0,0
308367,-200,4,2,2,45,0,0
308710,-200,4,2,1,40,0,0
309053,-200,4,2,2,35,0,0
309396,-200,4,2,1,30,0,0
309739,-200,4,2,2,25,0,0
310082,-200,4,2,1,20,0,0
310424,-200,4,2,2,15,0,0
310767,-200,4,2,1,10,0,0
311110,-200,4,2,2,5,0,0

[HitObjects]
24,96,482,6,0,L|206:115,1,165,6|0,0:0|0:0,0:0:0:0:
268,88,1082,1,0,0:0:0:0:
258,93,1167,1,2,0:0:0:0:
314,269,1339,5,0,0:0:0:0:
339,156,1510,1,2,0:0:0:0:
314,269,1682,1,0,0:0:0:0:
482,245,1853,6,0,L|475:117,1,110,2|2,0:0|0:0,0:0:0:0:
410,288,2367,1,0,0:0:0:0:
464,125,2539,2,0,L|470:234,1,110,2|0,0:0|0:0,0:0:0:0:
243,367,3224,6,0,L|61:348,1,165,2|0,0:0|0:0,0:0:0:0:
0,317,3824,1,0,0:0:0:0:
10,322,3909,1,2,0:0:0:0:
163,233,4082,5,0,0:0:0:0:
38,249,4253,1,2,0:0:0:0:
163,233,4424,1,0,0:0:0:0:
0,123,4596,5,2,0:0:0:0:
121,155,4767,1,2,0:0:0:0:
90,31,4939,1,2,0:0:0:0:
121,155,5110,1,2,0:0:0:0:
274,67,5282,6,0,L|401:86,1,110,2|2,0:0|0:0,0:0:0:0:
129,355,5967,6,0,L|110:173,1,165,2|0,0:0|0:0,0:0:0:0:
137,111,6567,1,0,0:0:0:0:
132,121,6652,1,2,0:0:0:0:
290,202,6824,5,0,0:0:0:0:
223,93,6996,1,2,0:0:0:0:
290,202,7167,1,0,0:0:0:0:
441,115,7339,6,0,L|318:106,1,110,2|2,0:0|0:0,0:0:0:0:
486,194,7853,1,0,0:0:0:0:
319,114,8024,2,0,L|442:123,1,110,2|2,0:0|0:0,0:0:0:0:
486,194,8539,1,2,0:0:0:0:
393,257,8710,5,2,0:2:0:0:
368,255,8796,1,0,0:0:0:0:
343,253,8882,1,2,0:2:0:0:
318,251,8967,1,0,0:0:0:0:
296,263,9053,1,2,0:2:0:0:
271,261,9139,1,0,0:0:0:0:
246,259,9225,1,2,0:2:0:0:
221,257,9310,1,0,0:0:0:0:
142,284,9396,5,2,0:2:0:0:
110,289,9482,1,0,0:0:0:0:
128,301,9567,1,0,0:0:0:0:
123,271,9653,1,0,0:0:0:0:
85,197,9739,5,2,0:2:0:0:
90,165,9825,1,0,0:0:0:0:
72,178,9910,1,0,0:0:0:0:
102,183,9996,1,0,0:0:0:0:
157,121,10082,5,0,0:0:0:0:
184,118,10167,1,0,0:0:0:0:
233,61,10253,5,0,0:0:0:0:
250,81,10338,1,0,0:0:0:0:
325,88,10424,5,0,0:0:0:0:
319,114,10509,1,0,0:0:0:0:
355,178,10596,5,0,0:0:0:0:
330,188,10681,1,0,0:0:0:0:
298,254,10767,6,0,P|315:310|370:273,1,123.750004720688,4|0,1:3|2:0,0:0:0:0:
205,280,11110,6,0,B|109:288|109:288|101:293|101:293|-1:302,1,206.25,4|0,1:3|2:0,0:0:0:0:
99,206,11453,6,0,P|182:148|146:35,1,220,4|0,1:0|0:0,0:0:0:0:
158,44,11967,1,0,0:0:0:0:
197,74,12053,1,0,0:0:0:0:
246,72,12139,1,2,0:0:0:0:
5,51,12310,5,0,0:0:0:0:
22,229,12482,1,2,0:0:0:0:
5,51,12653,1,0,0:0:0:0:
241,132,12824,6,0,B|226:280|226:280|167:206,1,220,2|2,0:0|0:0,0:0:0:0:
202,57,13339,1,0,0:0:0:0:
226,280,13510,2,0,P|273:312|339:298,1,123.750004720688,2|0,0:0|0:0,0:0:0:0:
374,226,13853,6,0,L|363:318,1,82.5,4|0,1:3|0:0,0:0:0:0:
497,375,14196,6,0,B|492:287|492:287|510:250|510:250|504:142,1,220,2|0,0:0|0:0,0:0:0:0:
505,159,14710,1,0,0:0:0:0:
469,193,14796,1,0,0:0:0:0:
419,188,14882,1,2,0:0:0:0:
221,93,15053,5,0,0:0:0:0:
380,63,15224,1,2,0:0:0:0:
221,93,15396,1,0,0:0:0:0:
293,318,15567,5,8,1:0:0:0:
323,159,15738,1,2,0:0:0:0:
223,365,15910,5,8,1:0:0:0:
210,203,16081,1,2,0:0:0:0:
0,259,16253,5,10,1:2:0:0:
159,289,16424,1,8,1:0:0:0:
105,50,16596,6,0,L|112:153,1,82.5,4|0,1:3|0:0,0:0:0:0:
210,203,16939,6,0,B|325:159|306:271|432:222,1,220,2|0,0:0|0:0,0:0:0:0:
418,226,17453,1,0,0:0:0:0:
382,190,17539,1,0,0:0:0:0:
387,141,17624,1,2,0:0:0:0:
447,362,17796,5,0,0:0:0:0:
293,355,17967,1,2,0:0:0:0:
447,362,18139,1,0,0:0:0:0:
219,286,18310,6,0,B|67:306|67:306|123:352,1,220,2|2,0:0|0:0,0:0:0:0:
293,355,18824,1,0,0:0:0:0:
67,306,18996,2,0,P|34:246|55:179,1,123.750004720688,2|0,0:0|0:0,0:0:0:0:
134,206,19339,6,0,L|57:212,1,55,4|0,1:3|0:0,0:0:0:0:
10,114,19682,5,2,0:0:0:0:
210,136,19853,1,2,0:0:0:0:
37,117,20024,5,2,0:0:0:0:
182,132,20195,1,2,0:0:0:0:
104,184,20367,5,2,1:2:0:0:
94,215,20453,1,0,1:0:0:0:
126,225,20539,1,0,1:0:0:0:
135,192,20624,1,0,1:0:0:0:
77,193,20710,1,2,1:2:0:0:
104,241,20796,1,0,1:0:0:0:
152,214,20882,1,0,1:0:0:0:
125,167,20967,1,0,1:0:0:0:
114,203,21053,6,0,B|193:308|401:243|337:55|191:102|218:226,1,412.5,0|0,1:0|0:0,0:0:0:0:
320,323,22424,6,0,B|379:342|379:342|449:301,1,123.750004720688,8|0,0:0|0:0,0:0:0:0:
419,203,22767,2,0,B|360:184|360:184|306:215,1,123.750004720688,8|0,0:0|0:0,0:0:0:0:
370,263,23110,1,8,0:0:0:0:
192,323,23796,6,0,B|133:342|133:342|63:301,1,123.750004720688,8|0,0:0|0:0,0:0:0:0:
93,203,24139,2,0,B|152:184|152:184|206:215,1,123.750004720688,8|0,0:0|0:0,0:0:0:0:
142,263,24482,1,8,0:0:0:0:
381,85,25167,6,0,P|338:49|287:192,1,288.750011014939,8|0,1:0|0:0,0:0:0:0:
314,121,25853,2,0,B|203:107|203:107|155:159|155:159|38:142,1,288.750011014939,8|0,1:0|0:0,0:0:0:0:
33,141,26539,5,8,0:0:0:0:
124,75,26710,1,0,0:0:0:0:
94,310,26882,5,8,0:0:0:0:
185,244,27053,1,0,1:0:0:0:
164,243,27139,1,0,1:0:0:0:
167,315,27224,5,8,1:0:0:0:
224,322,27310,1,0,1:0:0:0:
270,286,27396,1,0,1:0:0:0:
316,251,27482,1,0,1:0:0:0:
373,258,27567,2,0,L|378:355,1,82.5,4|0,1:3|0:0,0:0:0:0:
477,297,27910,5,12,0:0:0:0:
421,83,28082,1,0,0:0:0:0:
265,238,28253,1,8,0:0:0:0:
477,297,28424,5,0,0:0:0:0:
487,270,28510,1,0,0:0:0:0:
467,201,28596,1,8,0:0:0:0:
213,305,28767,1,0,0:0:0:0:
362,340,28939,1,8,0:0:0:0:
175,138,29110,1,0,0:0:0:0:
12,360,29282,5,8,0:0:0:0:
224,301,29454,1,0,0:0:0:0:
68,146,29625,1,8,0:0:0:0:
12,360,29796,5,0,0:0:0:0:
39,367,29882,1,0,0:0:0:0:
108,350,29968,1,8,0:0:0:0:
91,73,30139,1,0,0:0:0:0:
182,277,30310,1,8,0:0:0:0:
199,0,30481,1,0,0:0:0:0:
73,245,30653,5,8,0:0:0:0:
286,192,30824,1,0,0:0:0:0:
330,281,30996,1,0,0:0:0:0:
137,174,31167,1,0,0:0:0:0:
28,357,31339,5,8,0:0:0:0:
258,201,31510,1,0,0:0:0:0:
73,245,31682,1,0,0:0:0:0:
348,288,31853,1,0,0:0:0:0:
132,118,32024,5,8,0:0:0:0:
231,315,32196,1,0,0:0:0:0:
11,301,32367,1,8,0:0:0:0:
132,118,32539,5,0,0:0:0:0:
160,112,32625,1,0,0:0:0:0:
225,142,32711,1,8,0:0:0:0:
126,384,32882,1,0,0:0:0:0:
40,275,33053,1,8,0:0:0:0:
299,242,33224,1,0,0:0:0:0:
171,259,33396,5,12,0:2:0:0:
143,224,33482,1,0,0:0:0:0:
139,180,33567,1,0,0:0:0:0:
160,141,33653,1,0,0:0:0:0:
202,127,33739,1,8,0:0:0:0:
221,87,33824,1,0,0:0:0:0:
208,44,33910,1,0,0:0:0:0:
167,27,33996,1,0,0:0:0:0:
125,42,34082,6,0,L|130:106,1,55,8|0,0:0|0:0,0:0:0:0:
295,131,34253,2,0,L|300:67,1,55
89,164,34424,2,0,L|35:160,1,55,8|0,0:0|0:0,0:0:0:0:
343,196,34596,2,0,L|398:192,1,55
208,239,34767,5,8,0:0:0:0:
178,285,34853,1,0,0:0:0:0:
189,338,34939,1,0,0:0:0:0:
233,369,35024,1,0,0:0:0:0:
287,360,35110,1,8,0:0:0:0:
317,313,35196,1,0,0:0:0:0:
363,282,35282,1,0,0:0:0:0:
417,286,35367,1,0,0:0:0:0:
460,319,35453,6,0,L|455:377,1,55,8|0,0:0|0:0,0:0:0:0:
285,176,35624,2,0,L|339:171,1,55
341,365,35796,2,0,L|287:360,1,55,8|0,0:0|0:0,0:0:0:0:
454,156,35967,2,0,L|459:214,1,55
218,270,36139,6,0,L|180:267,28,27.5,0|0|0|0|0|0|0|0|0|0|0|0|0|0|0|0|0|0|0|0|0|0|0|0|0|0|0|0|0,1:0|3:0|3:0|3:0|3:0|3:0|3:0|3:0|3:0|3:0|3:0|3:0|3:0|3:0|3:0|3:0|3:0|3:0|3:0|3:0|3:0|3:0|3:0|3:0|3:0|3:0|3:0|3:0|3:0,3:0:0:0:
131,158,36824,2,0,L|134:196,14,20.6250007867813,0|0|0|0|0|0|0|0|0|0|0|0|0|0|0,3:0|3:0|3:0|3:0|3:0|3:0|3:0|3:0|3:0|3:0|3:0|3:0|3:0|3:0|3:0,3:0:0:0:
60,213,37167,2,0,L|57:251,14,20.6250007867813,0|0|0|0|0|0|0|0|0|0|0|0|0|0|0,3:0|3:0|3:0|3:0|3:0|3:0|3:0|3:0|3:0|3:0|3:0|3:0|3:0|3:0|3:0,3:0:0:0:
122,288,37510,6,0,L|268:300,1,123.750004720688,8|0,1:2|0:0,0:0:0:0:
246,289,37853,2,0,L|122:278,1,123.750004720688,8|0,0:0|0:0,0:0:0:0:
285,368,38196,5,8,0:0:0:0:
313,364,38282,1,0,0:0:0:0:
341,360,38367,1,0,0:0:0:0:
369,356,38453,1,0,0:0:0:0:
444,323,38539,5,2,0:0:0:0:
451,355,38625,1,2,0:0:0:0:
375,274,38710,5,2,0:0:0:0:
382,242,38796,1,2,0:0:0:0:
455,155,38882,6,0,B|527:141|527:141|494:213|494:213|427:203|427:203|422:206|422:206|419:201|419:201|308:184,1,305.249998835564,4|0,1:0|0:0,0:0:0:0:
228,109,39224,5,8,1:0:0:0:
229,124,39310,1,2,0:0:0:0:
231,140,39396,1,2,0:0:0:0:
232,156,39482,1,2,0:0:0:0:
141,88,39567,5,0,1:0:0:0:
142,103,39653,1,2,0:0:0:0:
144,119,39739,1,2,0:0:0:0:
145,135,39825,1,2,0:0:0:0:
52,219,39910,5,8,1:0:0:0:
0,212,39996,1,0,3:0:0:0:
28,189,40082,1,2,3:0:0:0:
22,239,40167,1,0,3:0:0:0:
16,321,40253,6,2,P|42:335|70:330,1,55,0|0,1:0|0:0,0:1:0:0:
256,250,40424,1,0,0:0:0:0:
184,220,40510,1,0,0:0:0:0:
197,296,40596,5,8,1:0:0:0:
212,295,40682,1,2,0:0:0:0:
228,293,40768,1,2,0:0:0:0:
244,292,40854,1,2,0:0:0:0:
137,224,40939,5,0,1:0:0:0:
152,223,41025,1,2,0:0:0:0:
168,221,41111,1,2,0:0:0:0:
184,220,41197,1,2,0:0:0:0:
280,135,41282,5,8,1:0:0:0:
276,91,41367,1,0,3:0:0:0:
375,129,41453,1,2,3:0:0:0:
368,172,41539,1,0,3:0:0:0:
296,235,41624,6,2,B|279:247|274:268|274:268|265:248|247:240,1,82.5000031471254,0|0,1:0|0:0,0:1:0:0:
2,105,41796,1,2,0:0:0:0:
89,118,41882,1,2,0:0:0:0:
175,131,41967,1,8,1:0:0:0:
167,144,42053,6,0,B|160:104|160:104|174:86|174:86|162:15,2,101.749999611855,2|0|2,0:1|0:0|0:1,0:0:0:0:
132,319,42310,6,0,B|123:285|93:277|93:277|174:281|174:281|182:278|182:278|257:282,1,203.499999223709,2|0,1:3|3:0,0:0:0:0:
335,313,42567,1,0,3:0:0:0:
259,381,42653,1,8,1:0:0:0:
281,310,42739,5,0,0:0:0:0:
287,335,42825,1,0,0:0:0:0:
262,328,42911,1,0,0:0:0:0:
233,209,42996,6,2,P|259:195|287:200,1,55,0|0,1:0|0:0,0:1:0:0:
512,249,43167,1,2,0:0:0:0:
444,305,43253,1,2,0:0:0:0:
357,294,43338,1,8,1:0:0:0:
365,285,43424,6,0,B|372:325|372:325|358:343|358:343|364:380,2,101.749999611855,2|0|2,0:1|0:0|0:1,0:0:0:0:
324,129,43682,5,0,1:0:0:0:
280,124,43767,1,2,0:0:0:0:
236,118,43853,1,2,0:0:0:0:
192,112,43939,1,2,0:0:0:0:
95,60,44024,5,8,1:0:0:0:
98,92,44110,1,0,0:0:0:0:
82,62,44196,1,0,0:0:0:0:
85,94,44282,1,0,0:0:0:0:
104,172,44367,6,2,B|56:167|56:167|24:165|0:197|18:232|50:235|50:235|78:237|78:237|81:242|81:242|86:238|86:238|114:241|114:241|138:231|138:231|210:237,1,305.249998835564,4|0,1:2|0:0,0:1:0:0:
398,164,44710,5,8,1:0:0:0:
397,149,44796,1,2,0:0:0:0:
395,133,44882,1,2,0:0:0:0:
394,117,44968,1,2,0:0:0:0:
312,181,45053,5,0,1:0:0:0:
311,166,45139,1,2,0:0:0:0:
309,150,45225,1,2,0:0:0:0:
308,134,45311,1,2,0:0:0:0:
232,38,45396,5,8,1:0:0:0:
180,31,45482,1,0,3:0:0:0:
208,8,45568,1,2,3:0:0:0:
202,58,45653,1,0,3:0:0:0:
174,129,45739,6,2,P|157:153|160:182,1,55,0|0,1:0|0:0,0:1:0:0:
196,351,45910,1,0,0:0:0:0:
270,371,45996,1,0,0:0:0:0:
249,296,46082,5,8,1:0:0:0:
234,297,46168,1,2,0:0:0:0:
218,299,46254,1,2,0:0:0:0:
202,300,46340,1,2,0:0:0:0:
269,214,46424,5,0,1:0:0:0:
254,215,46510,1,2,0:0:0:0:
238,217,46596,1,2,0:0:0:0:
222,218,46682,1,2,0:0:0:0:
106,163,46767,5,8,1:0:0:0:
110,127,46853,1,0,3:0:0:0:
48,215,46939,1,2,3:0:0:0:
53,250,47025,1,0,3:0:0:0:
100,314,47110,6,2,B|117:326|122:347|122:347|131:327|149:319,1,82.5000031471254,0|0,1:0|0:0,0:1:0:0:
421,256,47282,1,2,0:0:0:0:
334,243,47368,1,2,0:0:0:0:
248,230,47453,1,8,1:0:0:0:
256,217,47539,6,0,B|263:257|263:257|249:275|249:275|261:346,2,101.749999611855,2|0|2,0:1|0:0|0:1,0:0:0:0:
210,86,47796,6,0,B|163:95|163:95|231:124|231:124|311:109,1,203.499999223709,2|0,1:3|3:0,0:0:0:0:
409,52,48053,1,0,3:0:0:0:
308,1,48139,1,8,1:0:0:0:
352,68,48224,5,0,0:0:0:0:
350,40,48310,1,0,0:0:0:0:
327,55,48395,1,0,0:0:0:0:
302,184,48482,6,0,B|312:331,1,110,0|0,1:0|0:0,0:0:0:0:
375,211,48739,1,2,0:0:0:0:
361,138,48824,2,0,B|326:94|258:101|232:151|232:151|207:197|149:188,1,247.500009441376,8|2,0:0|0:0,0:0:0:0:
28,147,49167,6,0,L|34:230,1,55,2|0,0:0|0:0,0:0:0:0:
203,61,49339,5,2,0:0:0:0:
201,44,49424,1,2,0:0:0:0:
145,105,49510,2,0,L|151:188,1,55,10|0,0:0|0:0,0:0:0:0:
387,33,49682,5,2,3:0:0:0:
322,1,49767,1,2,3:0:0:0:
278,59,49853,2,2,B|285:129|285:129|308:86,1,110,0|0,1:0|0:0,0:1:0:0:
304,95,50196,5,12,1:2:0:0:
373,113,50282,1,0,3:0:0:0:
441,131,50367,1,0,3:0:0:0:
393,143,50453,1,0,3:0:0:0:
346,156,50539,1,0,3:0:0:0:
379,164,50625,1,0,3:0:0:0:
412,173,50710,1,0,3:0:0:0:
389,179,50796,1,0,3:0:0:0:
366,185,50882,6,0,B|326:178|326:178|307:162|307:162|243:188|243:188|153:180,1,203.499999223709,2|0,0:3|3:0,0:0:0:0:
83,170,51139,1,0,3:0:0:0:
228,98,51224,6,0,B|242:29|242:29|138:60|138:60|193:245,1,305.249998835564,4|0,1:0|0:0,0:0:0:0:
224,306,51567,5,8,1:0:0:0:
239,307,51653,1,2,0:0:0:0:
255,309,51739,1,2,0:0:0:0:
271,310,51825,1,2,0:0:0:0:
324,250,51910,5,0,1:0:0:0:
287,311,51996,1,0,0:0:0:0:
318,374,52082,1,0,0:0:0:0:
387,384,52167,1,0,0:0:0:0:
436,284,52253,5,8,1:0:0:0:
429,232,52339,1,0,3:0:0:0:
406,260,52425,1,2,3:0:0:0:
456,254,52510,1,0,3:0:0:0:
512,205,52596,6,2,B|500:188|479:183|479:183|499:174|507:156,1,82.5000031471254,0|0,1:0|0:0,0:1:0:0:
400,0,52767,5,2,0:0:0:0:
341,50,52853,1,2,0:0:0:0:
361,124,52939,1,8,1:0:0:0:
351,121,53024,6,0,B|391:114|391:114|409:128|409:128|480:116,2,101.749999611855,2|0|2,0:1|0:0|0:1,0:0:0:0:
173,66,53282,6,0,B|181:18|181:18|210:86|210:86|195:166,1,203.499999223709,2|0,1:3|3:0,0:0:0:0:
135,255,53539,1,0,3:0:0:0:
35,236,53624,1,8,1:0:0:0:
98,156,53710,5,2,0:0:0:0:
99,166,53796,1,2,0:0:0:0:
100,176,53882,1,2,0:0:0:0:
27,248,53967,6,2,P|13:222|18:194,1,55,0|0,1:0|0:0,0:1:0:0:
153,25,54139,1,2,0:0:0:0:
239,34,54224,1,2,0:0:0:0:
326,44,54310,1,8,1:0:0:0:
316,51,54396,6,0,B|309:91|309:91|323:109|323:109|311:180,2,101.749999611855,2|0|2,0:1|0:0|0:1,0:0:0:0:
419,9,54653,5,0,1:0:0:0:
420,24,54739,1,2,0:0:0:0:
422,40,54825,1,2,0:0:0:0:
423,56,54911,1,2,0:0:0:0:
430,145,54996,5,8,1:0:0:0:
423,197,55082,1,0,3:0:0:0:
450,175,55168,1,2,3:0:0:0:
400,169,55253,1,0,3:0:0:0:
262,224,55339,6,0,B|230:341|230:341|353:326|353:326|311:254,1,305.249998835564,12|0,1:2|0:0,0:0:0:0:
265,115,55682,5,8,1:0:0:0:
230,120,55767,1,2,0:0:0:0:
235,155,55853,1,2,0:0:0:0:
270,150,55939,1,2,0:0:0:0:
275,101,56024,1,8,1:0:0:0:
216,110,56109,1,2,0:0:0:0:
225,169,56195,1,2,0:0:0:0:
284,160,56281,1,2,0:0:0:0:
311,41,56367,6,0,B|286:21|285:-5|285:-5|279:20|252:36,1,110,8|0,1:0|3:0,0:0:0:0:
165,293,56539,2,0,B|193:310|199:335|199:335|200:309|225:289,1,110,2|0,3:0|3:0,0:0:0:0:
140,75,56710,6,0,L|135:129,1,55,8|0,1:0|0:0,0:0:0:0:
300,294,56882,1,2,0:0:0:0:
297,267,56967,1,2,0:0:0:0:
340,202,57053,5,8,1:0:0:0:
374,208,57139,1,2,0:0:0:0:
369,242,57224,1,2,0:0:0:0:
334,237,57310,1,2,0:0:0:0:
329,188,57396,1,8,1:0:0:0:
388,197,57482,1,2,0:0:0:0:
380,257,57567,1,2,0:0:0:0:
320,248,57653,1,2,0:0:0:0:
290,128,57739,6,0,B|313:107|312:81|312:81|320:105|349:120,1,110,8|0,1:0|3:0,0:0:0:0:
491,335,57910,2,0,B|461:350|454:375|454:375|454:349|431:327,1,110,2|0,3:0|3:0,0:0:0:0:
257,34,58082,5,12,1:2:0:0:
202,28,58167,1,0,0:0:0:0:
152,52,58253,1,0,1:0:0:0:
127,102,58339,1,0,1:0:0:0:
128,157,58424,1,8,1:0:0:0:
89,197,58510,1,0,1:0:0:0:
33,194,58596,1,0,1:0:0:0:
4,147,58682,1,0,1:0:0:0:
20,95,58767,5,8,1:0:0:0:
84,127,58853,1,0,1:0:0:0:
155,124,58939,1,0,1:0:0:0:
212,84,59024,1,0,1:0:0:0:
283,74,59110,1,8,1:0:0:0:
344,112,59196,1,0,1:0:0:0:
363,181,59282,1,0,1:0:0:0:
338,248,59367,1,0,1:0:0:0:
275,283,59453,6,0,L|271:341,1,41.2500015735627,0|0,1:0|3:0,3:0:0:0:
251,280,59539,2,0,L|247:338,1,41.2500015735627,0|0,3:0|3:0,3:0:0:0:
227,277,59624,2,0,L|223:335,1,41.2500015735627,0|0,3:0|3:0,3:0:0:0:
203,274,59710,2,0,L|199:332,1,41.2500015735627,0|0,3:0|3:0,3:0:0:0:
167,248,59796,2,0,L|163:190,1,41.2500015735627,0|0,1:0|3:0,3:0:0:0:
143,251,59882,2,0,L|139:193,1,41.2500015735627,0|0,3:0|3:0,3:0:0:0:
119,254,59967,2,0,L|115:196,1,41.2500015735627,0|0,3:0|3:0,3:0:0:0:
95,257,60053,2,0,L|91:199,1,41.2500015735627,0|0,3:0|3:0,3:0:0:0:
55,280,60139,6,0,P|40:306|-7:318,1,55,0|0,1:0|3:0,0:0:0:0:
52,272,60224,2,0,P|23:282|-19:261,1,55,0|0,3:0|3:0,3:0:0:0:
55,265,60310,2,0,P|26:254|6:210,1,55,0|0,3:0|3:0,3:0:0:0:
62,261,60396,2,0,P|46:235|60:188,1,55,0|0,3:0|3:0,3:0:0:0:
70,263,60482,2,0,P|75:233|115:206,1,55,0|0,1:0|3:0,3:0:0:0:
74,269,60567,2,0,P|96:249|145:254,1,55,0|0,3:0|3:0,3:0:0:0:
74,277,60653,2,0,P|104:276|137:311,1,55,0|0,3:0|3:0,3:0:0:0:
69,283,60739,2,0,P|92:302|95:350,1,55,0|0,3:0|3:0,3:0:0:0:
54,379,60824,5,4,1:0:0:0:
256,192,60910,12,0,66139,0:0:0:0:
166,150,66310,6,0,L|285:164,1,110,2|0,0:0|0:0,0:0:0:0:
96,224,66824,1,0,0:0:0:0:
278,151,66996,6,0,L|159:165,1,110,2|0,0:0|0:0,0:0:0:0:
348,225,67510,1,0,0:0:0:0:
300,39,67682,5,2,0:0:0:0:
278,151,67853,1,0,0:0:0:0:
399,117,68024,5,2,0:0:0:0:
233,85,68195,1,2,0:0:0:0:
282,281,68367,6,0,L|306:161,1,110,2|0,0:0|0:0,0:0:0:0:
40,235,68882,1,0,0:0:0:0:
222,162,69054,6,0,L|103:176,1,110,2|0,0:0|0:0,0:0:0:0:
292,236,69568,1,0,0:0:0:0:
110,162,69739,6,0,L|229:176,1,110,2|0,0:0|0:0,0:0:0:0:
40,235,70253,1,0,0:0:0:0:
174,73,70424,6,0,P|208:65|237:69,1,55,0|0,1:0|1:0,1:0:0:0:
287,250,70596,2,0,P|275:275|257:296,1,55,0|0,1:0|1:0,1:0:0:0:
286,125,70767,2,0,P|304:146|315:172,1,55,0|0,1:0|1:0,1:0:0:0:
174,303,70939,2,0,P|139:301|112:290,1,55,0|0,1:0|1:0,1:0:0:0:
370,237,71110,5,0,1:0:0:0:
371,247,71196,1,0,1:0:0:0:
372,257,71282,1,0,1:0:0:0:
373,267,71367,1,0,1:0:0:0:
410,338,71453,6,0,L|496:343,1,82.5,4|0,1:3|0:0,0:0:0:0:
340,381,71796,6,0,B|244:375|244:375|213:358|213:358|117:353,1,220,4|8,1:0|0:0,0:0:0:0:
324,277,72310,1,0,0:0:0:0:
123,382,72482,6,0,B|219:376|219:376|250:359|250:359|346:354,1,220,2|8,0:0|0:0,0:0:0:0:
139,276,72996,1,0,0:0:0:0:
430,248,73167,5,2,0:0:0:0:
243,263,73339,1,0,0:0:0:0:
512,211,73510,5,10,0:0:0:0:
328,177,73682,1,2,0:0:0:0:
450,373,73853,6,0,B|493:259|383:272|435:152,1,220,2|8,0:0|0:0,0:0:0:0:
245,102,74367,1,0,0:0:0:0:
133,298,74539,6,0,B|139:202|139:202|156:171|156:171|161:75,1,220,2|8,0:0|0:0,0:0:0:0:
244,277,75053,1,0,0:0:0:0:
132,81,75225,6,0,B|138:177|138:177|155:208|155:208|160:304,1,220,2|8,0:0|0:0,0:0:0:0:
245,102,75739,1,0,0:0:0:0:
150,384,75910,5,2,0:0:0:0:
348,317,76082,1,0,0:0:0:0:
45,331,76253,5,10,0:0:0:0:
252,353,76425,1,2,0:0:0:0:
155,95,76596,6,0,B|164:260|164:260|209:212,1,220,2|8,0:0|0:0,0:0:0:0:
492,64,77282,6,0,P|441:30|368:58,1,123.750004720688,8|0,0:0|0:0,0:0:0:0:
364,148,77624,2,0,P|413:181|472:168,1,123.750004720688,8|0,0:0|0:0,0:0:0:0:
428,106,77967,1,8,0:0:0:0:
148,147,78653,6,0,P|97:180|39:167,1,123.750004720688,8|0,0:0|0:0,0:0:0:0:
19,64,78995,2,0,P|69:29|128:43,1,123.750004720688,8|0,0:0|0:0,0:0:0:0:
84,106,79338,1,8,0:0:0:0:
306,275,80024,6,0,B|378:259|406:181|406:181|405:264|468:303,1,288.750011014939,8|0,0:0|0:0,0:0:0:0:
376,363,80710,2,0,B|234:420|246:286|99:332,1,288.750011014939,8|0,0:0|0:0,0:0:0:0:
87,338,81396,5,8,0:0:0:0:
219,255,81567,1,0,0:0:0:0:
100,23,81739,5,8,0:0:0:0:
72,176,81910,1,0,0:0:0:0:
345,131,82082,5,0,1:0:0:0:
309,96,82167,1,0,1:0:0:0:
259,94,82253,1,0,1:0:0:0:
220,125,82339,1,0,1:0:0:0:
210,173,82424,2,0,L|297:184,1,82.5,4|0,1:3|0:0,0:0:0:0:
221,270,82767,5,12,0:0:0:0:
164,55,82939,1,0,0:0:0:0:
8,210,83110,1,8,0:0:0:0:
221,270,83281,5,0,0:0:0:0:
230,242,83367,1,0,0:0:0:0:
210,173,83453,1,8,0:0:0:0:
7,374,83624,1,0,0:0:0:0:
172,354,83796,1,8,0:0:0:0:
75,85,83967,1,0,0:0:0:0:
81,305,84139,5,8,0:0:0:0:
270,193,84310,1,0,0:0:0:0:
75,85,84482,1,8,0:0:0:0:
81,305,84653,5,0,0:0:0:0:
109,314,84739,1,0,0:0:0:0:
178,294,84825,1,8,0:0:0:0:
144,10,84996,1,0,0:0:0:0:
16,139,85167,1,8,0:0:0:0:
300,105,85338,1,0,0:0:0:0:
178,294,85510,5,8,0:0:0:0:
139,85,85682,1,0,0:0:0:0:
216,135,85853,1,0,0:0:0:0:
102,308,86025,1,0,0:0:0:0:
217,46,86196,5,8,0:0:0:0:
371,280,86368,1,0,0:0:0:0:
319,65,86539,1,0,0:0:0:0:
267,347,86711,1,0,0:0:0:0:
80,231,86882,5,8,0:0:0:0:
274,129,87053,1,0,0:0:0:0:
267,347,87224,1,8,0:0:0:0:
80,231,87396,5,0,0:0:0:0:
71,203,87482,1,0,0:0:0:0:
91,134,87568,1,8,0:0:0:0:
384,225,87739,1,0,0:0:0:0:
183,254,87910,1,8,0:0:0:0:
442,90,88081,1,0,0:0:0:0:
278,194,88253,5,12,0:2:0:0:
234,187,88339,1,0,0:0:0:0:
198,161,88424,1,0,0:0:0:0:
181,119,88510,1,0,0:0:0:0:
188,75,88596,1,8,0:0:0:0:
167,36,88682,1,0,0:0:0:0:
125,21,88767,1,0,0:0:0:0:
83,34,88853,1,0,0:0:0:0:
64,74,88939,6,0,L|69:154,1,55,8|0,0:0|0:0,0:0:0:0:
230,241,89110,2,0,L|235:161,1,55
0,177,89282,2,0,L|5:257,1,55,8|0,0:0|0:0,0:0:0:0:
308,148,89453,2,0,L|313:68,1,55
112,271,89624,5,8,0:0:0:0:
135,321,89710,1,0,0:0:0:0:
183,346,89796,1,0,0:0:0:0:
238,347,89882,1,0,0:0:0:0:
284,319,89967,1,8,0:0:0:0:
308,269,90053,1,0,0:0:0:0:
357,245,90139,1,0,0:0:0:0:
411,251,90224,1,0,0:0:0:0:
453,286,90310,6,0,L|456:364,1,55,8|0,0:0|0:0,0:0:0:0:
334,145,90482,2,0,L|337:67,1,55
386,384,90653,2,0,L|308:381,1,55,8|0,0:0|0:0,0:0:0:0:
202,210,90824,2,0,L|205:132,1,55
471,198,90996,2,0,L|516:203,28,27.5,0|0|0|0|0|0|0|0|0|0|0|0|0|0|0|0|0|0|0|0|0|0|0|0|0|0|0|0|0,1:0|3:0|3:0|3:0|3:0|3:0|3:0|3:0|3:0|3:0|3:0|3:0|3:0|3:0|3:0|3:0|3:0|3:0|3:0|3:0|3:0|3:0|3:0|3:0|3:0|3:0|3:0|3:0|3:0,0:0:0:0:
351,180,91682,6,0,L|347:150,14,20.6250007867813,0|0|0|0|0|0|0|0|0|0|0|0|0|0|0,3:0|3:0|3:0|3:0|3:0|3:0|3:0|3:0|3:0|3:0|3:0|3:0|3:0|3:0|3:0,3:0:0:0:
293,98,92024,2,0,L|296:68,14,20.6250007867813,0|0|0|0|0|0|0|0|0|0|0|0|0|0|0,3:0|3:0|3:0|3:0|3:0|3:0|3:0|3:0|3:0|3:0|3:0|3:0|3:0|3:0|3:0,3:0:0:0:
226,149,92367,6,0,L|98:156,1,123.750004720688,8|0,0:0|0:0,0:0:0:0:
102,145,92710,2,0,L|230:138,1,123.750004720688,8|0,0:0|0:0,0:0:0:0:
82,225,93053,6,0,L|38:223,3,41.2500015735627,8|0|0|0,0:0|0:0|0:0|0:0,0:0:0:0:
172,279,93396,2,0,L|216:277,3,41.2500015735627
256,99,93739,6,0,B|238:46|238:46|336:67|336:67|324:122|324:122|319:129|319:129|303:203,1,272.250002596378,4|0,1:0|0:0,0:0:0:0:
178,174,94082,2,0,L|232:170,1,55,2|2,0:3|0:0,0:0:0:0:
126,231,94339,1,2,0:0:0:0:
50,219,94424,5,10,1:0:0:0:
4,188,94509,1,0,3:0:0:0:
12,133,94595,1,2,3:1:0:0:
22,78,94681,1,0,3:1:0:0:
46,197,94767,5,2,1:0:0:0:
17,178,94852,1,0,3:0:0:0:
21,144,94938,1,2,3:1:0:0:
28,110,95024,1,0,3:1:0:0:
133,151,95110,6,2,B|168:162|196:139|196:139|170:261,1,165,2|0,0:1|0:0,0:1:0:0:
195,338,95453,2,0,L|140:334,1,55,0|2,1:0|0:0,0:0:0:0:
252,286,95710,1,2,0:0:0:0:
325,310,95796,5,10,1:0:0:0:
373,283,95881,1,0,3:0:0:0:
369,227,95967,1,2,3:1:0:0:
362,172,96053,1,0,3:1:0:0:
330,289,96139,5,2,0:1:0:0:
360,272,96224,1,0,3:0:0:0:
359,237,96310,1,2,3:1:0:0:
354,203,96396,1,0,3:1:0:0:
209,207,96482,6,0,B|166:260|265:313|329:214|248:139,1,203.499999223709,2|2,1:3|0:3,0:0:0:0:
163,8,96739,1,2,0:3:0:0:
126,77,96824,2,0,P|187:104|231:52,1,146.666666666667,2|0,0:3|0:0,0:0:0:0:
266,59,96996,2,0,P|327:31|371:83,1,146.666666666667,2|0,0:3|0:0,0:0:0:0:
492,51,97167,5,10,1:0:0:0:
446,82,97252,1,0,3:0:0:0:
454,137,97338,1,2,3:1:0:0:
464,192,97424,1,0,3:1:0:0:
488,73,97510,5,2,1:0:0:0:
459,92,97595,1,0,3:0:0:0:
463,126,97681,1,2,3:1:0:0:
470,160,97767,1,0,3:1:0:0:
136,275,98024,6,2,B|94:315|43:271|43:271|77:259|111:294,1,146.666666666667,2|0,0:0|0:0,0:1:0:0:
209,206,98196,2,2,B|264:221|252:287|252:287|224:264|237:217,1,146.666666666667,2|0,1:2|0:0,0:1:0:0:
113,177,98367,2,2,B|99:121|162:98|162:98|155:134|108:146,1,146.666666666667,2|0,0:0|0:0,0:1:0:0:
189,330,98539,6,0,L|184:376,1,36.6666666666667,8|0,1:0|0:0,0:0:0:0:
209,206,98710,6,2,B|239:184|277:194|277:194|309:232|366:212,1,146.666666666667,2|0,0:0|0:0,0:1:0:0:
470,151,98882,2,2,B|478:126|464:99|464:99|511:138|487:215|415:212,1,206.25,2|0,0:0|0:0,0:1:0:0:
260,78,99224,6,0,B|242:1|358:-22|400:137|226:77|286:230,1,272.250002596378,0|0,1:0|0:0,0:0:0:0:
205,313,99567,2,0,L|150:305,1,55,2|2,0:3|0:0,0:0:0:0:
260,366,99824,1,2,0:0:0:0:
336,354,99910,5,10,1:0:0:0:
382,324,99995,1,0,3:0:0:0:
399,273,100081,1,2,3:1:0:0:
382,222,100167,1,0,3:1:0:0:
332,332,100253,5,2,1:0:0:0:
365,312,100338,1,0,3:0:0:0:
378,275,100424,1,2,3:1:0:0:
365,238,100510,1,0,3:0:0:0:
261,257,100596,6,2,B|226:246|198:269|198:269|224:147,1,165,2|0,0:1|0:0,0:1:0:0:
263,49,100939,2,0,L|334:45,1,55,0|2,1:0|0:0,0:0:0:0:
201,1,101196,1,2,0:0:0:0:
133,39,101282,5,10,1:0:0:0:
115,89,101367,1,0,3:0:0:0:
131,140,101453,1,2,3:1:0:0:
175,170,101539,1,0,3:1:0:0:
150,53,101625,5,2,3:1:0:0:
135,89,101710,1,0,3:0:0:0:
147,126,101796,1,2,3:1:0:0:
179,148,101882,1,0,3:0:0:0:
317,120,101967,6,0,B|301:55|301:55|245:107|245:107|261:175,1,203.499999223709,2|2,1:3|0:3,0:0:0:0:
397,328,102224,1,2,0:3:0:0:
453,273,102310,2,0,B|440:242|440:242|363:236|363:236|346:266,1,146.666666666667,2|0,0:3|0:0,0:0:0:0:
320,264,102482,2,0,B|307:295|307:295|230:301|230:301|213:271,1,146.666666666667,2|0,0:3|0:0,0:0:0:0:
110,274,102653,5,10,1:0:0:0:
60,250,102738,1,0,3:0:0:0:
37,201,102824,1,2,3:1:0:0:
47,148,102910,1,0,3:1:0:0:
111,251,102996,5,2,1:0:0:0:
75,235,103081,1,0,3:0:0:0:
58,200,103167,1,2,3:1:0:0:
65,162,103253,1,0,3:0:0:0:
140,88,103339,6,0,B|135:168|135:168|143:177|143:177|137:293,1,165,2|0,1:0|0:0,0:0:0:0:
218,362,103682,2,0,B|213:283|213:283|221:274|221:274|215:158,1,165,2|0,0:0|0:0,0:0:0:0:
213,121,104024,5,2,0:0:0:0:
240,124,104109,1,0,0:0:0:0:
266,118,104195,1,0,0:0:0:0:
290,104,104281,1,0,0:0:0:0:
329,169,104367,5,2,0:0:0:0:
363,195,104452,1,0,0:0:0:0:
406,203,104538,1,0,0:0:0:0:
447,188,104624,1,0,0:0:0:0:
496,100,104710,6,0,B|427:57|427:57|421:143|421:143|401:166|401:166|417:287,1,272.250002596378,4|0,1:0|0:0,0:0:0:0:
404,377,105053,2,0,L|458:379,1,55,2|2,0:3|0:0,0:0:0:0:
355,316,105310,1,2,0:0:0:0:
281,338,105396,5,10,1:0:0:0:
277,369,105482,1,0,3:0:0:0:
260,335,105567,1,2,3:1:0:0:
256,366,105653,1,0,3:0:0:0:
214,257,105739,5,2,1:0:0:0:
210,226,105825,1,0,3:0:0:0:
193,260,105910,1,2,3:1:0:0:
189,229,105996,1,0,3:0:0:0:
137,329,106082,6,0,B|131:357|144:384|144:384|110:346|62:351|62:351|90:322|84:289|84:289|61:257|83:211,1,272.250002596378,2|0,0:3|0:0,0:0:0:0:
65,74,106424,2,0,L|10:79,1,55,0|0,1:0|0:0,0:0:0:0:
130,115,106682,1,0,0:0:0:0:
194,73,106767,5,10,1:0:0:0:
198,42,106853,1,0,3:0:0:0:
215,76,106938,1,2,3:1:0:0:
219,45,107024,1,0,3:0:0:0:
256,155,107110,5,2,3:1:0:0:
260,186,107196,1,0,3:0:0:0:
277,152,107281,1,2,3:1:0:0:
281,183,107367,1,0,3:0:0:0:
363,125,107453,6,0,B|370:84|370:84|374:60|358:32|322:26|297:47|293:71|293:71|286:111,1,203.499999223709,2|0,1:3|0:0,0:0:0:0:
351,321,107710,1,2,0:3:0:0:
416,282,107796,2,0,P|365:229|305:273,1,146.666666666667,2|0,0:3|0:0,0:0:0:0:
281,253,107967,2,0,P|230:306|170:262,1,146.666666666667,2|0,0:3|0:0,0:0:0:0:
99,237,108139,5,10,1:0:0:0:
67,238,108225,1,0,3:0:0:0:
98,215,108310,1,2,3:1:0:0:
67,217,108396,1,0,3:0:0:0:
180,186,108482,5,2,3:1:0:0:
212,187,108568,1,0,3:0:0:0:
181,164,108653,1,2,3:1:0:0:
212,166,108739,1,0,3:0:0:0:
85,134,108824,6,0,B|30:76|80:7|80:7|60:51|76:81,1,206.25,2|0,0:0|0:0,0:0:0:0:
142,276,109167,6,2,B|30:300|30:300|-11:198|-11:198|84:221,1,305.249998835564,2|0,1:0|1:0,0:1:0:0:
263,238,109510,6,0,B|256:329|256:329|187:361,1,135.666666149139,10|0,1:0|0:0,0:0:0:0:
215,347,109682,2,0,B|222:256|222:256|291:224,1,135.666666149139,2|0,1:0|0:0,0:0:0:0:
402,281,109939,6,0,B|441:303|441:303|338:296,1,148.500000566483,2|0,1:0|0:0,0:0:0:0:
204,178,110196,6,0,B|182:147|182:147|293:120|293:120|261:237,1,272.250002596378,4|0,1:0|0:0,0:0:0:0:
317,379,110539,2,0,L|371:375,1,55,8|0,0:1|0:0,0:0:0:0:
264,322,110796,1,0,0:0:0:0:
190,343,110882,5,10,1:0:0:0:
184,383,110968,1,0,3:0:0:0:
162,339,111053,1,2,3:1:0:0:
157,379,111139,1,0,3:0:0:0:
158,239,111225,5,10,1:0:0:0:
152,199,111311,1,0,3:0:0:0:
130,243,111396,1,2,3:1:0:0:
125,203,111482,1,0,3:0:0:0:
235,272,111567,6,0,B|309:229|304:297|378:258|378:258|368:221|391:191|391:191|370:211|329:213,1,272.250002596378,8|0,1:0|0:0,0:0:0:0:
158,239,111910,2,0,L|152:293,1,55,8|2,0:1|0:0,0:0:0:0:
221,196,112167,1,2,0:0:0:0:
211,121,112253,5,10,1:0:0:0:
205,81,112339,1,0,3:0:0:0:
183,125,112424,1,2,3:1:0:0:
178,85,112510,1,0,3:0:0:0:
129,204,112596,5,10,1:0:0:0:
123,244,112682,1,0,3:0:0:0:
101,200,112767,1,2,3:1:0:0:
96,240,112853,1,0,3:0:0:0:
36,113,112939,6,0,B|14:69|14:69|17:165|17:165|13:169|13:169|18:173|18:173|20:237,1,203.499999223709,4|2,1:2|1:3,0:0:0:0:
49,358,113196,1,2,1:3:0:0:
118,319,113282,6,0,L|115:250,1,68.75,8|0,1:0|1:0,1:0:0:0:
241,27,113453,2,0,L|238:95,1,68.75,0|0,1:0|1:0,1:0:0:0:
219,296,113624,6,0,P|240:262|225:214,1,68.75,10|0,1:0|1:0,1:0:0:0:
148,81,113796,2,0,P|126:47|76:40,1,68.75,2|0,1:0|1:0,1:0:0:0:
225,374,113967,6,0,P|263:364|287:320,1,68.75,10|0,1:0|1:0,1:0:0:0:
326,171,114139,2,0,P|334:131|304:91,1,68.75,2|0,1:0|1:0,1:0:0:0:
427,304,114310,6,0,L|482:312,1,41.2500015735627,0|0,1:0|3:0,3:0:0:0:
425,295,114396,2,0,L|473:266,1,41.2500015735627,0|0,3:0|3:0,3:0:0:0:
419,290,114482,2,0,L|437:237,1,41.2500015735627,0|0,3:0|3:0,3:0:0:0:
410,290,114568,2,0,L|389:237,1,41.2500015735627,0|0,3:0|3:0,3:0:0:0:
404,296,114653,2,0,L|355:268,1,41.2500015735627,0|0,3:0|3:0,3:0:0:0:
403,304,114739,2,0,L|348:314,1,41.2500015735627,0|0,3:0|3:0,3:0:0:0:
407,311,114825,2,0,L|371:354,1,41.2500015735627,0|0,3:0|3:0,3:0:0:0:
415,314,114911,2,0,L|415:369,1,41.2500015735627,0|0,3:0|3:0,3:0:0:0:
450,342,114996,6,0,L|421:311,1,41.2500015735627,0|0,3:0|3:0,3:0:0:0:
490,321,115082,2,0,L|449:311,1,41.2500015735627,0|0,3:0|3:0,3:0:0:0:
512,280,115167,2,0,L|474:295,1,41.2500015735627,0|0,3:0|3:0,3:0:0:0:
506,234,115253,2,0,L|484:267,1,41.2500015735627,0|0,3:0|3:0,3:0:0:0:
475,199,115339,2,0,L|477:238,1,41.2500015735627,0|0,3:0|3:0,3:0:0:0:
429,189,115424,2,0,L|454:219,1,41.2500015735627,0|0,3:0|3:0,3:0:0:0:
386,206,115510,2,0,L|425:216,1,41.2500015735627,0|0,3:0|3:0,3:0:0:0:
361,244,115596,2,0,L|399:229,1,41.2500015735627,0|0,3:0|3:0,3:0:0:0:
436,265,115681,5,4,1:0:0:0:
256,192,115767,12,0,125282,0:0:0:0:
40,241,126653,5,8,0:0:0:0:
41,263,126996,1,8,0:0:0:0:
42,285,127339,1,8,0:0:0:0:
43,307,127682,1,8,0:0:0:0:
267,191,128024,5,8,0:0:0:0:
266,213,128367,1,8,0:0:0:0:
265,235,128710,1,8,0:0:0:0:
264,257,129053,1,8,0:0:0:0:
391,224,129224,1,8,0:0:0:0:
339,42,129396,5,8,0:0:0:0:
317,40,129739,1,8,0:0:0:0:
295,38,130082,1,8,0:0:0:0:
273,36,130424,1,8,0:0:0:0:
48,150,130767,5,8,0:0:0:0:
70,148,131110,1,8,0:0:0:0:
92,146,131453,1,8,0:0:0:0:
185,134,131710,1,8,0:0:0:0:
174,135,131796,1,8,0:0:0:0:
147,241,131967,1,8,0:0:0:0:
380,195,132139,5,8,0:0:0:0:
382,173,132482,1,8,0:0:0:0:
384,151,132825,1,8,0:0:0:0:
386,129,133167,1,8,0:0:0:0:
160,236,133510,5,8,0:0:0:0:
158,214,133853,1,8,0:0:0:0:
156,192,134196,1,8,0:0:0:0:
154,170,134538,1,8,0:0:0:0:
282,201,134710,1,8,0:0:0:0:
228,376,134882,5,0,1:0:0:0:
206,372,134967,1,0,1:0:0:0:
184,368,135053,1,0,1:0:0:0:
162,364,135139,1,0,1:0:0:0:
140,367,135224,1,0,1:0:0:0:
118,363,135309,1,0,1:0:0:0:
96,359,135395,1,0,1:0:0:0:
74,355,135481,1,0,1:0:0:0:
19,292,135567,5,0,1:2:0:0:
14,260,135653,1,0,1:0:0:0:
4,278,135738,1,0,1:0:0:0:
32,273,135824,1,0,1:0:0:0:
104,233,135910,5,0,1:2:0:0:
136,236,135996,1,0,1:0:0:0:
121,220,136081,1,0,1:0:0:0:
118,250,136167,1,0,1:0:0:0:
181,302,136253,5,0,1:0:0:0:
213,305,136339,1,0,1:0:0:0:
276,252,136424,5,0,1:0:0:0:
273,220,136510,1,0,1:0:0:0:
330,160,136596,5,0,1:0:0:0:
362,162,136682,1,0,1:0:0:0:
414,225,136767,5,0,1:0:0:0:
406,256,136853,1,0,1:0:0:0:
351,312,136939,6,0,P|299:288|342:247,1,123.750004720688,4|0,1:3|0:0,0:0:0:0:
268,371,137282,6,0,B|180:376|180:376|145:354|145:354|29:342,1,206.25,4|0,1:3|0:0,0:0:0:0:
1,250,137624,6,0,P|54:269|101:135,1,220,4|0,1:0|0:0,0:0:0:0:
114,150,138139,1,0,0:0:0:0:
149,184,138225,1,0,0:0:0:0:
198,183,138310,1,2,0:0:0:0:
323,0,138482,5,0,0:0:0:0:
306,182,138653,1,2,0:0:0:0:
323,0,138824,1,0,0:0:0:0:
84,70,138996,6,0,B|99:215|99:215|179:147,1,220,2|2,0:0|0:0,0:0:0:0:
144,0,139510,1,0,0:0:0:0:
99,215,139682,2,0,P|132:255|218:252,1,123.750004720688,2|0,0:0|0:0,0:0:0:0:
242,188,140024,6,0,L|232:278,1,82.5,4|0,1:3|0:0,0:0:0:0:
354,359,140367,6,0,B|396:250|293:259|335:151,1,220,2|0,0:0|0:0,0:0:0:0:
336,150,140882,1,0,0:0:0:0:
297,181,140968,1,0,0:0:0:0:
248,177,141053,1,2,0:0:0:0:
19,82,141224,5,0,0:0:0:0:
193,58,141396,1,2,0:0:0:0:
19,82,141567,1,0,0:0:0:0:
89,309,141739,5,8,1:0:0:0:
113,135,141911,1,2,0:0:0:0:
228,372,142082,5,8,1:0:0:0:
204,198,142254,1,2,0:0:0:0:
499,297,142424,5,10,1:2:0:0:
325,273,142596,1,8,1:0:0:0:
441,65,142767,6,0,L|449:164,1,82.5,4|0,1:3|0:0,0:0:0:0:
350,186,143110,6,0,B|199:170|199:170|174:139|203:104,1,220,2|0,0:0|0:0,0:0:0:0:
200,107,143624,1,0,0:0:0:0:
231,145,143710,1,0,0:0:0:0:
222,193,143795,1,2,0:0:0:0:
55,351,143967,5,0,0:0:0:0:
40,162,144139,1,2,0:0:0:0:
55,351,144310,1,0,0:0:0:0:
314,244,144482,6,0,B|157:222|157:222|208:315,1,220,2|2,0:0|0:0,0:0:0:0:
367,316,144996,1,0,0:0:0:0:
158,222,145167,2,0,P|131:177|160:91,1,123.750004720688,2|0,0:0|0:0,0:0:0:0:
236,119,145510,6,0,L|159:123,1,55,4|0,0:3|0:0,0:0:0:0:
103,18,145853,5,2,0:0:0:0:
311,42,146024,1,2,0:0:0:0:
130,21,146195,5,2,0:0:0:0:
283,38,146366,1,2,0:0:0:0:
199,97,146539,5,2,1:2:0:0:
189,128,146625,1,0,1:0:0:0:
221,138,146711,1,0,1:0:0:0:
230,105,146796,1,0,1:0:0:0:
172,106,146882,1,2,1:2:0:0:
199,154,146968,1,0,1:0:0:0:
247,127,147054,1,0,1:0:0:0:
220,80,147139,1,0,1:0:0:0:
209,116,147224,6,0,B|220:192|308:209|369:155|369:155|287:152|231:221|271:288,1,412.5,0|0,1:0|0:0,0:0:0:0:
359,352,148596,6,0,L|499:338,1,123.750004720688,8|0,0:0|0:0,0:0:0:0:
470,261,148939,2,0,L|330:275,1,123.750004720688,8|0,0:0|0:0,0:0:0:0:
286,323,149282,1,8,0:0:0:0:
144,113,149967,6,0,L|4:99,1,123.750004720688,8|0,0:0|0:0,0:0:0:0:
33,22,150310,2,0,L|173:36,1,123.750004720688,8|0,0:0|0:0,0:0:0:0:
217,84,150653,1,8,0:0:0:0:
93,262,151339,6,0,B|99:202|156:164|227:180|258:228|258:228|243:263|199:265,1,288.750011014939,8|0,0:0|0:0,0:0:0:0:
30,209,152024,2,0,P|137:119|274:145,1,288.750011014939,8|0,0:0|0:0,0:0:0:0:
283,159,152710,5,8,0:0:0:0:
140,197,152882,1,0,0:0:0:0:
400,83,153053,5,8,0:0:0:0:
257,45,153225,1,0,1:0:0:0:
277,42,153310,1,0,1:0:0:0:
280,116,153396,5,8,1:0:0:0:
232,148,153482,1,0,1:0:0:0:
174,143,153567,1,0,1:0:0:0:
129,105,153653,1,0,1:0:0:0:
122,47,153739,2,0,P|156:85|155:132,1,82.5,4|0,1:3|0:0,0:0:0:0:
92,197,154082,5,12,0:0:0:0:
331,223,154253,1,0,0:0:0:0:
79,201,154424,1,0,0:0:0:0:
455,145,154596,5,8,0:0:0:0:
216,171,154767,1,0,0:0:0:0:
468,149,154938,1,0,0:0:0:0:
125,65,155110,5,8,0:0:0:0:
342,160,155282,1,0,0:0:0:0:
40,365,155453,5,8,0:0:0:0:
24,124,155624,1,0,0:0:0:0:
154,329,155796,1,0,0:0:0:0:
92,34,155967,5,8,0:0:0:0:
76,275,156138,1,0,0:0:0:0:
206,70,156310,1,0,0:0:0:0:
144,365,156482,5,8,0:0:0:0:
363,264,156653,1,0,0:0:0:0:
336,255,156739,1,0,0:0:0:0:
266,266,156824,5,8,0:0:0:0:
488,362,156996,1,0,0:0:0:0:
453,123,157167,1,0,0:0:0:0:
182,335,157339,5,8,0:0:0:0:
406,246,157511,1,0,0:0:0:0:
213,102,157682,1,0,0:0:0:0:
41,322,157853,5,8,0:0:0:0:
261,224,158024,1,0,0:0:0:0:
36,21,158196,5,8,0:0:0:0:
134,241,158367,1,0,1:0:0:0:
141,197,158453,1,0,3:0:0:0:
149,153,158539,2,0,L|160:226,1,55,0|0,0:0|3:0,0:0:0:0:
252,305,158710,5,8,1:0:0:0:
259,261,158796,1,0,3:0:0:0:
267,217,158882,1,0,1:0:0:0:
274,173,158967,1,0,3:0:0:0:
282,129,159053,2,0,L|293:202,1,55,0|0,0:0|3:0,0:0:0:0:
386,308,159224,5,8,0:0:0:0:
397,237,159310,1,0,3:0:0:0:
410,166,159396,2,0,L|421:239,1,55
316,355,159567,5,12,0:2:0:0:
283,351,159653,1,0,0:0:0:0:
252,339,159739,1,0,0:0:0:0:
227,317,159824,1,0,0:0:0:0:
215,286,159910,1,8,0:0:0:0:
213,252,159996,1,0,0:0:0:0:
200,221,160082,1,0,0:0:0:0:
175,199,160167,1,0,0:0:0:0:
142,191,160253,5,8,0:0:0:0:
155,232,160338,1,0,0:0:0:0:
191,257,160424,1,0,0:0:0:0:
236,256,160510,1,0,0:0:0:0:
270,230,160596,1,8,0:0:0:0:
284,188,160681,1,0,0:0:0:0:
269,146,160767,1,0,0:0:0:0:
233,120,160853,1,0,0:0:0:0:
190,122,160938,5,12,0:2:0:0:
230,84,161024,1,0,0:0:0:0:
284,76,161110,1,0,0:0:0:0:
335,96,161196,1,0,0:0:0:0:
362,143,161282,1,8,0:0:0:0:
357,197,161367,1,0,0:0:0:0:
379,247,161453,1,0,0:0:0:0:
428,270,161539,1,0,0:0:0:0:
481,261,161624,5,8,0:0:0:0:
450,202,161710,1,0,0:0:0:0:
386,181,161796,1,0,0:0:0:0:
322,199,161882,1,0,0:0:0:0:
286,253,161967,1,8,0:0:0:0:
225,280,162053,1,0,0:0:0:0:
160,265,162139,1,0,0:0:0:0:
114,218,162224,1,0,0:0:0:0:
109,151,162310,6,0,L|170:144,1,55,12|0,1:2|0:0,0:0:0:0:
415,308,162482,2,0,L|354:301,1,55,8|0,1:0|0:0,0:0:0:0:
183,375,162653,2,0,L|189:320,1,55,8|0,1:0|0:0,0:0:0:0:
340,69,162825,2,0,L|346:123,1,55,8|0,1:0|0:0,0:0:0:0:
93,331,162996,5,8,0:0:0:0:
24,308,163082,1,8,0:0:0:0:
24,237,163167,1,8,0:0:0:0:
93,215,163253,1,8,0:0:0:0:
135,273,163339,1,8,0:0:0:0:
96,341,163424,1,8,0:0:0:0:
15,314,163510,1,8,0:0:0:0:
15,230,163595,1,8,0:0:0:0:
96,204,163682,6,0,L|222:222,1,123.750004720688,8|0,1:2|0:0,0:0:0:0:
219,210,164025,2,0,L|92:191,1,123.750004720688,8|0,0:0|0:0,0:0:0:0:
186,304,164367,2,0,L|274:299,1,82.5,8|0,0:0|0:0,0:0:0:0:
290,297,164710,5,8,0:0:0:0:
93,311,164882,1,0,1:0:0:0:
368,384,165053,6,0,B|373:320|373:320|378:312|378:312|384:240,1,137.5,4|0,1:0|0:0,0:0:0:0:
323,85,165310,1,0,3:0:0:0:
297,75,165396,2,0,L|302:143,1,68.75,8|0,1:0|0:0,0:0:0:0:
494,366,165567,6,2,P|481:242|356:299,1,247.500009441376,2|0,0:1|0:0,1:0:0:0:
263,377,165910,2,0,P|283:337|276:283,1,82.5000031471254,2|0,1:0|0:0,0:0:0:0:
215,88,166082,1,8,1:0:0:0:
167,237,166253,2,0,L|214:241,1,36.6666666666667,2|0,0:0|0:0,0:0:0:0:
221,229,166424,6,0,B|69:214|69:214|126:170,1,206.25,0|0,1:0|0:0,0:0:0:0:
313,182,166767,2,0,L|323:274,1,68.75,8|0,1:0|0:0,0:0:0:0:
75,337,166939,6,2,B|8:325|-11:223|47:174|47:174|68:213,1,247.500009441376,2|0,0:1|0:0,1:0:0:0:
144,306,167282,2,2,P|149:346|134:384,1,82.5000031471254,0|0,1:0|0:0,1:0:0:0:
16,104,167453,2,2,P|11:64|27:27,1,82.5000031471254,8|0,1:0|0:0,1:0:0:0:
75,337,167624,2,2,P|50:369|12:384,1,82.5000031471254,0|0,0:0|0:0,1:0:0:0:
86,75,167796,6,0,B|133:79|133:79|150:72|150:72|165:81|165:81|305:94,1,206.25,4|0,1:3|0:0,0:0:0:0:
447,107,168139,1,8,1:0:0:0:
447,107,168310,2,0,P|427:41|327:52,1,165,2|0,0:0|0:0,0:0:0:0:
365,172,168653,2,0,L|362:95,1,55,2|0,1:2|0:0,0:0:0:0:
99,50,168824,2,0,L|96:127,1,55,10|0,1:2|0:0,0:0:0:0:
178,108,168996,2,0,L|180:40,1,55,2|0,0:2|0:0,0:0:0:0:
25,193,169167,6,2,P|66:192|111:204,1,82.5000031471254,0|0,1:0|0:0,1:0:0:0:
279,113,169339,2,2,P|318:102|359:101,1,82.5000031471254,0|0,0:0|0:0,1:0:0:0:
209,366,169510,6,2,L|204:276,1,82.5000031471254,8|0,1:0|0:0,0:1:0:0:
275,103,169682,2,2,P|314:91|355:91,1,82.5000031471254,0|0,0:0|0:0,1:0:0:0:
122,333,169853,2,2,L|128:223,1,110,0|0,0:0|1:0,0:1:0:0:
137,203,170110,5,0,1:0:0:0:
47,265,170196,2,0,B|1:242|1:242|22:100|22:100|87:87,1,247.500009441376,10|0,1:0|0:0,1:0:0:0:
213,206,170539,6,0,B|277:201|277:201|285:196|285:196|357:190,1,137.5,0|0,1:0|0:0,0:0:0:0:
500,242,170796,1,0,3:0:0:0:
510,268,170882,2,0,L|442:263,1,68.75,8|0,1:0|0:0,0:0:0:0:
164,58,171053,6,0,P|268:50|267:176,1,247.500009441376,2|0,0:1|0:0,1:0:0:0:
90,188,171396,2,0,P|129:166|178:177,1,82.5000031471254,2|0,1:0|0:0,0:0:0:0:
360,293,171567,1,8,1:0:0:0:
233,324,171739,2,0,L|228:274,1,36.6666666666667,2|0,0:0|0:0,0:0:0:0:
239,251,171910,6,0,B|251:356|251:356|360:305,1,206.25,0|0,1:0|0:0,0:0:0:0:
227,162,172253,2,0,L|239:258,1,68.75,8|0,1:0|0:0,0:0:0:0:
437,355,172424,6,2,B|470:372|470:372|537:335|528:211|440:199,1,247.500009441376,2|0,0:1|0:0,1:0:0:0:
306,207,172767,2,2,P|344:227|393:219,1,82.5000031471254,0|0,1:0|0:0,1:0:0:0:
495,3,172939,2,2,P|458:25|441:72,1,82.5000031471254,8|0,1:0|0:0,1:0:0:0:
438,278,173110,2,2,P|458:240|450:191,1,82.5000031471254,0|0,0:0|0:0,1:0:0:0:
339,25,173282,6,0,B|283:27|283:27|259:37|259:37|195:40,1,137.5,4|0,1:3|0:0,0:0:0:0:
37,33,173539,1,0,1:0:0:0:
27,7,173625,2,0,L|95:12,1,68.75,8|0,1:0|0:0,0:0:0:0:
287,164,173796,6,0,P|215:178|164:85,1,165,2|0,0:0|0:0,0:0:0:0:
283,83,174139,1,2,1:2:0:0:
325,92,174224,1,0,1:0:0:0:
367,101,174310,1,8,1:0:0:0:
137,129,174482,1,10,1:2:0:0:
427,270,174653,6,2,L|343:281,1,55,0|0,0:0|0:0,0:1:0:0:
242,245,174824,2,2,L|326:234,1,55,0|0,0:0|0:0,0:1:0:0:
474,316,174996,2,2,L|337:298,1,96.2500009179115,0|0,0:0|0:0,0:1:0:0:
194,198,175167,2,2,L|331:216,1,96.2500009179115,0|0,0:0|0:0,0:1:0:0:
498,232,175339,6,2,L|487:45,1,165,8|0,0:0|0:0,0:1:0:0:
476,68,175682,2,0,L|487:255,1,165,8|0,0:0|0:0,0:0:0:0:
383,340,176024,6,0,B|264:403|149:288|222:171|360:236|279:346,1,343.75,4|0,1:0|0:0,0:0:0:0:
192,384,176539,6,2,L|-15:370,1,192.500001835823,2|8,0:1|1:0,1:0:0:0:
179,372,176882,2,2,L|15:361,1,165,2|0,0:1|0:0,1:0:0:0:
73,293,177224,2,0,L|109:295,1,36.6666666666667,2|0,0:0|0:0,0:0:0:0:
129,295,177396,6,0,B|101:118|101:118|195:148|195:148|158:251,1,343.75,0|0,1:0|0:0,0:0:0:0:
209,312,177910,6,2,L|77:283,1,82.5000031471254,0|0,0:0|0:0,1:0:0:0:
240,88,178082,2,2,L|326:49,1,82.5000031471254,8|0,0:0|0:0,1:0:0:0:
346,289,178253,2,2,L|298:370,1,82.5000031471254,0|0,0:0|0:0,1:0:0:0:
142,188,178424,2,2,L|132:94,1,82.5000031471254,0|0,0:0|0:0,1:0:0:0:
365,150,178596,2,2,L|427:220,1,82.5000031471254,0|0,0:0|0:0,1:0:0:0:
161,382,178767,6,0,L|51:377,1,110,4|0,1:3|0:0,0:0:0:0:
172,224,179282,6,0,P|220:270|210:331,1,110,2|8,0:0|1:0,0:0:0:0:
403,384,179624,2,0,L|408:310,1,55,2|0,0:0|0:0,0:0:0:0:
331,127,179796,2,0,L|336:201,1,55,2|0,0:0|0:0,0:0:0:0:
410,175,179967,2,0,L|405:101,1,55,2|0,0:0|0:0,0:0:0:0:
294,252,180139,6,2,L|198:243,1,82.5000031471254,0|0,1:0|0:0,1:0:0:0:
111,235,180310,2,2,L|15:226,1,82.5000031471254,0|0,0:0|0:0,1:0:0:0:
151,104,180482,2,2,P|173:142|145:203,1,82.5000031471254,0|0,0:0|0:0,1:0:0:0:
3,235,180653,2,2,L|98:243,1,82.5000031471254,0|0,0:0|0:0,1:0:0:0:
257,171,180824,2,2,L|244:24,1,110,8|0,1:0|1:0,1:0:0:0:
134,311,181167,6,2,B|198:316|198:316|215:309|215:309|230:318|230:318|270:321|270:321|286:330|286:330|302:323|302:323|398:330,1,247.500009441376,2|0,0:1|0:0,1:0:0:0:
477,251,181510,6,0,B|545:159|493:53|353:127|475:235,1,275,0|0,1:0|0:0,0:0:0:0:
310,374,182024,6,2,L|328:168,1,192.500001835823,2|8,0:1|1:0,1:0:0:0:
300,347,182367,2,2,L|314:190,1,137.5,2|0,0:1|3:0,1:0:0:0:
140,79,182710,2,0,L|144:118,1,36.6666666666667,2|0,0:0|0:0,0:0:0:0:
146,134,182882,6,0,B|252:145|252:145|278:52|278:52|210:74,1,275,0|0,1:0|0:0,0:0:0:0:
219,270,183396,6,2,L|324:259,1,82.5000031471254,0|0,0:0|0:0,0:1:0:0:
484,198,183567,2,2,L|379:209,1,82.5000031471254,8|0,0:0|0:0,0:1:0:0:
323,349,183739,2,2,L|403:280,1,82.5000031471254,0|0,0:0|0:0,0:1:0:0:
378,121,183910,2,2,L|298:190,1,82.5000031471254,0|0,0:0|0:0,0:1:0:0:
452,357,184082,2,2,L|477:255,1,82.5000031471254,0|0,0:0|0:0,0:1:0:0:
388,41,184253,5,0,1:0:0:0:
360,10,184339,1,0,1:0:0:0:
320,0,184424,1,0,1:0:0:0:
279,8,184510,1,0,1:0:0:0:
250,38,184596,1,0,1:0:0:0:
246,79,184682,1,0,1:0:0:0:
261,116,184767,1,0,1:0:0:0:
258,157,184853,1,0,1:0:0:0:
227,184,184939,5,8,1:0:0:0:
279,168,185024,1,0,1:0:0:0:
332,181,185110,1,0,1:0:0:0:
362,227,185196,1,0,1:0:0:0:
356,281,185282,1,0,1:0:0:0:
378,330,185367,1,0,1:0:0:0:
429,349,185453,1,0,1:0:0:0:
481,332,185539,1,0,1:0:0:0:
504,282,185624,6,2,L|501:196,1,55,0|0,1:0|0:0,0:1:0:0:
499,148,185796,2,2,L|496:62,1,55,0|0,0:0|0:0,0:1:0:0:
428,192,185967,6,2,L|374:194,1,55,8|0,0:0|0:0,0:1:0:0:
298,106,186139,2,2,L|301:192,1,55,0|0,0:0|0:0,0:1:0:0:
237,245,186310,5,10,0:1:0:0:
223,26,186482,1,8,0:0:0:0:
149,148,186653,6,2,B|32:141|32:141|72:107,1,165,2|0,0:1|0:0,0:1:0:0:
133,74,186996,1,4,1:0:0:0:
256,192,187082,12,0,192482,0:0:0:0:
332,293,197967,6,0,B|395:298|395:298|429:285|429:285|508:292,2,165.000006294251,2|2|2,0:1|0:1|0:1,0:0:0:0:
332,293,198996,1,2,0:1:0:0:
167,216,199167,1,2,0:1:0:0:
434,202,199339,2,0,P|489:147|455:58,1,165.000006294251,2|2,0:1|0:1,0:0:0:0:
469,69,200024,1,2,0:1:0:0:
305,150,200196,1,2,0:1:0:0:
371,318,200367,1,2,0:1:0:0:
162,41,200710,6,0,B|99:36|99:36|65:49|65:49|-14:42,2,165.000006294251,2|2|2,0:1|0:1|0:1,0:0:0:0:
162,41,201739,1,2,0:1:0:0:
327,118,201910,1,2,0:1:0:0:
60,132,202082,2,0,P|5:187|39:276,1,165.000006294251,2|2,0:1|0:1,0:0:0:0:
25,265,202767,1,2,0:1:0:0:
189,184,202939,1,2,0:1:0:0:
123,16,203110,1,2,0:1:0:0:
124,384,203453,6,0,L|106:198,2,165.000006294251,2|2|2,0:1|0:1|0:1,0:0:0:0:
124,384,204482,1,2,0:1:0:0:
277,285,204654,1,2,0:1:0:0:
34,131,204824,2,0,L|18:295,1,165.000006294251,2|2,0:1|0:1,0:0:0:0:
18,295,205510,1,2,0:1:0:0:
186,363,205682,1,2,0:1:0:0:
304,226,205853,1,2,0:1:0:0:
102,1,206196,5,0,0:0:0:0:
102,1,206367,1,0,0:0:0:0:
324,64,206539,1,2,0:1:0:0:
159,225,206710,1,2,0:1:0:0:
189,101,206882,5,0,0:0:0:0:
189,101,207053,1,0,0:0:0:0:
418,80,207225,1,2,0:1:0:0:
322,289,207396,1,2,0:1:0:0:
312,164,207567,6,0,L|410:176,1,82.5000031471254,2|0,0:1|0:0,0:0:0:0:
189,101,207910,5,2,0:1:0:0:
418,80,208082,1,2,0:1:0:0:
308,295,208253,2,2,B|224:340|121:249|208:140|300:212|257:283,1,288.750011014939,2|0,0:1|0:0,0:1:0:0:
117,306,208939,6,0,P|109:265|105:205,1,82.5000031471254,2|0,0:1|0:0,0:0:0:0:
104,333,209282,2,0,P|143:346|197:373,1,82.5000031471254,2|0,0:1|0:0,0:0:0:0:
87,308,209624,2,0,P|55:335|5:368,1,82.5000031471254,2|0,0:1|0:0,0:0:0:0:
22,358,209967,1,2,0:1:0:0:
150,165,210139,1,2,0:1:0:0:
369,235,210310,6,0,P|366:276|354:335,1,82.5000031471254,2|0,0:1|0:0,0:0:0:0:
439,161,210653,2,0,P|447:202|450:261,1,82.5000031471254,2|0,0:1|0:0,0:0:0:0:
450,242,210996,1,2,3:1:0:0:
228,180,211167,1,2,3:1:0:0:
395,19,211339,1,2,3:1:0:0:
403,33,211510,1,0,3:0:0:0:
131,149,211682,6,0,P|89:146|30:134,1,82.5000031471254,2|0,1:0|1:0,0:0:0:0:
178,245,212024,2,0,P|201:210|240:165,1,82.5000031471254,2|0,1:0|1:0,0:0:0:0:
71,237,212367,2,0,P|89:274|108:331,1,82.5000031471254,2|0,1:0|1:0,0:0:0:0:
103,312,212710,1,2,1:0:0:0:
208,87,212882,1,2,1:0:0:0:
413,223,213053,6,0,P|406:264|389:322,1,82.5000031471254,2|0,1:0|1:0,0:0:0:0:
310,155,213396,2,0,P|314:196|313:256,1,82.5000031471254,2|0,1:0|1:0,0:0:0:0:
314,237,213739,1,2,1:0:0:0:
64,321,213910,1,2,1:0:0:0:
121,62,214082,1,2,1:0:0:0:
135,68,214253,1,0,1:0:0:0:
218,365,214424,5,0,1:0:0:0:
201,362,214510,1,0,1:0:0:0:
180,357,214596,1,0,1:0:0:0:
164,343,214682,1,0,1:0:0:0:
153,321,214767,1,0,1:0:0:0:
154,296,214853,1,0,1:0:0:0:
171,272,214939,1,0,1:0:0:0:
198,263,215024,1,0,1:0:0:0:
223,242,215110,5,0,1:0:0:0:
234,211,215196,1,0,1:0:0:0:
230,173,215282,1,0,1:0:0:0:
207,143,215367,1,0,1:0:0:0:
169,125,215453,1,0,1:0:0:0:
127,130,215539,1,0,1:0:0:0:
96,162,215624,1,0,1:0:0:0:
86,206,215710,1,0,1:0:0:0:
100,253,215796,5,0,1:0:0:0:
49,233,215882,1,0,1:0:0:0:
15,186,215967,1,0,1:0:0:0:
11,128,216053,1,0,1:0:0:0:
40,73,216139,1,0,1:0:0:0:
97,51,216224,1,0,1:0:0:0:
161,65,216310,1,0,1:0:0:0:
204,114,216396,1,0,1:0:0:0:
205,184,216482,5,0,1:0:0:0:
241,243,216567,1,0,1:0:0:0:
308,274,216653,1,0,1:0:0:0:
381,262,216739,1,0,1:0:0:0:
431,208,216824,1,0,1:0:0:0:
442,134,216910,1,0,1:0:0:0:
410,66,216996,1,0,1:0:0:0:
346,26,217082,1,0,1:0:0:0:
272,28,217167,6,0,L|269:62,14,20.6250007867813,0|0|0|0|0|0|0|0|0|0|0|0|0|0|0,3:0|3:0|3:0|3:0|3:0|3:0|3:0|3:0|3:0|3:0|3:0|3:0|3:0|3:0|3:0,3:0:0:0:
206,88,217510,2,0,L|209:122,14,20.6250007867813,0|0|0|0|0|0|0|0|0|0|0|0|0|0|0,3:0|3:0|3:0|3:0|3:0|3:0|3:0|3:0|3:0|3:0|3:0|3:0|3:0|3:0|3:0,3:0:0:0:
266,160,217853,2,0,L|300:163,14,20.6250007867813,0|0|0|0|0|0|0|0|0|0|0|0|0|0|0,3:0|3:0|3:0|3:0|3:0|3:0|3:0|3:0|3:0|3:0|3:0|3:0|3:0|3:0|3:0,3:0:0:0:
197,203,218196,2,0,L|163:206,14,20.6250007867813,0|0|0|0|0|0|0|0|0|0|0|0|0|0|0,3:0|3:0|3:0|3:0|3:0|3:0|3:0|3:0|3:0|3:0|3:0|3:0|3:0|3:0|3:0,3:0:0:0:
269,243,218539,6,0,B|211:281|230:357|230:357|216:317|164:312,1,192.5,0|0,1:0|0:0,0:0:0:0:
121,363,219224,6,0,P|76:329|111:285,1,123.750004720688,4|0,1:3|0:0,0:0:0:0:
317,322,219567,2,0,B|466:339|466:339|390:377,1,206.25,4|0,1:3|0:0,0:0:0:0:
231,356,219910,6,0,P|247:264|379:255,1,220,4|0,1:0|0:0,0:0:0:0:
358,240,220424,1,0,0:0:0:0:
328,200,220510,1,0,0:0:0:0:
336,151,220596,1,2,0:0:0:0:
506,341,220767,5,0,0:0:0:0:
342,370,220939,1,2,0:0:0:0:
506,341,221110,1,0,0:0:0:0:
254,302,221282,6,0,B|91:322|91:322|155:355,1,220,2|2,0:0|0:0,0:0:0:0:
342,370,221796,1,0,0:0:0:0:
92,322,221967,2,0,P|54:262|72:202,1,123.750004720688,2|0,0:0|0:0,0:0:0:0:
166,188,222310,6,0,L|76:200,1,82.5,4|0,1:3|0:0,0:0:0:0:
0,82,222653,6,0,B|47:84|47:84|68:77|68:77|87:86|87:86|227:93,1,220,2|0,0:0|0:0,0:0:0:0:
216,93,223167,1,0,0:0:0:0:
187,133,223253,1,0,0:0:0:0:
194,182,223339,1,2,0:0:0:0:
420,241,223510,5,0,0:0:0:0:
256,270,223682,1,2,0:0:0:0:
420,241,223853,1,0,0:0:0:0:
332,52,224024,5,0,0:0:0:0:
320,139,224196,1,2,0:0:0:0:
420,241,224367,5,0,0:0:0:0:
408,154,224539,1,2,0:0:0:0:
256,270,224710,5,2,0:0:0:0:
483,186,224882,1,8,0:0:0:0:
296,32,225053,2,0,L|304:136,1,82.5,4|0,1:3|0:0,0:0:0:0:
213,201,225396,6,0,B|76:167|151:269|-14:221,1,220,2|0,0:0|0:0,0:0:0:0:
4,226,225910,1,0,0:0:0:0:
40,191,225996,1,0,0:0:0:0:
89,194,226082,1,2,0:0:0:0:
282,346,226253,5,0,0:0:0:0:
118,375,226425,1,2,0:0:0:0:
282,346,226596,1,0,0:0:0:0:
50,287,226767,6,0,B|70:124|70:124|103:188,1,220,2|2,0:0|0:0,0:0:0:0:
118,375,227281,1,0,0:0:0:0:
70,124,227453,2,0,P|121:84|195:103,1,123.750004720688,2|0,0:0|0:0,0:0:0:0:
277,97,227796,6,0,L|203:104,1,55,4|0,1:3|0:0,0:0:0:0:
169,182,228139,5,2,0:0:0:0:
408,215,228310,1,2,0:0:0:0:
201,186,228482,5,2,0:0:0:0:
375,210,228653,1,2,0:0:0:0:
288,198,228824,6,0,L|296:287,1,82.5,2|0,0:0|0:0,0:0:0:0:
242,344,229167,5,2,0:0:0:0:
68,320,229338,1,2,0:0:0:0:
274,348,229510,5,2,0:0:0:0:
35,315,229681,1,2,0:0:0:0:
303,212,229853,5,10,1:2:0:0:
64,245,230024,1,2,0:0:0:0:
346,296,230196,5,10,1:2:0:0:
251,26,230367,1,8,1:0:0:0:
225,185,230539,5,2,1:2:0:0:
256,191,230624,1,0,1:0:0:0:
288,198,230710,1,0,1:0:0:0:
320,205,230796,1,0,1:0:0:0:
352,212,230882,6,0,P|419:182|412:91,1,165,4|0,1:0|0:0,0:0:0:0:
380,291,231224,2,0,P|424:342|489:341,1,110,8|0,1:0|0:0,0:0:0:0:
491,345,231482,1,0,0:0:0:0:
512,328,231567,1,2,1:2:0:0:
357,139,231739,5,0,0:0:0:0:
302,328,231910,1,10,1:2:0:0:
272,131,232082,1,0,0:0:0:0:
297,362,232253,6,0,P|238:377|161:294,1,165,2|0,1:2|0:0,0:0:0:0:
222,194,232596,2,0,P|251:237|234:315,1,110,10|0,1:2|0:0,0:0:0:0:
19,377,232939,2,0,L|7:230,1,123.750004720688,2|0,1:2|0:0,0:0:0:0:
35,156,233282,6,0,L|27:258,1,82.5,4|0,1:3|0:0,0:0:0:0:
115,299,233624,6,0,B|206:276|180:351|290:322,1,165,2|0,1:2|0:0,0:0:0:0:
366,257,233967,2,0,P|379:220|347:141,1,110,8|0,1:0|0:0,0:0:0:0:
341,133,234224,1,0,0:0:0:0:
315,123,234310,1,2,1:2:0:0:
66,231,234482,5,0,0:0:0:0:
286,209,234653,1,10,1:2:0:0:
72,145,234825,1,0,0:0:0:0:
244,274,234996,5,8,1:0:0:0:
225,61,235167,1,2,0:0:0:0:
305,319,235339,5,8,1:0:0:0:
324,106,235510,1,2,1:2:0:0:
181,377,235682,5,10,1:2:0:0:
394,358,235853,1,8,1:0:0:0:
96,214,236024,2,0,L|90:304,1,82.5,4|0,1:3|0:0,0:0:0:0:
11,362,236367,6,0,L|-1:191,1,165,2|0,1:2|0:0,0:0:0:0:
85,80,236710,2,0,L|196:87,1,110,8|0,1:0|0:0,0:0:0:0:
221,95,236967,1,0,0:0:0:0:
247,103,237053,1,2,1:2:0:0:
159,384,237224,5,0,0:0:0:0:
180,164,237395,1,10,1:2:0:0:
245,378,237567,1,0,0:0:0:0:
174,132,237739,6,0,P|180:60|282:33,1,165,2|0,1:2|0:0,0:0:0:0:
356,107,238082,2,0,L|230:102,1,110,10|0,1:2|0:0,0:0:0:0:
0,36,238424,2,0,P|56:15|114:75,1,123.750004720688,2|0,1:2|0:0,0:0:0:0:
89,139,238767,6,0,L|84:63,1,55,4|0,1:3|0:0,0:0:0:0:
189,28,239110,5,2,1:2:0:0:
156,267,239281,1,2,0:0:0:0:
185,60,239453,5,10,1:2:0:0:
161,234,239624,1,2,0:0:0:0:
175,147,239796,6,0,B|295:141|295:141|361:185,1,165,2|0,1:2|0:0,0:0:0:0:
314,183,240139,2,0,L|321:35,1,123.750004720688,8|0,1:0|0:0,0:0:0:0:
377,5,240482,6,0,B|426:62|404:168|271:179|226:103|246:29|246:29|284:31|326:64,1,412.5,0|0,1:0|0:0,0:0:0:0:
255,236,241853,6,0,B|177:229|177:229|231:214,1,123.750004720688,8|0,0:0|0:0,0:0:0:0:
406,224,242196,2,0,B|483:230|483:230|429:245,1,123.750004720688,8|0,0:0|0:0,0:0:0:0:
330,232,242539,1,8,0:0:0:0:
92,119,243224,6,0,B|14:125|14:125|68:140,1,123.750004720688,8|0,0:0|0:0,0:0:0:0:
243,131,243567,2,0,B|320:124|320:124|266:109,1,123.750004720688,8|0,0:0|0:0,0:0:0:0:
167,123,243910,1,8,0:0:0:0:
87,374,244596,6,0,B|200:388|200:388|178:198,1,288.750011014939,8|0,0:0|0:0,0:0:0:0:
112,303,245282,2,0,B|215:290|215:290|276:331|276:331|411:314,1,288.750011014939,8|0,0:0|0:0,0:0:0:0:
402,314,245967,5,8,0:0:0:0:
297,249,246139,1,0,0:0:0:0:
424,36,246310,5,8,0:0:0:0:
417,159,246482,1,0,1:0:0:0:
411,139,246567,1,0,1:0:0:0:
474,96,246653,5,8,1:0:0:0:
466,153,246739,1,0,1:0:0:0:
457,209,246824,1,0,1:0:0:0:
450,266,246910,1,0,1:0:0:0:
442,323,246996,2,0,L|340:328,1,82.5,4|0,1:3|0:0,0:0:0:0:
268,302,247339,6,0,P|288:269|288:235,1,68.75,4|0,1:0|0:0,0:0:0:0:
234,72,247510,2,0,L|65:82,1,137.5,0|8,1:0|1:0,0:0:0:0:
371,251,247853,5,0,1:0:0:0:
425,260,247939,1,0,0:0:0:0:
469,229,248024,2,0,L|476:142,1,68.75,0|0,1:0|0:0,0:0:0:0:
417,6,248196,1,0,1:0:0:0:
382,0,248282,2,0,L|389:87,1,68.75,0|8,0:0|1:0,0:0:0:0:
316,161,248453,5,0,0:0:0:0:
310,173,248539,1,0,1:0:0:0:
255,179,248624,1,0,0:0:0:0:
210,146,248710,2,0,B|220:53|220:53|260:103,1,137.5,0|0,1:0|1:0,0:0:0:0:
186,222,248967,2,0,P|150:232|109:220,1,68.75,0|8,0:0|1:0,0:0:0:0:
0,101,249139,1,0,0:0:0:0:
28,81,249224,2,0,P|54:107|64:148,1,68.75,0|0,1:0|0:0,0:0:0:0:
49,348,249396,2,0,P|6:261|34:215,1,137.5,0|0,1:0|1:0,0:0:0:0:
96,200,249653,5,0,0:0:0:0:
119,225,249739,2,0,L|113:309,1,55,8|0,1:0|0:0,0:0:0:0:
212,122,249910,2,0,L|206:38,1,55,0|0,1:0|0:0,0:0:0:0:
168,357,250082,6,0,P|191:380|253:371,1,68.75,0|0,1:0|0:0,0:0:0:0:
368,324,250253,2,0,L|375:161,1,137.5,0|8,1:0|1:0,0:0:0:0:
30,32,250596,5,0,1:0:0:0:
35,86,250682,1,0,0:0:0:0:
40,140,250767,2,0,L|134:149,1,68.75,0|0,1:0|0:0,0:0:0:0:
272,80,250939,1,0,1:0:0:0:
278,46,251024,2,0,L|184:55,1,68.75,0|8,0:0|1:0,0:0:0:0:
69,223,251196,5,0,0:0:0:0:
75,235,251282,1,0,1:0:0:0:
130,241,251367,1,0,0:0:0:0:
175,208,251453,2,0,B|165:115|165:115|125:165,1,137.5,0|0,1:0|1:0,0:0:0:0:
195,282,251710,5,0,0:0:0:0:
223,301,251795,2,0,P|284:292|333:216,1,137.5,8|0,1:0|1:0,0:0:0:0:
265,105,252053,2,0,L|275:191,1,68.75,0|0,0:0|1:0,0:0:0:0:
393,336,252224,5,0,0:0:0:0:
406,333,252310,1,0,1:0:0:0:
414,321,252396,1,0,0:0:0:0:
432,358,252482,5,8,1:0:0:0:
482,337,252567,1,0,0:0:0:0:
510,289,252653,1,0,1:0:0:0:
502,234,252739,1,0,0:0:0:0:
448,172,252824,6,0,L|369:178,1,55,4|0,0:0|0:0,0:0:0:0:
197,122,252996,2,0,L|203:43,1,55
296,25,253167,2,0,L|302:104,1,55
246,276,253339,2,0,L|167:270,1,55
13,171,253510,6,0,P|48:157|75:159,1,55
60,238,253682,2,0,P|95:249|115:268,1,55
286,112,253853,6,0,P|251:98|224:100,1,55
239,179,254025,2,0,P|203:190|183:209,1,55
428,302,254196,6,0,L|514:295,1,55
189,200,254367,2,0,L|182:286,1,55
268,333,254539,6,0,L|354:326,1,55
29,231,254710,2,0,L|22:317,1,55
285,239,254882,6,0,P|295:208|289:163,1,55
362,142,255053,2,0,P|352:110|321:77,1,55
83,176,255224,6,0,P|73:145|79:100,1,55
6,79,255396,2,0,P|15:47|46:14,1,55
201,0,255567,6,0,L|203:36,28,27.5,0|0|0|0|0|0|0|0|0|0|0|0|0|0|0|0|0|0|0|0|0|0|0|0|0|0|0|0|0,1:0|3:0|3:0|3:0|3:0|3:0|3:0|3:0|3:0|3:0|3:0|3:0|3:0|3:0|3:0|3:0|3:0|3:0|3:0|3:0|3:0|3:0|3:0|3:0|3:0|3:0|3:0|3:0|3:0,3:0:0:0:
279,114,256253,6,0,L|315:116,14,20.6250007867813,0|0|0|0|0|0|0|0|0|0|0|0|0|0|0,3:0|3:0|3:0|3:0|3:0|3:0|3:0|3:0|3:0|3:0|3:0|3:0|3:0|3:0|3:0,3:0:0:0:
203,159,256596,2,0,L|167:161,14,20.6250007867813,0|0|0|0|0|0|0|0|0|0|0|0|0|0|0,3:0|3:0|3:0|3:0|3:0|3:0|3:0|3:0|3:0|3:0|3:0|3:0|3:0|3:0|3:0,3:0:0:0:
278,205,256939,6,0,B|267:319,1,82.5000031471254,0|0,1:0|0:0,0:0:0:0:
359,178,257282,2,0,B|365:298,1,82.5000031471254,0|0,0:0|0:0,0:0:0:0:
203,159,257624,2,0,B|175:276,1,82.5000031471254,0|0,0:0|0:0,0:0:0:0:
196,319,257967,6,0,B|143:315,1,41.25,4|0,0:2|0:0,0:0:0:0:
27,271,258310,6,0,P|63:247|107:254,1,82.5000031471254,6|0,1:0|0:0,0:0:0:0:
424,373,258482,2,0,B|393:369|393:369|372:357|372:357|318:377|318:377|236:373,1,165.000006294251,2|8,0:1|1:0,0:0:0:0:
196,319,258739,1,2,0:1:0:0:
186,254,258824,1,0,0:0:0:0:
222,198,258910,1,0,0:0:0:0:
287,188,258996,6,0,B|397:202|397:202|326:233,1,165.000006294251,2|0,1:0|0:0,0:0:0:0:
118,299,259253,1,2,0:1:0:0:
87,285,259339,2,0,L|82:182,1,82.5000031471254,8|0,1:0|0:0,0:0:0:0:
190,19,259510,1,2,0:1:0:0:
188,52,259596,1,0,0:0:0:0:
187,85,259682,6,0,B|76:96|76:96|35:53,1,165.000006294251,2|0,1:0|0:0,0:0:0:0:
272,142,259939,1,2,0:1:0:0:
293,166,260024,2,0,L|170:154,1,82.5000031471254,8|0,1:0|0:0,0:0:0:0:
0,211,260196,2,0,L|12:334,1,82.5000031471254,2|0,0:1|0:0,0:0:0:0:
167,373,260367,6,0,B|260:263|163:171|66:278|176:346,1,247.500009441376,2|0,1:0|0:0,0:0:0:0:
274,355,260710,1,8,1:0:0:0:
356,352,260796,1,0,0:0:0:0:
411,316,260882,1,0,0:0:0:0:
423,268,260967,1,0,0:0:0:0:
416,235,261053,6,0,P|382:221|316:239,1,82.5000031471254,2|0,1:0|0:0,0:0:0:0:
3,369,261224,2,0,B|75:372|75:372|84:369|84:369|183:374,1,165.000006294251,2|8,0:1|1:0,0:0:0:0:
257,315,261482,1,2,0:1:0:0:
268,251,261567,1,0,0:0:0:0:
231,196,261653,1,0,0:0:0:0:
165,183,261739,6,0,B|131:217|141:281|177:299|177:299|202:249,1,165.000006294251,2|0,1:0|0:0,0:0:0:0:
247,75,261996,1,2,0:1:0:0:
227,48,262082,2,0,B|133:56,1,82.5000031471254,8|0,1:0|0:0,0:0:0:0:
0,146,262253,1,2,0:1:0:0:
0,146,262338,1,0,0:0:0:0:
0,146,262424,5,2,1:0:0:0:
32,153,262510,1,0,0:0:0:0:
64,148,262596,1,0,0:0:0:0:
92,130,262682,1,2,0:1:0:0:
123,202,262767,5,8,1:0:0:0:
158,220,262853,1,0,0:0:0:0:
197,224,262939,1,2,0:1:0:0:
237,211,263025,1,0,0:0:0:0:
323,156,263110,5,0,1:0:0:0:
315,214,263196,1,2,0:1:0:0:
367,238,263282,1,0,0:0:0:0:
407,195,263367,1,2,0:1:0:0:
378,145,263453,1,10,1:0:0:0:
343,220,263539,1,0,0:0:0:0:
361,299,263624,1,2,0:1:0:0:
426,349,263710,1,0,0:0:0:0:
508,359,263796,6,0,L|499:230,1,82.5000031471254,2|0,1:0|0:0,0:0:0:0:
399,31,263967,2,0,B|404:106|404:106|400:115|400:115|407:202,1,165.000006294251,2|8,0:1|1:0,0:0:0:0:
346,300,264224,1,2,0:1:0:0:
285,326,264309,1,0,0:0:0:0:
222,306,264395,1,0,0:0:0:0:
186,249,264482,6,0,B|202:167|202:167|285:215,1,165.000006294251,2|0,1:0|0:0,0:0:0:0:
150,365,264739,1,2,0:1:0:0:
123,384,264825,2,0,L|114:297,1,82.5000031471254,8|0,1:0|0:0,0:0:0:0:
161,32,264996,1,2,0:1:0:0:
159,65,265082,1,0,0:0:0:0:
157,97,265167,6,0,P|96:150|16:111,1,165.000006294251,2|0,1:0|0:0,0:0:0:0:
231,12,265424,1,2,0:1:0:0:
256,32,265510,2,0,L|244:155,1,82.5000031471254,8|0,1:0|0:0,0:0:0:0:
282,321,265682,2,0,L|405:309,1,82.5000031471254,2|0,0:1|0:0,0:0:0:0:
444,164,265853,6,0,P|345:127|377:237,1,247.500009441376,2|0,1:0|0:0,0:0:0:0:
282,321,266196,1,8,1:0:0:0:
243,335,266282,1,2,0:1:0:0:
185,328,266367,1,0,0:0:0:0:
126,282,266453,1,2,0:1:0:0:
114,192,266539,6,0,P|149:173|210:188,1,82.5000031471254,2|0,1:0|0:0,0:0:0:0:
357,306,266710,1,0,0:0:0:0:
334,379,266796,6,0,P|300:358|282:297,1,82.5000031471254,2|8,0:1|1:0,0:0:0:0:
311,111,266967,1,0,0:0:0:0:
385,94,267053,6,0,P|383:133|339:180,1,82.5000031471254,2|0,0:1|0:0,0:0:0:0:
46,162,267224,1,2,1:0:0:0:
22,154,267310,1,0,0:0:0:0:
22,129,267396,1,0,0:0:0:0:
46,121,267482,1,2,0:1:0:0:
60,141,267567,1,10,1:0:0:0:
49,214,267653,1,0,0:0:0:0:
87,278,267739,1,2,0:1:0:0:
156,301,267824,1,0,0:0:0:0:
225,281,267910,6,0,L|268:230,1,55,2|0,1:0|0:0,0:0:0:0:
217,136,268082,1,0,0:0:0:0:
196,127,268167,6,0,L|218:190,1,55,2|0,0:1|0:0,0:0:0:0:
325,192,268339,1,0,0:0:0:0:
343,178,268424,6,0,L|277:165,1,55,2|0,0:1|0:0,0:0:0:0:
75,207,268596,5,2,0:1:0:0:
76,223,268681,1,0,0:0:0:0:
77,239,268767,1,0,0:0:0:0:
78,256,268853,1,2,0:1:0:0:
79,273,268939,1,2,0:1:0:0:
100,325,269024,1,0,0:0:0:0:
156,359,269110,1,2,0:1:0:0:
230,360,269196,1,0,0:0:0:0:
298,312,269282,6,0,L|306:224,1,82.5000031471254,6|0,1:0|0:0,0:0:0:0:
207,0,269453,2,0,B|212:75|212:75|208:84|208:84|215:171,1,165.000006294251,2|8,0:1|1:0,0:0:0:0:
317,240,269710,1,2,0:1:0:0:
378,263,269796,1,0,0:0:0:0:
442,249,269882,1,0,0:0:0:0:
477,194,269967,6,0,B|451:114|451:114|386:191,1,165.000006294251,2|0,1:0|0:0,0:0:0:0:
473,375,270224,1,2,0:1:0:0:
504,364,270310,2,0,L|510:273,1,82.5000031471254,8|0,1:0|0:0,0:0:0:0:
350,12,270482,1,2,0:1:0:0:
352,45,270568,1,0,0:0:0:0:
354,77,270653,6,0,P|289:143|203:98,1,165.000006294251,2|0,1:0|0:0,0:0:0:0:
85,0,270910,1,2,0:1:0:0:
116,11,270996,2,0,L|122:102,1,82.5000031471254,8|0,1:0|0:0,0:0:0:0:
14,309,271167,2,0,L|20:218,1,82.5000031471254,2|0,0:1|0:0,0:0:0:0:
227,128,271339,6,0,P|220:243|124:195,1,247.500009441376,2|0,1:0|0:0,0:0:0:0:
179,61,271682,1,8,1:0:0:0:
260,53,271768,1,0,0:0:0:0:
319,83,271854,1,0,0:0:0:0:
337,129,271939,1,0,0:0:0:0:
334,162,272025,6,0,P|301:180|234:170,1,82.5000031471254,2|0,1:0|0:0,0:0:0:0:
0,43,272196,2,0,B|63:21|63:21|52:187,1,165.000006294251,2|8,0:1|1:0,0:0:0:0:
19,229,272453,1,2,0:1:0:0:
49,287,272539,1,0,0:0:0:0:
112,303,272624,1,0,0:0:0:0:
165,264,272710,6,0,B|157:148|157:148|105:209,1,165.000006294251,2|0,1:0|0:0,0:0:0:0:
63,361,272967,1,2,0:1:0:0:
85,384,273053,2,0,L|192:377,1,82.5000031471254,8|0,1:0|0:0,0:0:0:0:
408,303,273224,1,2,0:1:0:0:
408,303,273310,1,0,0:0:0:0:
408,303,273396,5,2,1:0:0:0:
384,277,273482,1,0,0:0:0:0:
352,266,273567,1,0,0:0:0:0:
319,270,273653,1,2,0:1:0:0:
243,303,273739,5,8,1:0:0:0:
213,336,273825,1,0,0:0:0:0:
172,351,273910,1,2,0:1:0:0:
129,345,273996,1,0,0:0:0:0:
48,324,274082,5,0,1:0:0:0:
70,271,274167,1,2,0:1:0:0:
76,213,274253,1,0,0:0:0:0:
67,155,274339,1,2,0:1:0:0:
42,103,274424,1,10,1:0:0:0:
41,185,274510,1,0,0:0:0:0:
82,256,274596,1,2,0:1:0:0:
159,285,274682,1,0,0:0:0:0:
238,266,274767,6,0,B|263:233|263:233|248:178,1,82.5000031471254,6|0,1:0|0:0,0:0:0:0:
42,103,274939,2,0,B|58:141|58:141|113:155,1,82.5000031471254,2|0,0:1|0:0,0:0:0:0:
282,15,275110,1,10,1:0:0:0:
282,15,275196,1,0,0:0:0:0:
282,15,275282,2,0,B|240:9|240:9|200:50,1,82.5000031471254,2|0,0:1|0:0,0:0:0:0:
310,291,275453,6,0,L|505:283,1,165.000006294251,10|0,1:0|0:0,0:0:0:0:
512,197,275710,1,0,0:0:0:0:
512,197,275796,1,8,1:0:0:0:
462,191,275882,1,0,0:0:0:0:
422,161,275967,1,0,0:0:0:0:
406,113,276053,1,0,0:0:0:0:
416,64,276139,6,0,B|449:39|449:39|504:54,1,82.5000031471254,10|0,1:0|0:0,0:0:0:0:
395,312,276310,2,0,B|355:322|355:322|322:297,1,82.5000031471254,2|0,0:1|0:0,0:0:0:0:
256,30,276482,1,10,1:0:0:0:
256,30,276567,1,0,0:0:0:0:
256,30,276653,2,0,B|285:58|285:58|280:100,1,82.5000031471254,2|0,0:1|0:0,0:0:0:0:
202,332,276824,6,0,B|122:327|122:327|114:323|114:323|22:318,1,165.000006294251,10|0,1:0|0:0,0:0:0:0:
2,219,277082,1,0,0:0:0:0:
2,219,277168,1,8,1:0:0:0:
42,214,277253,1,0,0:0:0:0:
34,106,277339,5,2,0:1:0:0:
18,143,277424,1,0,0:1:0:0:
110,248,277510,6,0,L|206:256,1,82.5000031471254,6|0,1:2|1:0,1:0:0:0:
382,176,277682,2,0,L|374:80,1,82.5000031471254,0|0,1:0|1:0,1:0:0:0:
184,345,277853,1,8,1:0:0:0:
200,343,277938,1,0,1:0:0:0:
216,342,278024,1,0,1:0:0:0:
233,340,278110,1,0,1:0:0:0:
249,339,278196,6,0,P|269:302|252:236,1,82.5000031471254,8|0,1:0|1:0,1:0:0:0:
202,40,278367,2,0,P|182:77|199:143,1,82.5000031471254,0|0,1:0|1:0,1:0:0:0:
397,219,278539,1,8,1:0:0:0:
381,217,278624,1,0,1:0:0:0:
365,216,278710,1,0,1:0:0:0:
348,214,278796,1,0,1:0:0:0:
332,213,278882,6,2,L|329:163,1,27.5,0|0,0:0|0:0,0:1:0:0:
324,75,279053,2,2,L|327:125,1,27.5,0|0,0:0|0:0,0:1:0:0:
305,262,279224,2,2,L|310:172,1,55,0|0,0:0|0:0,0:1:0:0:
351,26,279396,2,2,L|345:115,1,55,0|0,0:0|0:0,0:1:0:0:
204,295,279567,6,2,B|161:281|139:214|173:175|173:175|188:223|129:276,1,247.500009441376,0|0,0:0|0:0,0:1:0:0:
51,226,279910,2,0,L|56:174,1,41.25,4|0,0:3|0:0,0:0:0:0:
138,267,280253,6,0,B|209:288|209:288|246:256|246:256|305:259|305:259|313:256|313:256|415:261,1,272.250002596378,4|0,1:0|0:0,0:0:0:0:
512,208,280596,5,8,1:0:0:0:
509,193,280682,1,2,0:0:0:0:
506,177,280768,1,2,0:0:0:0:
503,161,280854,1,2,0:0:0:0:
466,269,280939,5,0,1:0:0:0:
480,273,281025,1,2,0:0:0:0:
495,279,281111,1,2,0:0:0:0:
511,284,281197,1,2,0:0:0:0:
436,198,281281,5,8,1:0:0:0:
425,208,281367,1,2,0:0:0:0:
413,218,281453,1,2,0:0:0:0:
400,230,281539,1,2,0:0:0:0:
439,339,281624,6,0,B|517:365|517:365|505:189,1,222.750000849724,0|0,1:0|0:0,0:0:0:0:
448,121,281967,5,8,1:0:0:0:
448,136,282053,1,2,0:0:0:0:
449,152,282139,1,2,0:0:0:0:
450,168,282225,1,2,0:0:0:0:
358,138,282310,5,0,1:0:0:0:
358,153,282396,1,2,0:0:0:0:
359,169,282482,1,2,0:0:0:0:
360,185,282568,1,2,0:0:0:0:
268,155,282653,5,8,1:0:0:0:
268,170,282739,1,2,0:0:0:0:
269,186,282825,1,2,0:0:0:0:
270,202,282911,1,2,0:0:0:0:
180,219,282996,6,0,B|144:70|144:70|236:110,1,222.750000849724,0|0,1:0|0:0,0:0:0:0:
298,138,283339,1,8,1:0:0:0:
220,353,283510,5,2,0:0:0:0:
145,348,283596,1,2,0:0:0:0:
70,342,283682,5,2,1:0:0:0:
63,305,283767,1,0,3:0:0:0:
56,268,283853,1,2,3:1:0:0:
81,241,283939,1,0,3:0:0:0:
159,274,284024,5,10,1:0:0:0:
152,311,284109,1,0,3:0:0:0:
145,348,284195,1,2,3:1:0:0:
170,375,284281,1,0,3:0:0:0:
250,361,284367,6,0,B|256:316|256:316|260:313|260:313|257:309|257:309|270:230|270:230|151:250,1,222.750000849724,2|0,1:0|0:0,0:0:0:0:
56,268,284710,1,8,1:0:0:0:
253,81,284882,5,2,0:0:0:0:
327,88,284968,1,2,0:0:0:0:
402,97,285054,5,2,1:0:0:0:
408,134,285139,1,0,3:0:0:0:
413,170,285225,1,2,3:1:0:0:
388,197,285311,1,0,3:0:0:0:
318,163,285396,5,10,1:0:0:0:
322,125,285481,1,0,3:0:0:0:
327,88,285567,1,2,3:1:0:0:
302,62,285653,1,0,3:0:0:0:
219,71,285739,6,0,B|186:123|186:123|206:164|206:164|205:168|205:168|209:170|209:170|229:209|229:209|216:309,1,222.750000849724,2|0,1:0|0:0,0:0:0:0:
207,369,286082,1,8,0:0:0:0:
285,129,286253,6,0,B|332:134|332:134|341:131|341:131|348:136|348:136|460:149,1,165.000006294251,2|0,0:1|1:0,0:0:0:0:
150,243,286596,2,0,B|144:208|144:208|141:202|141:202|143:196|143:196|131:115,1,82.5000031471254,2|0,0:1|0:0,0:0:0:0:
201,25,286767,2,0,B|191:88,1,41.2500015735627,8|0,1:0|0:0,0:0:0:0:
40,115,286939,2,0,B|49:51,1,41.2500015735627
284,59,287110,6,0,B|304:135|304:135|265:189|265:189|286:292,1,222.750000849724,0|0,1:0|0:0,0:0:0:0:
305,363,287453,1,8,1:0:0:0:
512,218,287624,6,0,B|464:215|464:215|456:211|456:211|448:214|448:214|336:208,1,165.000006294251,2|0,0:1|1:0,0:0:0:0:
35,155,287967,2,0,P|76:137|123:144,1,82.5000031471254,2|0,0:1|0:0,0:0:0:0:
333,198,288139,2,0,P|291:215|244:208,1,82.5000031471254,10|0,1:0|0:0,0:0:0:0:
106,58,288310,2,0,P|149:66|184:100,1,82.5000031471254,2|0,0:1|0:0,0:0:0:0:
188,320,288482,6,0,B|173:380|82:404|39:355|39:355|67:285,1,222.750000849724,0|0,1:0|0:0,0:0:0:0:
199,214,288824,2,0,B|258:196|324:263|303:325|303:325|229:336,1,222.750000849724,8|0,1:0|0:0,0:0:0:0:
102,258,289167,2,0,B|57:215|82:124|146:111|146:111|192:170,1,222.750000849724,0|0,1:0|0:0,0:0:0:0:
199,214,289510,1,8,1:0:0:0:
1,147,289682,1,0,0:0:0:0:
167,3,289853,6,0,L|313:14,1,123.750004720688,0|0,1:0|0:0,0:0:0:0:
282,30,290196,2,0,L|175:21,1,107.249995090485
180,37,290539,2,0,L|272:43,1,90.7500027694703
382,93,290882,6,0,P|313:126|322:217,1,165,4|0,0:3|0:0,0:0:0:0:
470,225,291224,6,0,B|523:197|523:197|414:203|414:203|401:210|401:210|292:204,1,272.250002596378,4|0,1:0|0:0,0:0:0:0:
190,262,291567,5,8,1:0:0:0:
175,281,291653,1,2,0:0:0:0:
172,303,291739,1,2,0:0:0:0:
180,325,291825,1,2,0:0:0:0:
265,217,291910,5,0,1:0:0:0:
256,194,291996,1,2,0:0:0:0:
238,180,292082,1,2,0:0:0:0:
215,176,292168,1,2,0:0:0:0:
266,305,292253,5,8,1:0:0:0:
290,308,292339,1,2,0:0:0:0:
311,300,292425,1,2,0:0:0:0:
326,282,292511,1,2,0:0:0:0:
269,108,292596,6,0,B|229:102|229:102|208:89|208:89|139:135|139:135|42:125,1,222.750000849724,0|0,1:0|0:0,0:0:0:0:
4,208,292939,5,8,1:0:0:0:
3,223,293025,1,2,0:0:0:0:
1,239,293111,1,2,0:0:0:0:
0,255,293197,1,2,0:0:0:0:
95,228,293282,5,0,1:0:0:0:
94,243,293368,1,2,0:0:0:0:
92,259,293454,1,2,0:0:0:0:
91,275,293540,1,2,0:0:0:0:
186,248,293624,5,8,1:0:0:0:
185,263,293710,1,2,0:0:0:0:
183,279,293796,1,2,0:0:0:0:
182,295,293882,1,2,0:0:0:0:
246,358,293967,6,0,B|376:345|376:345|302:276,1,222.750000849724,0|0,1:0|0:0,0:0:0:0:
182,295,294310,1,8,1:0:0:0:
456,362,294482,5,2,0:0:0:0:
506,308,294567,1,2,0:0:0:0:
490,235,294653,5,2,1:0:0:0:
466,206,294739,1,0,3:0:0:0:
429,213,294824,1,2,3:1:0:0:
418,248,294910,1,0,3:0:0:0:
371,328,294996,5,10,1:0:0:0:
347,357,295082,1,0,3:0:0:0:
310,350,295167,1,2,3:1:0:0:
299,315,295253,1,0,3:0:0:0:
251,234,295339,6,0,B|201:224|201:224|199:220|199:220|196:223|196:223|116:209|116:209|152:321,1,222.750000849724,2|0,1:0|0:0,0:0:0:0:
213,359,295682,1,8,1:0:0:0:
266,70,295853,5,2,0:0:0:0:
212,20,295938,1,2,0:0:0:0:
139,36,296024,5,2,1:0:0:0:
110,60,296110,1,0,3:0:0:0:
117,97,296195,1,2,3:1:0:0:
152,108,296281,1,0,3:0:0:0:
232,155,296367,5,10,1:0:0:0:
261,179,296453,1,0,3:0:0:0:
254,216,296538,1,2,3:1:0:0:
219,227,296624,1,0,3:0:0:0:
139,274,296710,5,4,1:2:0:0:
132,286,296795,1,0,1:0:0:0:
131,301,296881,1,0,1:0:0:0:
136,316,296967,1,0,1:0:0:0:
213,343,297053,5,4,1:2:0:0:
227,319,297138,1,0,1:0:0:0:
229,289,297224,1,0,1:0:0:0:
219,259,297310,1,0,1:0:0:0:
141,231,297396,6,0,L|38:238,1,74.2500002832413,4|0,1:2|1:0,0:0:0:0:
330,375,297567,2,0,L|433:368,1,74.2500002832413,0|0,1:0|1:0,0:0:0:0:
283,154,297739,5,0,1:0:0:0:
282,168,297824,1,0,1:0:0:0:
281,182,297910,1,0,1:0:0:0:
280,196,297996,1,0,1:0:0:0:
310,272,298082,5,4,1:2:0:0:
346,284,298168,1,0,1:0:0:0:
382,282,298254,1,0,1:0:0:0:
411,265,298339,1,0,1:0:0:0:
431,185,298424,5,4,1:2:0:0:
377,167,298510,1,0,1:0:0:0:
323,170,298596,1,0,1:0:0:0:
280,196,298681,1,0,1:0:0:0:
267,277,298767,6,0,L|273:370,1,74.2500002832413,4|0,1:2|1:0,0:0:0:0:
165,74,298939,2,0,L|171:-19,1,74.2500002832413,0|0,1:0|1:0,0:0:0:0:
185,317,299110,5,0,1:0:0:0:
154,314,299195,1,0,1:0:0:0:
123,312,299281,1,0,1:0:0:0:
92,310,299367,1,0,1:0:0:0:
41,248,299453,6,0,L|-16:242,1,41.2500015735627,4|0,1:2|3:0,3:0:0:0:
44,224,299539,2,0,L|-13:218,1,41.2500015735627,0|0,3:0|3:0,3:0:0:0:
47,200,299624,2,0,L|-10:194,1,41.2500015735627,0|0,3:0|3:0,3:0:0:0:
51,176,299710,2,0,L|-6:170,1,41.2500015735627,0|0,3:0|3:0,3:0:0:0:
89,145,299796,2,0,L|146:139,1,41.2500015735627,0|0,3:0|3:0,3:0:0:0:
86,121,299882,2,0,L|143:115,1,41.2500015735627,0|0,3:0|3:0,3:0:0:0:
83,97,299967,2,0,L|140:91,1,41.2500015735627,0|0,3:0|3:0,3:0:0:0:
79,73,300053,2,0,L|136:67,1,41.2500015735627,0|0,3:0|3:0,3:0:0:0:
43,37,300139,6,0,L|36:-2,12,20.6250007867813,4|0|0|0|0|0|0|0|0|0|0|0|0,1:2|3:0|3:0|3:0|3:0|3:0|3:0|3:0|3:0|3:0|3:0|3:0|3:0,3:0:0:0:
193,68,300482,2,0,L|200:29,12,20.6250007867813,0|0|0|0|0|0|0|0|0|0|0|0|0,3:0|3:0|3:0|3:0|3:0|3:0|3:0|3:0|3:0|3:0|3:0|3:0|3:0,3:0:0:0:
97,194,300824,6,0,P|96:238|137:278,1,82.5,0|0,1:0|0:0,0:0:0:0:
185,314,301167,2,0,P|147:291|92:306,1,82.5
37,330,301510,2,0,P|75:308|89:253,1,82.5
3,140,301853,6,0,L|28:288,1,123.750004720688,4|0,0:3|0:0,0:0:0:0:
134,358,302196,5,4,1:2:0:0:
134,358,302710,1,0,0:0:0:0:
133,369,302796,1,0,0:0:0:0:
132,380,302882,1,2,0:0:0:0:
214,230,303053,5,0,0:0:0:0:
104,238,303224,1,2,0:0:0:0:
249,248,303396,1,0,0:0:0:0:
19,157,303567,6,0,L|205:148,1,165.000006294251,2|2,0:0|0:0,0:0:0:0:
73,304,304082,1,0,0:0:0:0:
81,46,304253,6,0,L|318:58,1,220,2|2,0:0|0:0,0:0:0:0:
393,118,304767,1,2,0:0:0:0:
288,358,304939,5,6,1:2:0:0:
259,140,305110,1,2,0:0:0:0:
283,320,305282,5,2,0:0:0:0:
263,177,305453,1,2,0:0:0:0:
201,377,305624,6,0,L|6:360,1,165,6|0,1:2|0:0,0:0:0:0:
0,261,305967,2,0,P|77:262|105:185,1,165,6|0,1:2|0:0,0:0:0:0:
38,203,306310,6,0,B|122:306|264:270|312:149|268:-8|90:-22|44:121|126:170|126:170|196:207|265:153|300:95|300:95|323:155|309:228|257:279|257:279|317:224|408:208|457:256|457:256|448:306|390:320|390:320|354:274|377:214|377:214|396:159|385:78|349:30|349:30|384:70|442:86|495:60,1,1760
