osu file format v14

[General]
AudioFilename: audio.mp3
AudioLeadIn: 0
PreviewTime: -1
Countdown: 1
SampleSet: Soft
StackLeniency: 0.7
Mode: 0
LetterboxInBreaks: 0
WidescreenStoryboard: 0

[Editor]
Bookmarks: 113113,120440,135181
DistanceSpacing: 0.9
BeatDivisor: 4
GridSize: 32
TimelineZoom: 2.6

[Metadata]
Title:Anata dake kiku koto ga dekiru chiisana VOLUME de...
TitleUnicode:あなただけ聞くことができる小さなボリュームで...
Artist:Karut
ArtistUnicode:Karut
Creator:Sophia
Version:100%
Source:
Tags:
BeatmapID:1469201
BeatmapSetID:694442

[Difficulty]
HPDrainRate:7
CircleSize:4.3
OverallDifficulty:8.5
ApproachRate:9.3
SliderMultiplier:1.4
SliderTickRate:1

[Events]
//Background and Video events
0,0,"found.jpg",0,0
//Break Periods
2,69175,79456
2,135387,156702
//Storyboard Layer 0 (Background)
//Storyboard Layer 1 (Fail)
//Storyboard Layer 2 (Pass)
//Storyboard Layer 3 (Foreground)
//Storyboard Sound Samples

[TimingPoints]
2769,344.827586206897,4,2,0,25,1,0
25527,-100,4,2,0,32,0,0
46734,-100,4,2,0,50,0,0
80010,-100,4,2,0,75,0,0
90010,-90.9090909090909,4,2,0,75,0,0
90355,-83.3333333333333,4,2,0,75,0,0
90700,-80,4,2,0,100,0,0
101734,-200,4,2,0,100,0,0
102079,-80,4,2,0,100,0,0
110355,-90.9090909090909,4,2,0,70,0,0
110700,-86.9565217391304,4,2,0,75,0,0
111044,-83.3333333333333,4,2,0,80,0,0
111389,-80,4,2,0,85,0,0
111734,-76.9230769230769,4,2,0,90,0,0
112079,-74.0740740740741,4,2,0,95,0,0
112424,-71.4285714285714,4,2,0,100,0,0
113113,172.413793103448,4,2,0,100,1,0
113113,-100,4,2,0,100,0,0
114319,344.827586206897,4,2,0,25,1,0
114319,-200,4,2,0,100,0,0
114836,172.413793103448,4,2,0,25,1,0
114837,-100,4,2,0,100,0,0
115181,-90.9090909090909,4,2,0,100,0,0
115526,-100,4,2,0,100,0,0
115871,-80,4,2,0,100,0,0
116561,-100,4,2,0,100,0,0
117077,344.827586206897,4,2,0,25,1,0
117078,-200,4,2,0,100,0,0
117594,172.413793103448,4,2,0,100,1,0
117595,-100,4,2,0,100,0,0
118285,-74.0740740740741,4,2,0,100,0,0
118630,-90.9090909090909,4,2,0,100,0,0
119233,-100,4,2,0,100,0,0
119837,344.827586206897,4,2,0,25,1,0
119837,-133.333333333333,4,2,0,100,0,0
120526,172.413793103448,4,2,0,25,1,0
120526,-100,4,2,0,100,0,0
121044,-133.333333333333,4,2,0,100,0,0
121388,-80,4,2,0,100,0,0
122077,-100,4,2,0,100,0,0
122594,344.827586206897,4,2,0,100,1,0
122594,-200,4,2,0,100,0,0
123111,172.413793103448,4,2,0,100,1,0
123111,-100,4,2,0,100,0,0
123455,-66.6666666666667,4,2,0,100,0,0
123800,344.827586206897,4,2,0,100,1,0
124144,172.413793103448,4,2,0,100,1,0
124144,-66.6666666666667,4,2,0,100,0,0
125350,344.827586206897,4,2,0,100,1,0
125350,-200,4,2,0,100,0,0
125867,172.413793103448,4,2,0,100,1,0
125867,-83.3333333333333,4,2,0,100,0,0
126211,-76.9230769230769,4,2,0,100,0,0
126556,-71.4285714285714,4,2,0,100,0,0
126901,-66.6666666666667,4,2,0,100,0,0
128108,344.827586206897,4,2,0,100,1,0
128108,-200,4,2,0,100,0,0
128625,172.413793103448,4,2,0,100,1,0
128625,-83.3333333333333,4,2,0,100,0,0
128969,-90.9090909090909,4,2,0,100,0,0
129314,-76.9230769230769,4,2,0,100,0,0
129659,-66.6666666666667,4,2,0,100,0,0
130866,344.827586206897,4,2,0,100,1,0
130866,-200,4,2,0,100,0,0
131555,172.413793103448,4,2,0,100,1,0
131555,-90.9090909090909,4,2,0,100,0,0
132072,-76.9230769230769,4,2,0,100,0,0
132417,-66.6666666666667,4,2,0,100,0,0
133623,344.827586206897,4,2,0,100,1,0
133623,-200,4,2,0,100,0,0
134140,172.413793103448,4,2,0,100,1,0
134140,-90.9090909090909,4,2,0,100,0,0
134484,-66.6666666666667,4,2,0,100,0,0
134843,344.827586206897,4,2,0,100,1,0
134843,-200,4,2,0,100,0,0

[HitObjects]
256,328,2769,5,0,0:0:0:0:
74,193,3458,6,0,L|137:150,1,70
222,77,3975,1,0,0:0:0:0:
228,260,4493,5,0,0:0:0:0:
323,129,4837,1,0,0:0:0:0:
305,285,5182,1,0,0:0:0:0:
394,163,5527,1,0,0:0:0:0:
73,49,6217,6,0,L|123:111,1,70
188,199,6734,1,0,0:0:0:0:
292,300,7251,5,0,0:0:0:0:
422,300,7596,1,0,0:0:0:0:
330,157,7941,1,0,0:0:0:0:
176,248,8286,1,0,0:0:0:0:
439,53,8975,6,0,L|382:117,1,70
320,181,9493,1,0,0:0:0:0:
154,317,10182,1,0,0:0:0:0:
97,189,10700,2,0,L|261:208,1,140
356,338,11734,6,0,L|326:271,1,70
285,188,12251,1,0,0:0:0:0:
154,137,12769,1,0,0:0:0:0:
48,98,13113,2,0,L|94:40,1,70
162,16,13458,1,0,0:0:0:0:
48,184,13803,1,0,0:0:0:0:
166,336,14493,6,0,L|109:291,1,70
30,219,15010,1,0,0:0:0:0:
153,39,15527,5,0,0:0:0:0:
194,181,15872,1,0,0:0:0:0:
231,61,16217,1,0,0:0:0:0:
269,216,16562,1,0,0:0:0:0:
418,344,17251,6,0,L|372:277,1,70
386,185,17769,1,0,0:0:0:0:
305,57,18286,5,0,0:0:0:0:
231,197,18631,1,0,0:0:0:0:
327,127,18975,1,0,0:0:0:0:
169,146,19320,1,0,0:0:0:0:
81,314,20010,6,0,L|161:348,1,70
255,381,20527,1,0,0:0:0:0:
395,282,21217,1,0,0:0:0:0:
431,154,21734,2,0,L|293:220,1,140
137,286,22769,6,0,L|163:211,1,70
185,116,23286,1,0,0:0:0:0:
262,0,23803,5,0,0:0:0:0:
302,93,24148,2,0,L|271:180,1,70,0|2,0:0|0:0,0:0:0:0:
255,317,24837,5,0,0:0:0:0:
306,181,25182,1,0,0:0:0:0:
186,268,25527,2,0,L|170:275,8,17.5
354,227,26217,2,0,L|376:223,8,17.5,0|0|0|0|0|0|0|0|2,0:0|0:0|0:0|0:0|0:0|0:0|0:0|0:0|0:0,0:0:0:0:
183,189,27079,2,0,L|156:177,1,17.5
355,45,27596,5,0,0:0:0:0:
444,186,27941,1,0,0:0:0:0:
301,114,28286,1,0,0:0:0:0:
479,117,28631,1,0,0:0:0:0:
391,117,28803,1,0,0:0:0:0:
365,207,28975,2,0,L|346:229,4,17.5
283,184,29320,2,0,L|267:204,1,17.5
223,142,29837,2,0,L|210:158,1,17.5
88,335,30355,5,0,0:0:0:0:
34,216,30700,1,0,0:0:0:0:
150,274,31044,2,0,L|170:284,8,17.5,0|0|0|0|0|0|0|0|2,0:0|0:0|0:0|0:0|0:0|0:0|0:0|0:0|0:0,0:0:0:0:
89,158,31734,2,0,L|75:145,4,17.5
155,109,32079,2,0,L|137:95,1,17.5
221,55,32596,2,0,L|200:42,1,17.5
355,339,33113,5,0,0:0:0:0:
444,198,33458,1,0,0:0:0:0:
301,270,33803,1,0,0:0:0:0:
479,267,34148,1,0,0:0:0:0:
391,267,34320,1,0,0:0:0:0:
365,177,34492,2,0,L|346:155,4,17.5
283,200,34837,2,0,L|267:180,1,17.5
223,242,35354,2,0,L|210:226,1,17.5
424,49,35872,5,0,0:0:0:0:
478,168,36217,1,0,0:0:0:0:
362,110,36561,2,0,L|342:100,8,17.5,0|0|0|0|0|0|0|0|2,0:0|0:0|0:0|0:0|0:0|0:0|0:0|0:0|0:0,0:0:0:0:
423,226,37251,2,0,L|437:239,4,17.5
357,275,37596,2,0,L|375:289,1,17.5
291,329,38113,2,0,L|312:342,1,17.5
157,45,38630,5,0,0:0:0:0:
68,186,38975,1,0,0:0:0:0:
211,114,39320,1,0,0:0:0:0:
33,117,39665,1,0,0:0:0:0:
121,117,39837,1,0,0:0:0:0:
147,207,40009,2,0,L|166:229,4,17.5
229,184,40354,2,0,L|245:204,1,17.5
289,142,40871,2,0,L|302:158,1,17.5
88,335,41389,5,0,0:0:0:0:
34,216,41734,1,0,0:0:0:0:
150,274,42078,2,0,L|170:284,8,17.5,0|0|0|0|0|0|0|0|2,0:0|0:0|0:0|0:0|0:0|0:0|0:0|0:0|0:0,0:0:0:0:
89,158,42768,2,0,L|75:145,4,17.5
155,109,43113,2,0,L|137:95,1,17.5
221,55,43630,2,0,L|200:42,1,17.5
355,339,44147,5,0,0:0:0:0:
444,198,44492,1,0,0:0:0:0:
301,270,44837,1,0,0:0:0:0:
479,267,45182,1,0,0:0:0:0:
391,267,45354,1,0,0:0:0:0:
365,177,45526,2,0,L|346:155,4,17.5
283,200,45871,2,0,L|267:180,1,17.5
223,242,46388,2,0,L|210:226,1,17.5
430,53,46906,5,0,0:0:0:0:
341,182,47251,1,0,0:0:0:0:
476,146,47596,1,0,0:0:0:0:
293,100,47941,1,0,0:0:0:0:
256,224,48113,1,0,0:0:0:0:
366,293,48286,1,0,0:0:0:0:
478,213,48631,1,0,0:0:0:0:
256,224,48975,1,0,0:0:0:0:
352,64,49320,1,0,0:0:0:0:
256,0,49493,1,0,0:0:0:0:
145,33,49665,5,0,0:0:0:0:
62,188,50010,1,0,0:0:0:0:
222,111,50355,1,0,0:0:0:0:
112,302,50700,1,0,0:0:0:0:
168,211,50872,1,0,0:0:0:0:
100,130,51044,1,0,0:0:0:0:
288,128,51389,1,0,0:0:0:0:
210,289,51734,1,0,0:0:0:0:
172,124,52079,1,0,0:0:0:0:
288,128,52251,1,0,0:0:0:0:
365,204,52424,5,0,0:0:0:0:
468,344,52769,1,0,0:0:0:0:
302,290,53113,1,0,0:0:0:0:
480,224,53458,1,0,0:0:0:0:
448,96,53631,1,0,0:0:0:0:
318,113,53803,1,0,0:0:0:0:
385,267,54148,1,0,0:0:0:0:
448,96,54493,1,0,0:0:0:0:
291,217,54837,1,0,0:0:0:0:
224,320,55010,1,0,0:0:0:0:
85,344,55182,5,0,0:0:0:0:
134,187,55527,1,0,0:0:0:0:
224,320,55872,1,0,0:0:0:0:
44,249,56217,1,0,0:0:0:0:
15,152,56389,1,0,0:0:0:0:
94,93,56562,1,0,0:0:0:0:
254,32,56906,1,0,0:0:0:0:
220,206,57251,1,0,0:0:0:0:
155,29,57596,1,0,0:0:0:0:
212,124,57769,1,0,0:0:0:0:
323,146,57941,5,0,0:0:0:0:
437,46,58286,1,0,0:0:0:0:
395,198,58631,1,0,0:0:0:0:
352,66,58975,1,0,0:0:0:0:
256,128,59148,1,0,0:0:0:0:
271,238,59320,1,0,0:0:0:0:
450,147,59665,1,0,0:0:0:0:
393,304,60010,1,0,0:0:0:0:
256,128,60355,1,0,0:0:0:0:
326,242,60527,1,0,0:0:0:0:
180,304,60700,5,0,0:0:0:0:
326,242,61044,1,0,0:0:0:0:
179,165,61389,1,0,0:0:0:0:
277,337,61734,1,0,0:0:0:0:
386,317,61906,1,0,0:0:0:0:
409,213,62079,1,0,0:0:0:0:
216,243,62424,1,0,0:0:0:0:
277,79,62769,1,0,0:0:0:0:
323,272,63113,1,0,0:0:0:0:
257,170,63286,1,0,0:0:0:0:
128,121,63458,5,0,0:0:0:0:
182,254,63803,1,0,0:0:0:0:
36,211,64148,1,0,0:0:0:0:
257,170,64493,1,0,0:0:0:0:
182,254,64665,1,0,0:0:0:0:
64,288,64837,1,0,0:0:0:0:
96,64,65182,1,0,0:0:0:0:
182,254,65527,1,0,0:0:0:0:
224,0,65872,1,0,0:0:0:0:
256,96,66044,1,0,0:0:0:0:
308,197,66217,5,0,0:0:0:0:
381,85,66562,1,0,0:0:0:0:
437,226,66906,2,0,L|402:198,7,35
398,259,67596,5,0,0:0:0:0:
370,281,67682,1,0,0:0:0:0:
340,298,67768,1,0,0:0:0:0:
307,310,67854,1,0,0:0:0:0:
273,316,67940,1,0,0:0:0:0:
238,317,68027,1,0,0:0:0:0:
203,312,68113,1,0,0:0:0:0:
170,301,68199,1,0,0:0:0:0:
139,285,68285,1,0,0:0:0:0:
111,264,68371,1,0,0:0:0:0:
87,239,68458,1,0,0:0:0:0:
67,210,68544,1,0,0:0:0:0:
52,178,68630,1,8,0:0:0:0:
256,32,68975,5,2,0:0:0:0:
255,36,80010,5,8,0:0:0:0:
254,120,80355,1,2,0:0:0:0:
258,337,81217,5,0,0:0:0:0:
227,247,81389,1,8,0:0:0:0:
390,278,81734,1,0,0:0:0:0:
48,191,82769,5,0,0:0:0:0:
157,192,83113,1,2,0:0:0:0:
487,193,83975,5,0,0:0:0:0:
397,253,84148,1,8,0:0:0:0:
470,76,84493,1,0,0:0:0:0:
145,60,85010,5,8,0:0:0:0:
218,130,85182,1,0,0:0:0:0:
39,89,85527,1,2,0:0:0:0:
286,22,85872,1,8,0:0:0:0:
337,269,86734,5,0,0:0:0:0:
283,171,86906,1,8,0:0:0:0:
228,347,87251,1,0,0:0:0:0:
432,332,88286,6,0,L|348:310,1,70,8|2,0:0|0:0,0:0:0:0:
420,247,88631,2,0,L|342:246,1,70,8|2,0:0|0:0,0:0:0:0:
376,144,88975,2,0,L|311:187,1,70,8|2,0:0|0:0,0:0:0:0:
289,72,89320,2,0,L|247:163,1,70,8|2,0:0|0:0,0:0:0:0:
229,213,89665,5,0,0:0:0:0:
201,191,89751,1,0,0:0:0:0:
168,182,89837,1,8,0:0:0:0:
133,188,89923,1,0,0:0:0:0:
102,213,90010,5,0,0:0:0:0:
88,248,90096,1,0,0:0:0:0:
92,286,90182,1,8,0:0:0:0:
113,318,90268,1,0,0:0:0:0:
159,329,90355,5,0,0:0:0:0:
200,331,90441,1,0,0:0:0:0:
241,320,90527,1,8,0:0:0:0:
275,297,90613,1,0,0:0:0:0:
300,263,90699,1,4,0:0:0:0:
345,110,91044,5,0,0:0:0:0:
398,262,91217,1,0,0:0:0:0:
219,220,91389,1,0,0:0:0:0:
444,125,91562,1,0,0:0:0:0:
422,162,91648,1,0,0:0:0:0:
386,186,91734,1,8,0:0:0:0:
343,190,91820,1,0,0:0:0:0:
297,173,91906,1,2,0:0:0:0:
182,100,92079,1,0,0:0:0:0:
286,293,92251,1,2,0:0:0:0:
92,146,92424,5,0,0:0:0:0:
130,346,92596,1,0,0:0:0:0:
231,164,92769,1,0,0:0:0:0:
35,316,92941,1,0,0:0:0:0:
68,288,93027,1,0,0:0:0:0:
102,260,93113,1,8,0:0:0:0:
136,232,93199,1,0,0:0:0:0:
170,205,93285,1,2,0:0:0:0:
253,82,93458,1,0,0:0:0:0:
236,277,93631,1,2,0:0:0:0:
345,113,93803,5,0,0:0:0:0:
473,214,93975,1,0,0:0:0:0:
294,188,94148,1,0,0:0:0:0:
415,278,94320,1,0,0:0:0:0:
375,295,94406,1,0,0:0:0:0:
331,301,94492,1,8,0:0:0:0:
288,295,94578,1,0,0:0:0:0:
249,276,94664,1,2,0:0:0:0:
181,112,94837,1,0,0:0:0:0:
121,308,95010,1,2,0:0:0:0:
74,105,95182,5,0,0:0:0:0:
261,24,95355,1,0,0:0:0:0:
131,194,95527,1,0,0:0:0:0:
154,28,95700,1,0,0:0:0:0:
168,68,95786,1,0,0:0:0:0:
197,101,95872,1,8,0:0:0:0:
236,121,95958,1,0,0:0:0:0:
279,125,96044,1,2,0:0:0:0:
381,75,96217,1,0,0:0:0:0:
254,232,96389,1,2,0:0:0:0:
420,167,96562,5,0,0:0:0:0:
276,320,96734,1,0,0:0:0:0:
333,164,96906,1,0,0:0:0:0:
397,338,97079,1,0,0:0:0:0:
376,299,97165,1,0,0:0:0:0:
347,267,97251,1,8,0:0:0:0:
309,244,97337,1,0,0:0:0:0:
267,233,97423,1,2,0:0:0:0:
148,231,97596,1,0,0:0:0:0:
286,120,97769,1,0,0:0:0:0:
81,123,97941,5,0,0:0:0:0:
191,304,98113,1,0,0:0:0:0:
175,118,98286,1,0,0:0:0:0:
82,315,98458,1,0,0:0:0:0:
93,273,98544,1,0,0:0:0:0:
121,239,98630,1,8,0:0:0:0:
159,219,98716,1,0,0:0:0:0:
203,217,98802,1,2,0:0:0:0:
326,244,98975,1,0,0:0:0:0:
191,304,99148,1,2,0:0:0:0:
254,137,99320,5,0,0:0:0:0:
401,207,99493,1,0,0:0:0:0:
384,53,99665,1,0,0:0:0:0:
288,235,99837,1,0,0:0:0:0:
309,197,99923,1,0,0:0:0:0:
322,155,100009,1,8,0:0:0:0:
325,111,100095,1,0,0:0:0:0:
317,68,100181,1,2,0:0:0:0:
163,35,100355,1,0,0:0:0:0:
202,202,100527,1,2,0:0:0:0:
79,108,100700,5,0,0:0:0:0:
101,286,100872,1,0,0:0:0:0:
169,113,101044,1,0,0:0:0:0:
181,289,101217,1,0,0:0:0:0:
209,255,101303,1,0,0:0:0:0:
231,218,101389,1,8,0:0:0:0:
245,176,101475,1,0,0:0:0:0:
252,133,101561,1,2,0:0:0:0:
255,32,101734,2,0,P|292:49|325:80,1,70,8|2,0:0|0:0,0:0:0:0:
386,205,102251,5,0,0:0:0:0:
443,58,102424,1,0,0:0:0:0:
473,231,102596,1,0,0:0:0:0:
454,270,102682,1,0,0:0:0:0:
423,301,102768,1,8,0:0:0:0:
384,318,102854,1,0,0:0:0:0:
340,321,102940,1,2,0:0:0:0:
194,299,103113,1,0,0:0:0:0:
305,191,103286,1,2,0:0:0:0:
105,210,103458,5,0,0:0:0:0:
261,263,103631,1,0,0:0:0:0:
180,121,103803,1,0,0:0:0:0:
194,299,103975,1,0,0:0:0:0:
177,259,104061,1,0,0:0:0:0:
186,217,104147,1,8,0:0:0:0:
217,187,104233,1,0,0:0:0:0:
260,181,104319,1,2,0:0:0:0:
410,121,104493,1,0,0:0:0:0:
261,263,104665,1,2,0:0:0:0:
179,66,104837,5,0,0:0:0:0:
95,213,105010,1,0,0:0:0:0:
257,183,105182,1,0,0:0:0:0:
66,80,105355,1,0,0:0:0:0:
94,112,105441,1,0,0:0:0:0:
132,133,105527,1,8,0:0:0:0:
176,137,105613,1,0,0:0:0:0:
217,125,105699,1,2,0:0:0:0:
330,62,105872,1,0,0:0:0:0:
199,216,106044,1,2,0:0:0:0:
363,148,106217,5,0,0:0:0:0:
394,324,106389,1,0,0:0:0:0:
276,178,106562,1,0,0:0:0:0:
463,271,106734,1,0,0:0:0:0:
422,255,106820,1,0,0:0:0:0:
379,248,106906,1,8,0:0:0:0:
335,251,106992,1,0,0:0:0:0:
293,263,107078,1,2,0:0:0:0:
210,346,107251,1,0,0:0:0:0:
276,178,107424,1,2,0:0:0:0:
141,308,107596,5,0,0:0:0:0:
206,141,107769,1,0,0:0:0:0:
70,269,107941,1,0,0:0:0:0:
132,108,108113,1,0,0:0:0:0:
107,144,108199,1,0,0:0:0:0:
119,176,108285,1,8,0:0:0:0:
152,204,108371,1,0,0:0:0:0:
185,233,108457,1,2,0:0:0:0:
304,309,108631,1,0,0:0:0:0:
206,141,108803,1,2,0:0:0:0:
368,255,108975,5,0,0:0:0:0:
215,306,109148,1,0,0:0:0:0:
314,139,109320,1,0,0:0:0:0:
304,309,109493,1,0,0:0:0:0:
283,270,109579,1,0,0:0:0:0:
262,231,109665,1,8,0:0:0:0:
242,193,109751,1,0,0:0:0:0:
221,154,109837,1,2,0:0:0:0:
175,68,110010,1,0,0:0:0:0:
134,242,110182,1,2,0:0:0:0:
357,181,110355,5,0,0:0:0:0:
356,142,110441,1,0,0:0:0:0:
338,109,110527,1,8,0:0:0:0:
307,87,110613,1,2,0:0:0:0:
256,128,110700,5,0,0:0:0:0:
256,160,110786,1,0,0:0:0:0:
256,192,110872,1,8,0:0:0:0:
256,224,110958,1,2,0:0:0:0:
224,256,111044,5,0,0:0:0:0:
186,233,111130,1,0,0:0:0:0:
157,198,111216,1,8,0:0:0:0:
140,153,111302,1,2,0:0:0:0:
98,101,111389,5,0,0:0:0:0:
63,148,111475,1,0,0:0:0:0:
53,207,111561,1,8,0:0:0:0:
69,264,111647,1,2,0:0:0:0:
128,320,111734,5,0,0:0:0:0:
163,265,111820,1,0,0:0:0:0:
191,197,111906,1,8,0:0:0:0:
208,131,111992,1,2,0:0:0:0:
224,64,112079,5,0,0:0:0:0:
296,107,112165,1,0,0:0:0:0:
355,171,112251,1,8,0:0:0:0:
393,248,112337,1,2,0:0:0:0:
402,328,112424,5,0,0:0:0:0:
320,320,112510,1,0,0:0:0:0:
253,272,112596,1,8,0:0:0:0:
218,194,112682,1,0,0:0:0:0:
255,125,112768,1,2,0:0:0:0:
255,125,113113,6,0,B|138:267|138:267|248:242,1,280
288,224,113544,1,0,0:0:0:0:
352,192,113630,5,0,0:0:0:0:
416,160,113716,1,0,0:0:0:0:
480,128,113802,2,0,L|480:224,1,70
352,320,113975,2,0,L|256:320,1,70
128,256,114147,1,0,0:0:0:0:
96,224,114233,1,0,0:0:0:0:
64,192,114319,2,0,L|96:128,1,70
128,96,114750,1,0,0:0:0:0:
160,64,114837,6,0,P|235:78|318:183,1,210
320,288,115181,2,0,P|237:311|191:171,1,231.000007049561
32,177,115526,2,0,P|57:86|174:70,1,210
192,160,115871,2,0,B|273:363|273:363|291:224,1,350,0|2,0:0|0:0,0:0:0:0:
352,192,116301,1,0,0:0:0:0:
384,128,116388,5,0,0:0:0:0:
352,64,116473,1,0,0:0:0:0:
288,32,116561,2,0,L|211:50,1,70
128,128,116733,2,0,L|221:108,1,70
352,192,116904,1,0,0:0:0:0:
224,224,117077,6,2,P|192:256|64:256,1,175
54,195,117595,6,0,P|111:128|270:115,1,210
178,182,117938,2,0,P|261:212|301:85,1,210
227,103,118285,2,0,B|346:20|446:29|446:29|423:88,1,283.500001081467
384,160,118628,2,0,B|352:320|352:320|320:320|288:288|256:224|256:224|224:256|192:256,1,378.000001441956
192,192,119059,1,0,0:0:0:0:
224,128,119147,5,0,0:0:0:0:
256,64,119231,1,0,0:0:0:0:
192,32,119319,2,0,L|159:99,1,70
32,192,119492,2,0,L|64:128,1,70
192,192,119662,1,0,0:0:0:0:
256,32,119837,2,0,P|224:32|256:128,1,183.750007009506
146,215,120526,6,0,P|170:284|312:298,1,210
402,208,120871,2,0,L|460:152,1,70
374,47,121044,2,0,B|334:77|374:92|316:104|370:124|303:144|362:162|303:197,1,157.500006008148
223,200,121388,2,0,B|192:320|192:320|128:320|128:288|96:288|96:256|96:320|64:320|32:288|0:256|0:256|32:224,1,350
64,192,121819,1,0,0:0:0:0:
111,144,121905,5,0,0:0:0:0:
160,96,121991,1,0,0:0:0:0:
224,64,122077,2,0,P|256:96|288:96,1,70
448,160,122250,2,0,P|416:128|384:128,1,70
160,96,122422,1,0,0:0:0:0:
351,80,122594,6,0,B|318:127|351:127|319:176,1,87.5
224,224,123111,6,0,P|192:256|96:256,1,140
64,160,123455,2,0,P|96:128|160:96,1,105.000004005432
308,163,123628,2,0,P|276:195|212:227,1,105.000004005432
101,259,123800,6,0,P|133:195|165:163,1,105
192,64,124144,6,0,B|224:96|224:96|256:64|256:96|288:96|352:64|352:64|352:96,1,210.000008010865
352,128,124402,1,0,0:0:0:0:
352,160,124488,1,0,0:0:0:0:
64,64,124661,1,0,0:0:0:0:
96,96,124747,1,0,0:0:0:0:
128,128,124833,2,0,P|128:192|160:224,1,105.000004005432
288,352,125006,2,0,P|288:288|256:256,1,105.000004005432
153,220,125178,1,0,0:0:0:0:
128,128,125350,6,0,B|172:85|172:162|214:115,1,87.5
214,37,125867,6,0,P|263:57|208:213,1,251.999992309571
205,123,126211,2,0,P|143:248|243:296,1,272.999987503052
328,348,126556,2,0,B|387:273|337:188|337:188|296:199|295:244|204:202,1,293.999991027832
205,124,126901,2,0,B|95:200|214:320|214:320|145:312|108:268|108:268|80:300|46:298|26:270,1,420.000016021729
32,224,127332,1,0,0:0:0:0:
64,160,127418,5,0,0:0:0:0:
96,96,127504,1,0,0:0:0:0:
128,32,127591,2,0,P|160:32|224:64,1,105.000004005432
160,192,127763,2,0,P|128:191|64:160,1,105.000004005432
224,64,127935,1,0,0:0:0:0:
32,224,128108,6,0,P|32:256|76:304,1,87.5
152,333,128625,6,0,B|230:331|251:275|251:275|232:251|171:246|159:191,1,251.999992309571
32,224,128969,2,0,P|26:116|125:112,1,231.000007049561
86,175,129314,2,0,B|190:229|254:162|254:162|300:236|257:264,1,272.999987503052
200,273,129659,2,0,P|245:317|201:211,1,420.000016021729
137,236,130090,1,0,0:0:0:0:
65,214,130176,5,0,0:0:0:0:
18,151,130262,1,0,0:0:0:0:
31,73,130349,2,0,P|86:40|132:28,1,105.000004005432
159,170,130521,2,0,P|104:203|58:215,1,105.000004005432
125,29,130693,1,0,0:0:0:0:
65,214,130866,2,0,P|82:280|135:313,1,122.5
217,320,131555,6,0,B|272:297|317:213|317:213|350:247|392:240,1,231.000007049561
463,179,131899,2,0,L|511:117,1,77.0000023498536
380,128,132072,2,0,B|323:139|286:117|286:117|239:91|182:142|205:185|219:208|266:195,1,272.999987503052
356,205,132417,2,0,B|417:199|467:175|467:175|459:244|354:371|210:329|210:329|215:327,1,420.000016021729
154,313,132848,1,0,0:0:0:0:
101,261,132934,5,0,0:0:0:0:
71,192,133020,1,0,0:0:0:0:
61,122,133106,2,0,P|121:107|176:107,1,105.000004005432
203,244,133279,2,0,P|143:259|88:259,1,105.000004005432
163,105,133451,1,0,0:0:0:0:
101,261,133623,6,0,P|125:302|172:318,1,87.5
252,328,134140,6,0,P|279:283|273:174,1,154.000004699707
177,58,134484,2,0,P|160:113|169:166,1,105.000004005432
277,184,134657,2,0,P|294:129|285:75,1,105.000004005432
165,158,134843,2,0,P|146:186|141:231,1,70
263,198,157256,5,0,0:0:0:0:
