osu file format v14

[General]
AudioFilename: audio.mp3
AudioLeadIn: 0
PreviewTime: -1
Countdown: 1
SampleSet: Normal
StackLeniency: 0.7
Mode: 0
LetterboxInBreaks: 0
WidescreenStoryboard: 1

[Editor]
DistanceSpacing: 1.6
BeatDivisor: 4
GridSize: 4
TimelineZoom: 1

[Metadata]
Title:Mina Omraden
TitleUnicode:Mina Områden
Artist:Kartellen ft. Dani M
ArtistUnicode:Kartellen ft. Dani M
Creator:Edythator
Version:calm
Source:
Tags:swedish
BeatmapID:1717508
BeatmapSetID:741605

[Difficulty]
HPDrainRate:6
CircleSize:4
OverallDifficulty:7
ApproachRate:9
SliderMultiplier:1.4
SliderTickRate:1

[Events]
//Background and Video events
0,0,"d6d66674-3d34-4d7c-abea-4408fd3c889c.jpg",0,0
//Break Periods
//Storyboard Layer 0 (Background)
//Storyboard Layer 1 (Fail)
//Storyboard Layer 2 (Pass)
//Storyboard Layer 3 (Foreground)
//Storyboard Sound Samples

[TimingPoints]
81.8393003936692,705.882352941176,4,1,0,100,1,0

[HitObjects]
97,173,22670,5,0,0:0:0:0:
256,263,23375,1,0,0:0:0:0:
322,141,24081,1,0,0:0:0:0:
174,139,24787,1,0,0:0:0:0:
255,191,25493,5,0,0:0:0:0:
439,120,26199,1,0,0:0:0:0:
107,180,26905,1,0,0:0:0:0:
326,266,27611,1,0,0:0:0:0:
142,237,28317,5,0,0:0:0:0:
382,290,29023,1,0,0:0:0:0:
257,188,29728,1,0,0:0:0:0:
378,137,30434,1,0,0:0:0:0:
173,258,31140,1,0,0:0:0:0:
254,191,31846,5,0,0:0:0:0:
374,135,32552,1,0,0:0:0:0:
132,232,33258,1,0,0:0:0:0:
139,75,33964,1,0,0:0:0:0:
161,195,34670,5,0,0:0:0:0:
408,118,35375,1,0,0:0:0:0:
289,279,36081,1,0,0:0:0:0:
155,147,36787,5,0,0:0:0:0:
318,189,37493,1,0,0:0:0:0:
224,214,38199,1,0,0:0:0:0:
382,201,38905,1,0,0:0:0:0:
116,170,39611,1,0,0:0:0:0:
233,96,40317,5,0,0:0:0:0:
269,210,41023,1,0,0:0:0:0:
152,265,41728,1,0,0:0:0:0:
106,147,42434,1,0,0:0:0:0:
140,206,43140,5,0,0:0:0:0:
320,94,43846,1,0,0:0:0:0:
429,296,44552,1,0,0:0:0:0:
209,301,45258,5,0,0:0:0:0:
93,146,45964,1,0,0:0:0:0:
389,75,46670,1,0,0:0:0:0:
300,325,47375,5,0,0:0:0:0:
253,88,48081,1,0,0:0:0:0:
71,271,48787,1,0,0:0:0:0:
419,173,49493,1,0,0:0:0:0:
89,90,50199,1,0,0:0:0:0:
344,295,50905,1,0,0:0:0:0:
243,81,51611,1,0,0:0:0:0:
252,271,52317,1,0,0:0:0:0:
166,132,53023,1,0,0:0:0:0:
114,291,53728,5,0,0:0:0:0:
218,132,54434,1,0,0:0:0:0:
328,294,55140,1,0,0:0:0:0:
458,172,55846,1,0,0:0:0:0:
23,171,56552,1,0,0:0:0:0:
253,360,57258,5,0,0:0:0:0:
260,23,57964,1,0,0:0:0:0:
118,279,58670,1,0,0:0:0:0:
384,292,59375,1,0,0:0:0:0:
369,72,60081,1,0,0:0:0:0:
34,190,60787,5,0,0:0:0:0:
253,361,61493,1,0,0:0:0:0:
489,187,62199,5,0,0:0:0:0:
257,61,62905,1,0,0:0:0:0:
129,182,63611,1,0,0:0:0:0:
342,187,64317,5,0,0:0:0:0:
242,287,65023,1,0,0:0:0:0:
406,268,65728,1,0,0:0:0:0:
93,132,66434,1,0,0:0:0:0:
254,285,67140,1,0,0:0:0:0:
402,78,67846,5,0,0:0:0:0:
60,105,68552,1,0,0:0:0:0:
167,228,69258,1,0,0:0:0:0:
281,351,69964,5,0,0:0:0:0:
340,215,70670,1,0,0:0:0:0:
145,155,71375,1,0,0:0:0:0:
432,134,72081,1,0,0:0:0:0:
108,245,72787,1,0,0:0:0:0:
117,64,73493,5,0,0:0:0:0:
311,324,74199,1,0,0:0:0:0:
351,87,74905,1,0,0:0:0:0:
98,299,75611,1,0,0:0:0:0:
255,195,76317,1,0,0:0:0:0:
372,105,77023,1,0,0:0:0:0:
14,203,77728,1,0,0:0:0:0:
161,93,78434,5,0,0:0:0:0:
374,279,79140,1,0,0:0:0:0:
409,71,79846,1,0,0:0:0:0:
142,259,80552,1,0,0:0:0:0:
128,60,81258,5,0,0:0:0:0:
393,276,81964,1,0,0:0:0:0:
388,128,82670,1,0,0:0:0:0:
42,287,83375,1,0,0:0:0:0:
318,300,84081,1,0,0:0:0:0:
196,143,84787,5,0,0:0:0:0:
362,105,85493,1,0,0:0:0:0:
128,157,86199,1,0,0:0:0:0:
356,281,86905,1,0,0:0:0:0:
375,83,87611,5,0,0:0:0:0:
116,257,88317,1,0,0:0:0:0:
160,45,89023,1,0,0:0:0:0:
361,281,89728,1,0,0:0:0:0:
111,266,90434,1,0,0:0:0:0:
