osu file format v14

[General]
AudioFilename: audio.mp3
AudioLeadIn: 0
PreviewTime: 27362
Countdown: 0
SampleSet: Soft
StackLeniency: 0.7
Mode: 0
LetterboxInBreaks: 0
WidescreenStoryboard: 0

[Editor]
Bookmarks: 1970,2755
DistanceSpacing: 2.1
BeatDivisor: 4
GridSize: 16
TimelineZoom: 1.7

[Metadata]
Title:Alas (TV Size)
TitleUnicode:Alas (TV Size)
Artist:Karol Sevilla
ArtistUnicode:Karol Sevilla
Creator:tomaiosai
Version:Y si no hay vuelta atras
Source:Soy Luna
Tags:español spanish azphyx tantan_ gabizon hazu- syodou -magic- pop disney botariel channel música en ti elenco de eduardo emilio frigerio federico san millán florencia ciarlo
BeatmapID:3952529
BeatmapSetID:1915826

[Difficulty]
HPDrainRate:5
CircleSize:4.2
OverallDifficulty:8
ApproachRate:8.7
SliderMultiplier:2.02
SliderTickRate:1

[Events]
//Background and Video events
0,0,"dsads.jpg",0,0
//Break Periods
//Storyboard Layer 0 (Background)
//Storyboard Layer 1 (Fail)
//Storyboard Layer 2 (Pass)
//Storyboard Layer 3 (Foreground)
//Storyboard Layer 4 (Overlay)
//Storyboard Sound Samples

[TimingPoints]
10,392.156862745098,4,2,1,100,1,0
206,-333.333333333333,4,2,1,5,0,0
402,-333.333333333333,4,2,1,8,0,0
598,-333.333333333333,4,2,1,12,0,0
794,-333.333333333333,4,2,1,16,0,0
990,-333.333333333333,4,2,1,20,0,0
1186,-222.222222222222,4,2,1,24,0,0
1382,-222.222222222222,4,2,1,28,0,0
1578,-222.222222222222,4,2,1,32,0,0
1774,-222.222222222222,4,2,1,38,0,0
1970,-166.666666666667,4,2,1,42,0,0
2166,-166.666666666667,4,2,1,46,0,0
2362,-166.666666666667,4,2,1,50,0,0
2558,-166.666666666667,4,2,1,53,0,0
2755,-133.333333333333,4,2,1,56,0,0
2951,-133.333333333333,4,2,1,58,0,0
3147,-117.647058823529,4,2,1,60,0,0
5107,-117.647058823529,4,2,100,60,0,0
5112,-117.647058823529,4,2,1,60,0,0
8245,-117.647058823529,4,2,1,60,0,0
9617,-117.647058823529,4,2,1,60,0,0
9813,-117.647058823529,4,2,1,60,0,0
13147,-117.647058823529,4,2,1,60,0,0
14911,-117.647058823529,4,2,2,60,0,0
15107,-117.647058823529,4,2,1,60,0,0
15696,-95.238095238095,4,2,1,70,0,0
16676,-95.238095238095,4,2,1,50,0,0
16872,-95.238095238095,4,2,1,70,0,0
17166,-95.238095238095,4,2,1,50,0,0
17264,-95.238095238095,4,2,1,70,0,0
17656,-95.238095238095,4,2,1,50,0,0
17853,-95.238095238095,4,2,1,70,0,0
18637,-95.238095238095,4,2,1,50,0,0
18833,-95.238095238095,4,2,1,70,0,0
19813,-95.238095238095,4,2,1,50,0,0
20010,-95.238095238095,4,2,1,70,0,0
20206,-95.238095238095,4,2,1,50,0,0
20402,-95.238095238095,4,2,1,70,0,0
21382,-95.238095238095,4,2,1,50,0,0
21578,-95.238095238095,4,2,1,70,0,0
22951,-95.238095238095,4,2,1,50,0,0
23147,-95.238095238095,4,2,1,70,0,0
23441,-95.238095238095,4,2,1,50,0,0
23539,-95.238095238095,4,2,1,70,0,0
23735,-95.238095238095,4,2,1,50,0,0
23931,-95.238095238095,4,2,1,70,0,0
24225,-95.238095238095,4,2,1,50,0,0
24323,-95.238095238095,4,2,1,70,0,0
24519,-95.238095238095,4,2,1,50,0,0
24715,-95.238095238095,4,2,1,70,0,0
24911,-95.238095238095,4,2,1,50,0,0
25108,-95.2380952380952,4,2,1,70,0,0
25304,-95.2380952380952,4,2,1,50,0,0
25500,-95.2380952380952,4,2,1,70,0,0
25696,-95.2380952380952,4,2,1,50,0,0
25892,-95.2380952380952,4,2,1,70,0,0
26088,-95.2380952380952,4,2,1,50,0,0
26284,-95.2380952380952,4,2,1,70,0,0
26480,-95.2380952380952,4,2,1,50,0,0
26676,-95.2380952380952,4,2,1,70,0,0
26774,-181.818181818182,4,2,1,70,0,0
26872,-181.818181818182,4,2,1,50,0,0
26970,-181.818181818182,4,2,1,70,0,0
27068,-117.647058823529,4,2,1,70,0,0
27166,-117.647058823529,4,2,1,55,0,0
27264,-86.9565217391304,4,2,1,70,0,0
27559,-68.9655172413793,4,2,1,70,0,0
27755,-68.9655172413793,4,2,1,55,0,0
27853,-68.9655172413793,4,2,1,70,0,0
28245,-86.9565217391304,4,2,3,80,0,1
28539,-86.9565217391304,4,2,3,55,0,1
28637,-86.9565217391304,4,2,1,80,0,1
29029,-86.9565217391304,4,2,1,55,0,1
29225,-86.9565217391304,4,2,1,80,0,1
30009,-86.9565217391304,4,2,1,55,0,1
30206,-86.9565217391304,4,2,1,80,0,1
30598,-86.9565217391304,4,2,1,55,0,1
30794,-86.9565217391304,4,2,1,80,0,1
31676,-86.9565217391304,4,2,1,55,0,1
31774,-86.9565217391304,4,2,1,80,0,1
34029,-86.9565217391304,4,2,1,55,0,1
34127,-153.846153846154,4,2,1,80,0,1
34519,-74.0740740740741,4,2,1,80,0,1
34813,-74.0740740740741,4,2,1,55,0,1
34911,-74.0740740740741,4,2,1,80,0,1
35108,-86.9565217391304,4,2,1,80,0,1
35402,-86.9565217391304,4,2,1,55,0,1
35500,-86.9565217391304,4,2,1,80,0,1
36382,-86.9565217391304,4,2,1,5,0,1
36480,-86.9565217391304,4,2,1,80,0,1
36970,-86.9565217391304,4,2,1,5,0,1
37068,-86.9565217391304,4,2,1,80,0,1
38735,-86.9565217391304,4,2,1,55,0,1
38833,-86.9565217391304,4,2,1,80,0,1
39421,-86.9565217391304,4,2,1,55,0,1
39617,-86.9565217391304,4,2,1,80,0,1
40206,-117.647058823529,4,2,1,80,0,0
40304,-117.647058823529,4,2,1,55,0,0
40402,-117.647058823529,4,2,1,80,0,0
40500,-117.647058823529,4,2,1,55,0,0
40598,-117.647058823529,4,2,1,80,0,0
40794,-86.9565217391304,4,2,1,80,0,1
40990,-86.9565217391304,4,2,1,55,0,1
41186,-86.9565217391304,4,2,1,80,0,1
41578,-86.9565217391304,4,2,1,55,0,1
41774,-86.9565217391304,4,2,1,80,0,1
42559,-86.9565217391304,4,2,1,55,0,1
42755,-86.9565217391304,4,2,1,80,0,1
43147,-86.9565217391304,4,2,1,55,0,1
43343,-86.9565217391304,4,2,1,80,0,1
44127,-86.9565217391304,4,2,1,55,0,1
44323,-86.9565217391304,4,2,1,80,0,1
45009,-86.9565217391304,4,2,1,55,0,1
45108,-86.9565217391304,4,2,1,80,0,1
47264,-86.9565217391304,4,2,1,55,0,1
47460,-86.9565217391304,4,2,1,80,0,1
47853,-86.9565217391304,4,2,1,55,0,1
48049,-86.9565217391304,4,2,1,80,0,1
48833,-86.9565217391304,4,2,1,55,0,1
49029,-86.9565217391304,4,2,1,80,0,1
49519,-86.9565217391304,4,2,1,55,0,1
49617,-86.9565217391304,4,2,1,80,0,1
50892,-86.9565217391304,4,2,1,55,0,1
50990,-86.9565217391304,4,2,1,80,0,1
51970,-86.9565217391304,4,2,1,55,0,1
52166,-86.9565217391304,4,2,1,80,0,1
52559,-117.647058823529,4,2,1,80,0,0
52657,-117.647058823529,4,2,1,5,0,0
52755,-117.647058823529,4,2,1,80,0,0
53049,-117.647058823529,4,2,1,5,0,0
53147,-117.647058823529,4,2,1,80,0,0
53343,-117.647058823529,4,2,1,80,0,0
53441,-117.647058823529,4,2,1,55,0,0
53539,-117.647058823529,4,2,1,80,0,0
56382,-117.647058823529,4,2,1,55,0,0
56480,-117.647058823529,4,2,1,80,0,0
57166,-117.647058823529,4,2,1,55,0,0
57264,-117.647058823529,4,2,1,80,0,0

[Colours]
Combo1 : 255,255,128
Combo2 : 128,255,255
Combo3 : 255,128,192
Combo4 : 134,193,238

[HitObjects]
0,42,402,6,0,P|7:64|8:82,1,30.2999990753174,2|2,0:0|0:0,0:0:0:0:
77,22,794,2,0,P|79:36|84:51,1,30.2999990753174,2|2,0:0|0:0,0:0:0:0:
142,149,1186,6,0,P|131:182|130:209,1,45.4499986129761,2|2,0:0|0:0,0:0:0:0:
64,126,1578,2,0,P|60:148|52:169,1,45.4499986129761,2|2,0:0|0:0,0:0:0:0:
210,68,1970,6,0,P|222:106|224:138,1,60.5999981506348,2|2,0:0|0:0,0:0:0:0:
290,48,2362,2,0,P|295:79|306:109,1,60.5999981506348,2|2,0:0|0:0,0:0:0:0:
284,182,2755,1,2,0:0:0:0:
284,182,2951,1,2,0:0:0:0:
406,44,3147,6,0,P|446:28|489:21,1,85.8500016374588,2|2,1:2|0:0,0:0:0:0:
430,117,3539,2,0,P|469:101|511:93,1,85.8500016374588,2|2,0:0|0:0,0:0:0:0:
505,224,3931,2,0,P|442:166|334:169,1,171.700003274918,2|2,0:0|0:0,0:0:0:0:
112,368,4715,6,0,B|136:312|108:270|76:264|73:263|71:262|33:253|5:210|40:142,1,257.550004912376,2|0,0:2|0:0,0:0:0:0:
125,26,5892,2,0,P|192:41|201:71,1,85.8500016374588,2|2,0:0|0:0,0:0:0:0:
270,77,6284,6,0,P|197:82|87:137,1,171.700003274918,2|2,0:0|0:0,0:0:0:0:
36,150,6872,1,2,0:0:0:0:
36,150,7068,2,0,P|109:155|219:210,1,171.700003274918,2|2,0:0|0:0,0:0:0:0:
227,296,7657,6,0,B|241:256|296:243|296:243|251:184|168:200|153:274,1,257.550004912376,2|0,0:0|0:0,0:0:0:0:
86,384,9029,1,2,0:0:0:0:
121,324,9225,1,2,0:0:0:0:
184,364,9421,6,0,P|224:372|272:378,1,85.8500016374588,2|0,0:0|0:0,0:0:0:0:
394,284,9813,2,0,P|391:241|345:214,1,85.8500016374588,2|2,0:0|0:0,0:0:0:0:
288,251,10206,2,0,P|291:294|337:321,1,85.8500016374588,2|2,0:0|0:0,0:0:0:0:
449,384,10598,2,0,P|462:334|479:289,1,85.8500016374588,2|0,0:0|0:0,0:0:0:0:
505,151,10990,6,0,B|461:144|433:162|429:183|429:185|428:186|422:211|392:226|348:213,1,171.700003274918,2|2,0:0|0:0,0:0:0:0:
287,181,11578,1,2,0:0:0:0:
287,181,11774,2,0,P|250:113|261:16,1,171.700003274918,2|2,0:0|0:0,0:0:0:0:
130,40,12362,6,0,P|168:115|158:199,1,171.700003274918,2|2,0:0|0:0,0:0:0:0:
156,275,12951,1,2,0:0:0:0:
85,245,13147,1,2,0:0:0:0:
85,245,13343,2,0,P|39:248|-15:256,1,85.8500016374588,2|2,0:0|0:0,0:0:0:0:
8,331,13735,2,0,P|50:325|93:322,1,85.8500016374588,2|2,0:0|0:0,0:0:0:0:
252,306,14127,6,0,P|210:300|167:297,1,85.8500016374588,2|2,0:0|0:0,0:0:0:0:
159,374,14519,2,0,P|201:377|244:382,1,85.8500016374588,2|2,0:0|0:0,0:0:0:0:
425,253,14911,2,0,P|410:213|415:162,1,85.8500016374588,4|0,0:0|0:0,0:0:0:0:
316,187,15304,2,0,P|331:227|326:278,1,85.8500016374588,0|0,0:0|1:0,0:0:0:0:
367,372,15696,6,0,B|419:373|447:340|441:308|441:306|441:303|435:277|457:241|520:246,1,212.099993527222,2|2,3:2|0:0,0:0:0:0:
509,246,16284,1,10,0:0:0:0:
392,121,16480,2,0,P|360:140|277:166,1,106.049996763611,2|0,0:0|0:0,0:0:0:0:
163,251,16872,2,0,P|203:233|290:298,1,159.074995145416,10|0,0:0|0:0,0:0:0:0:
317,374,17264,6,0,L|295:156,1,212.099993527222,2|0,3:2|0:0,0:0:0:0:
251,96,17853,1,10,0:0:0:0:
192,200,18049,1,2,0:0:0:0:
368,131,18245,1,2,0:0:0:0:
220,21,18441,2,0,P|159:36|95:43,1,106.049996763611,10|0,0:2|0:0,0:0:0:0:
25,137,18833,6,0,P|89:121|185:233,1,212.099993527222,2|2,3:2|0:0,0:0:0:0:
184,214,19421,1,10,0:0:0:0:
147,323,19617,2,0,P|106:294|120:235,1,106.049996763611,2|0,0:0|0:0,0:0:0:0:
240,149,20010,2,0,P|235:199|177:216,1,106.049996763611,10|0,0:0|0:0,0:0:0:0:
0,46,20402,6,0,B|44:20|85:38|92:65|93:67|94:69|103:93|140:112|191:81,1,212.099993527222,2|2,3:2|0:0,0:0:0:0:
249,35,20990,1,10,0:0:0:0:
249,35,21186,2,0,P|304:68|283:132,1,106.049996763611,2|0,0:0|0:0,0:0:0:0:
404,81,21578,2,0,P|397:144|330:152,1,106.049996763611,10|2,0:0|1:2,0:0:0:0:
296,202,21872,1,0,1:2:0:0:
296,202,21970,6,0,P|414:209|414:316,1,212.099993527222,2|2,3:2|0:0,0:0:0:0:
430,284,22559,1,10,0:0:0:0:
388,347,22755,2,0,P|336:326|275:313,1,106.049996763611,2|0,0:0|0:0,0:0:0:0:
220,350,23147,2,0,P|168:371|139:287,1,159.074995145416,10|0,0:0|0:0,0:0:0:0:
146,282,23539,6,0,P|197:269|246:249,1,106.049996763611,2|0,3:2|0:0,0:0:0:0:
385,132,23931,2,0,P|464:185|452:239,1,159.074995145416,2|0,0:0|0:0,0:0:0:0:
444,245,24323,2,0,P|395:224|338:210,1,106.049996763611,2|0,0:0|0:0,0:0:0:0:
416,319,24715,2,0,P|367:298|310:284,1,106.049996763611,10|0,0:0|0:0,0:0:0:0:
203,206,25108,6,0,P|172:158|165:95,1,106.049996763611,2|0,3:2|0:0,0:0:0:0:
111,249,25500,2,0,P|101:198|72:154,1,106.049996763611,2|0,3:2|0:0,0:0:0:0:
23,0,25892,6,0,P|21:52|0:100,1,106.049996763611,2|0,3:2|0:0,0:0:0:0:
311,66,26284,2,0,P|289:114|288:166,1,106.049996763611,2|0,3:2|0:0,0:0:0:0:
502,312,26676,5,8,0:3:0:0:
510,306,26774,2,0,L|501:252,1,27.7750008476258,8|0,0:3|0:0,0:0:0:0:
439,209,26970,5,8,0:3:0:0:
434,217,27068,2,0,L|425:270,1,42.9250008187294,4|0,0:3|0:0,0:0:0:0:
369,358,27264,5,8,0:3:0:0:
362,350,27362,2,0,L|352:291,1,58.0750011076927,8|2,0:3|0:0,0:0:0:0:
297,160,27559,5,8,0:3:0:0:
289,167,27657,2,0,L|277:239,1,73.2250022346497,6|0,0:3|0:0,0:0:0:0:
135,364,27853,5,10,0:3:0:0:
86,349,27951,1,8,0:3:0:0:
53,311,28049,1,10,0:3:0:0:
45,261,28147,1,8,0:3:0:0:
65,214,28245,6,0,B|122:202|122:202|145:149|145:149|203:139,1,174.225003323078,4|0,0:0|0:0,0:0:0:0:
212,131,28637,1,8,0:0:0:0:
395,69,28833,2,0,P|357:28|282:45,1,116.150002215385,0|0,1:0|0:0,0:0:0:0:
271,182,29225,1,0,0:0:0:0:
420,263,29421,1,10,0:0:0:0:
310,109,29617,1,2,0:0:0:0:
126,263,29813,6,0,P|183:272|237:292,1,116.150002215385,0|0,1:2|0:0,0:0:0:0:
357,204,30206,1,8,0:0:0:0:
265,22,30402,2,0,P|228:67|184:104,1,116.150002215385,0|0,1:0|0:0,0:0:0:0:
298,249,30794,1,0,0:0:0:0:
484,190,30990,2,0,P|463:135|453:78,1,116.150002215385,10|2,0:0|0:0,0:0:0:0:
235,304,31382,6,0,P|272:206|290:103,1,174.225003323078,2|0,1:2|0:0,0:0:0:0:
283,128,31774,2,0,P|218:137|192:186,1,116.150002215385,8|0,0:0|1:0,0:0:0:0:
314,309,32166,1,2,0:0:0:0:
365,129,32362,1,0,0:0:0:0:
508,250,32559,2,0,P|423:218|418:173,1,116.150002215385,10|2,0:0|0:0,0:0:0:0:
326,54,32951,5,0,1:2:0:0:
446,0,33147,1,2,0:0:0:0:
380,137,33343,1,8,0:0:0:0:
247,29,33539,1,0,1:0:0:0:
105,149,33735,2,0,P|181:117|188:90,1,116.150002215385,2|2,0:0|0:0,0:0:0:0:
136,13,34029,1,0,0:0:0:0:
136,13,34127,2,0,P|108:45|112:78,1,65.6499969947816,10|2,0:0|0:0,0:0:0:0:
30,332,34519,6,0,P|90:243|104:142,1,204.525000780201,2|0,1:2|0:0,0:0:0:0:
102,140,34911,1,8,0:0:0:0:
237,332,35108,2,0,P|202:230|214:129,1,174.225003323078,0|0,1:0|0:0,0:0:0:0:
209,156,35500,1,2,0:0:0:0:
272,24,35696,2,0,P|345:36|367:84,1,116.150002215385,10|2,0:0|0:0,0:0:0:0:
472,146,36088,6,0,P|426:129|344:207,1,174.225003323078,2|0,1:2|0:0,0:0:0:0:
350,212,36480,1,8,0:0:0:0:
512,363,36676,2,0,P|507:314|402:272,1,174.225003323078,0|0,1:0|0:0,0:0:0:0:
400,281,37068,1,2,0:0:0:0:
331,384,37264,5,10,0:0:0:0:
295,318,37460,1,2,0:0:0:0:
237,366,37657,1,2,1:2:0:0:
123,238,37853,5,2,0:0:0:0:
271,134,38049,1,8,0:0:0:0:
295,318,38245,1,0,1:0:0:0:
192,105,38441,1,2,0:0:0:0:
192,105,38637,1,2,0:0:0:0:
336,228,38833,1,10,0:0:0:0:
369,47,39029,1,2,0:0:0:0:
207,298,39225,6,0,P|248:245|228:188,1,116.150002215385,2|0,1:2|0:0,0:0:0:0:
35,145,39617,2,0,P|60:207|119:218,1,116.150002215385,8|0,0:0|1:0,0:0:0:0:
201,77,40010,1,2,0:0:0:0:
62,14,40206,2,0,L|0:26,1,42.9250008187294,10|0,0:0|0:0,0:0:0:0:
84,88,40402,2,0,L|164:106,1,42.9250008187294,10|0,0:0|0:0,0:0:0:0:
291,13,40598,1,8,0:0:0:0:
277,4,40696,1,8,0:0:0:0:
263,0,40794,6,0,P|210:25|213:98,1,116.150002215385,6|0,1:2|0:0,0:0:0:0:
362,154,41186,1,8,0:0:0:0:
266,326,41382,2,0,P|242:213|222:155,1,174.225003323078,0|0,1:0|0:0,0:0:0:0:
226,148,41774,1,2,0:0:0:0:
373,40,41970,1,10,0:0:0:0:
412,209,42166,1,2,0:0:0:0:
201,77,42362,6,0,P|280:93|299:158,1,116.150002215385,2|0,1:2|0:0,0:0:0:0:
402,224,42755,1,8,0:0:0:0:
512,61,42951,2,0,P|494:116|482:173,1,116.150002215385,0|0,1:0|0:0,0:0:0:0:
361,292,43343,1,2,0:0:0:0:
295,119,43539,2,0,P|351:106|407:89,1,116.150002215385,10|2,0:0|0:0,0:0:0:0:
198,32,43931,6,0,P|138:31|113:86,1,116.150002215385,2|0,1:2|0:0,0:0:0:0:
238,199,44323,2,0,P|213:145|152:145,1,116.150002215385,10|0,0:0|1:0,0:0:0:0:
19,306,44715,2,0,P|48:228|68:137,1,174.225003323078,2|0,0:0|0:0,0:0:0:0:
67,130,45108,1,10,0:0:0:0:
238,199,45304,1,2,0:0:0:0:
220,375,45500,6,0,P|175:339|193:276,1,116.150002215385,2|2,1:2|0:0,0:0:0:0:
378,183,45892,2,0,P|369:239|305:255,1,116.150002215385,8|0,0:0|1:0,0:0:0:0:
156,143,46284,1,2,0:0:0:0:
337,63,46480,1,2,0:0:0:0:
337,63,46578,1,2,0:0:0:0:
337,63,46676,1,10,0:0:0:0:
255,156,46872,1,2,0:0:0:0:
440,191,47068,6,0,P|449:133|465:77,1,116.150002215385,2|0,1:2|0:0,0:0:0:0:
353,175,47460,1,8,0:0:0:0:
204,7,47657,2,0,P|195:60|174:131,1,116.150002215385,0|0,1:0|0:0,0:0:0:0:
268,244,48049,1,2,0:0:0:0:
354,94,48245,1,10,0:0:0:0:
354,94,48441,1,2,0:0:0:0:
498,184,48637,6,0,P|476:241|458:316,1,116.150002215385,2|0,1:2|0:0,0:0:0:0:
325,345,49029,1,8,0:0:0:0:
240,110,49225,2,0,B|294:132|294:132|304:189|304:189|357:214,1,174.225003323078,0|0,1:0|0:0,0:0:0:0:
368,207,49617,1,2,0:0:0:0:
175,62,49813,5,10,0:0:0:0:
116,103,50010,1,2,0:0:0:0:
73,41,50206,1,2,1:2:0:0:
217,204,50402,5,2,0:0:0:0:
133,0,50598,1,8,0:0:0:0:
4,169,50794,1,0,1:0:0:0:
175,62,50990,1,2,0:0:0:0:
175,62,51186,1,2,0:0:0:0:
126,256,51382,1,10,0:0:0:0:
0,87,51578,1,2,0:0:0:0:
204,280,51774,6,0,P|224:226|222:169,1,116.150002215385,2|0,1:2|0:0,0:0:0:0:
412,199,52166,2,0,P|390:252|393:310,1,116.150002215385,8|0,0:0|1:0,0:0:0:0:
153,373,52559,6,0,L|142:320,1,42.9250008187294,10|2,0:2|0:0,0:0:0:0:
126,256,52755,1,2,0:0:0:0:
331,123,52951,6,0,L|320:176,1,42.9250008187294,10|2,0:2|0:0,0:0:0:0:
308,241,53147,1,2,0:0:0:0:
151,51,53343,6,0,P|200:60|219:104,1,85.8500016374588,0|0,1:2|0:0,0:0:0:0:
223,168,53735,2,0,P|141:146|44:133,2,171.700003274918,8|0|8,0:0|0:0|0:0,0:0:0:0:
351,301,54715,1,0,0:0:0:0:
351,301,54911,6,0,B|395:302|412:273|407:247|407:246|407:244|401:223|418:194|458:192,1,171.700003274918,0|8,1:2|0:0,0:0:0:0:
479,271,55500,2,0,B|439:291|410:273|403:249|403:248|402:245|398:224|370:206|334:223,1,171.700003274918,0|0,1:0|0:0,0:0:0:0:
320,233,55990,1,0,0:0:0:0:
308,241,56088,1,8,0:0:0:0:
201,334,56284,1,0,0:0:0:0:
185,328,56382,1,0,0:0:0:0:
170,321,56480,6,0,P|119:305|122:250,1,85.8500016374588,0|0,1:2|0:0,0:0:0:0:
39,153,56872,2,0,P|90:169|184:191,1,128.775002456188,8|0,0:0|0:0,0:0:0:0:
171,198,57264,2,0,P|201:188|258:175,1,85.8500016374588
349,70,57657,2,0,P|317:44|244:63,1,85.8500016374588,8|0,0:0|0:0,0:0:0:0:
328,210,58049,5,0,1:2:0:0:
