osu file format v14

[General]
AudioFilename: audio.mp3
AudioLeadIn: 0
PreviewTime: 27362
Countdown: 0
SampleSet: Soft
StackLeniency: 0.7
Mode: 0
LetterboxInBreaks: 0
WidescreenStoryboard: 1

[Editor]
Bookmarks: 1970,2755
DistanceSpacing: 2.1
BeatDivisor: 4
GridSize: 32
TimelineZoom: 1.7

[Metadata]
Title:Alas (TV Size)
TitleUnicode:Alas (TV Size)
Artist:Karol Sevilla
ArtistUnicode:Karol Sevilla
Creator:tomaiosai
Version:Intermedio De Hazu
Source:Soy Luna
Tags:español spanish azphyx tantan_ gabizon hazu- syodou -magic- pop disney botariel channel música en ti elenco de eduardo emilio frigerio federico san millán florencia ciarlo
BeatmapID:3964372
BeatmapSetID:1915826

[Difficulty]
HPDrainRate:3
CircleSize:3
OverallDifficulty:4.8
ApproachRate:5
SliderMultiplier:1.25
SliderTickRate:1

[Events]
//Background and Video events
0,0,"dsads.jpg",0,0
//Break Periods
//Storyboard Layer 0 (Background)
//Storyboard Layer 1 (Fail)
//Storyboard Layer 2 (Pass)
//Storyboard Layer 3 (Foreground)
//Storyboard Layer 4 (Overlay)
//Storyboard Sound Samples

[TimingPoints]
10,392.156862745098,4,2,1,100,1,0
206,-111.111111111111,4,2,1,5,0,0
402,-111.111111111111,4,2,1,8,0,0
598,-111.111111111111,4,2,1,12,0,0
794,-111.111111111111,4,2,1,16,0,0
990,-111.111111111111,4,2,1,20,0,0
1186,-111.111111111111,4,2,1,24,0,0
1382,-111.111111111111,4,2,1,28,0,0
1578,-111.111111111111,4,2,1,32,0,0
1774,-111.111111111111,4,2,1,38,0,0
1970,-111.111111111111,4,2,1,42,0,0
2166,-111.111111111111,4,2,1,46,0,0
2362,-111.111111111111,4,2,1,50,0,0
2558,-111.111111111111,4,2,1,53,0,0
2755,-111.111111111111,4,2,1,56,0,0
2951,-111.111111111111,4,2,1,58,0,0
3147,-111.111111111111,4,2,1,60,0,0
5107,-111.111111111111,4,2,100,60,0,0
5112,-111.111111111111,4,2,1,60,0,0
5499,-111.111111111111,4,2,100,60,0,0
5504,-111.111111111111,4,2,1,60,0,0
8833,-111.111111111111,4,2,100,60,0,0
8838,-111.111111111111,4,2,1,60,0,0
13343,-111.111111111111,4,2,100,60,0,0
13348,-111.111111111111,4,2,1,60,0,0
13735,-111.111111111111,4,2,100,60,0,0
13740,-111.111111111111,4,2,1,60,0,0
14520,-111.111111111111,4,2,100,60,0,0
14525,-111.111111111111,4,2,1,60,0,0
14911,-111.111111111111,4,2,101,60,0,0
14917,-111.111111111111,4,2,2,60,0,0
15107,-111.111111111111,4,2,1,60,0,0
15696,-100,4,2,1,70,0,0
16676,-100,4,2,1,50,0,0
16872,-100,4,2,1,70,0,0
17166,-100,4,2,1,50,0,0
17264,-100,4,2,1,70,0,0
17656,-100,4,2,1,50,0,0
17853,-100,4,2,1,70,0,0
18637,-100,4,2,1,50,0,0
18833,-100,4,2,1,70,0,0
19813,-100,4,2,1,50,0,0
20010,-100,4,2,1,70,0,0
20206,-100,4,2,1,50,0,0
20402,-100,4,2,1,70,0,0
21382,-100,4,2,1,50,0,0
21578,-100,4,2,1,70,0,0
22951,-100,4,2,1,50,0,0
23147,-100,4,2,1,70,0,0
23441,-100,4,2,1,50,0,0
23539,-100,4,2,1,70,0,0
23735,-100,4,2,1,50,0,0
23931,-100,4,2,1,70,0,0
24225,-100,4,2,1,50,0,0
24323,-100,4,2,1,70,0,0
24519,-100,4,2,1,50,0,0
24715,-100,4,2,1,70,0,0
24911,-100,4,2,1,50,0,0
25108,-100,4,2,1,70,0,0
25304,-100,4,2,1,50,0,0
25500,-100,4,2,1,70,0,0
25696,-100,4,2,1,50,0,0
25892,-100,4,2,1,70,0,0
26088,-100,4,2,1,50,0,0
26284,-100,4,2,1,70,0,0
26480,-100,4,2,1,50,0,0
26676,-100,4,2,1,70,0,0
26774,-100,4,2,1,70,0,0
26872,-100,4,2,1,50,0,0
26970,-100,4,2,1,70,0,0
27068,-100,4,2,1,70,0,0
27166,-100,4,2,1,55,0,0
27264,-100,4,2,1,70,0,0
27559,-100,4,2,1,70,0,0
27755,-100,4,2,1,55,0,0
27853,-100,4,2,1,70,0,0
28245,-90.9090909090909,4,2,3,80,0,1
28539,-90.9090909090909,4,2,3,55,0,1
28637,-90.9090909090909,4,2,1,80,0,1
29029,-90.9090909090909,4,2,1,55,0,1
29225,-90.9090909090909,4,2,1,80,0,1
30009,-90.9090909090909,4,2,1,55,0,1
30206,-90.9090909090909,4,2,1,80,0,1
30598,-90.9090909090909,4,2,1,55,0,1
30794,-90.9090909090909,4,2,1,80,0,1
31676,-90.9090909090909,4,2,1,55,0,1
31774,-90.9090909090909,4,2,1,80,0,1
34029,-90.9090909090909,4,2,1,55,0,1
34127,-90.9090909090909,4,2,1,80,0,1
34519,-90.9090909090909,4,2,1,80,0,1
34813,-90.9090909090909,4,2,1,55,0,1
34911,-90.9090909090909,4,2,1,80,0,1
35108,-90.9090909090909,4,2,1,80,0,1
35402,-90.9090909090909,4,2,1,55,0,1
35500,-90.9090909090909,4,2,1,80,0,1
36284,-90.9090909090909,4,2,1,55,0,1
36480,-90.9090909090909,4,2,1,80,0,1
36872,-90.9090909090909,4,2,1,55,0,1
37068,-90.9090909090909,4,2,1,80,0,1
38735,-90.9090909090909,4,2,1,55,0,1
38833,-90.9090909090909,4,2,1,80,0,1
39421,-90.9090909090909,4,2,1,55,0,1
39617,-90.9090909090909,4,2,1,80,0,1
40206,-90.9090909090909,4,2,1,80,0,0
40304,-90.9090909090909,4,2,1,55,0,0
40402,-90.9090909090909,4,2,1,80,0,0
40500,-90.9090909090909,4,2,1,55,0,0
40598,-90.9090909090909,4,2,1,80,0,0
40794,-90.9090909090909,4,2,1,80,0,1
40990,-90.9090909090909,4,2,1,55,0,1
41186,-90.9090909090909,4,2,1,80,0,1
41578,-90.9090909090909,4,2,1,55,0,1
41774,-90.9090909090909,4,2,1,80,0,1
42558,-90.9090909090909,4,2,1,55,0,1
42755,-90.9090909090909,4,2,1,80,0,1
43147,-90.9090909090909,4,2,1,55,0,1
43343,-90.9090909090909,4,2,1,80,0,1
44127,-90.9090909090909,4,2,1,55,0,1
44323,-90.9090909090909,4,2,1,80,0,1
45009,-90.9090909090909,4,2,1,55,0,1
45108,-90.9090909090909,4,2,1,80,0,1
47264,-90.9090909090909,4,2,1,55,0,1
47460,-90.9090909090909,4,2,1,80,0,1
47853,-90.9090909090909,4,2,1,55,0,1
48049,-90.9090909090909,4,2,1,80,0,1
48833,-90.9090909090909,4,2,1,55,0,1
49029,-90.9090909090909,4,2,1,80,0,1
49519,-90.9090909090909,4,2,1,55,0,1
49617,-90.9090909090909,4,2,1,80,0,1
50892,-90.9090909090909,4,2,1,55,0,1
50990,-90.9090909090909,4,2,1,80,0,1
51970,-90.9090909090909,4,2,1,55,0,1
52166,-90.9090909090909,4,2,1,80,0,1
52559,-90.9090909090909,4,2,1,80,0,0
52657,-90.9090909090909,4,2,1,5,0,0
52755,-90.9090909090909,4,2,1,80,0,0
53049,-90.9090909090909,4,2,1,5,0,0
53147,-90.9090909090909,4,2,1,80,0,0
53343,-100,4,2,1,80,0,0
53441,-100,4,2,1,55,0,0

[Colours]
Combo1 : 255,255,128
Combo2 : 128,255,255
Combo3 : 255,128,192
Combo4 : 134,193,238

[HitObjects]
57,82,3147,6,0,B|109:55|109:55|172:81,1,112.499996566773,2|2,1:2|0:0,0:0:0:0:
190,107,3735,1,2,0:0:0:0:
190,107,3931,2,0,P|179:168|165:245,1,112.499996566773,2|2,0:0|0:0,0:0:0:0:
260,284,4715,2,0,P|340:274|386:349,2,168.749994850159,2|0|2,0:2|0:0|0:0,0:0:0:0:
235,314,6088,1,2,0:0:0:0:
214,347,6284,5,2,0:0:0:0:
122,282,6676,2,0,B|116:251|116:251|135:217,1,56.2499982833863,2|2,0:0|0:0,0:0:0:0:
159,205,7068,1,2,0:0:0:0:
272,182,7460,1,2,0:0:0:0:
272,182,7657,2,0,B|285:117|285:117|271:75|271:75|286:2,2,168.749994850159,2|0|0,0:2|0:0|0:0,0:0:0:0:
299,210,9029,2,0,B|325:224|325:224|354:214,1,56.2499982833863,2|2,0:0|0:0,0:0:0:0:
387,201,9421,5,2,0:0:0:0:
466,121,9813,2,0,P|460:89|456:60,1,56.2499982833863,2|2,0:0|0:0,0:0:0:0:
450,26,10206,1,2,0:0:0:0:
337,29,10598,2,0,P|343:61|347:90,1,56.2499982833863,2|0,0:0|0:0,0:0:0:0:
353,124,10991,1,2,0:0:0:0:
324,232,11382,2,0,P|291:227|237:219,1,56.2499982833863,2|2,0:0|0:0,0:0:0:0:
239,197,11774,2,0,P|248:265|257:334,1,112.499996566773,2|2,0:0|0:0,0:0:0:0:
225,336,12362,1,2,0:0:0:0:
198,365,12559,5,2,0:0:0:0:
89,335,12951,2,0,P|20:235|159:267,2,337.499989700318,2|2|0,0:0|0:0|0:0,0:0:0:0:
205,381,15696,6,0,P|261:334|319:343,1,125,2|2,3:2|0:0,0:0:0:0:
338,306,16284,1,10,0:0:0:0:
338,306,16480,2,0,P|410:312|445:359,1,125,2|10,0:0|0:0,0:3:0:0:
504,241,17264,2,0,P|494:177|484:107,1,125,2|0,3:2|0:0,0:0:0:0:
480,78,17853,1,10,0:0:0:0:
480,78,18049,1,2,0:0:0:0:
362,121,18441,2,0,P|372:185|378:221,1,62.5,10|0,0:2|0:0,0:0:0:0:
400,215,18833,6,0,P|328:205|255:196,1,125,2|2,3:2|0:0,0:0:0:0:
245,229,19421,1,10,0:0:0:0:
245,229,19617,1,2,0:0:0:0:
151,311,20010,1,10,0:0:0:0:
39,253,20402,2,0,P|12:185|44:130,1,125,2|2,3:2|0:0,0:0:0:0:
69,117,20990,1,10,0:0:0:0:
69,117,21186,2,0,B|124:110|124:110|137:115|137:115|215:106,1,125,2|10,0:0|0:0,0:0:0:0:
227,82,21774,1,2,1:2:0:0:
259,53,21970,5,2,3:2:0:0:
369,111,22362,2,0,P|363:153|357:190,1,62.5,2|10,0:0|0:0,0:0:0:0:
384,209,22755,1,2,0:0:0:0:
292,294,23147,1,10,0:0:0:0:
216,194,23539,2,0,P|152:184|52:168,1,125,2|2,3:2|0:0,0:0:0:0:
53,172,24127,1,10,0:0:0:0:
53,172,24323,2,0,P|9:240|25:295,1,125,2|10,0:0|0:0,0:0:0:0:
108,363,25108,5,2,3:2:0:0:
200,279,25500,1,2,3:2:0:0:
286,369,25892,1,2,3:2:0:0:
378,285,26284,1,2,3:2:0:0:
478,359,26676,2,0,P|489:296|503:224,1,125,8|4,0:3|0:3,0:0:0:0:
463,212,27264,2,0,P|452:149|438:77,1,125,8|6,0:3|0:3,0:0:0:0:
466,53,27853,1,10,0:3:0:0:
334,14,28245,6,0,P|284:49|309:130,1,137.500004196167,4|8,0:0|0:0,0:0:0:0:
338,135,28833,2,0,P|324:215|309:297,1,137.500004196167,0|0,1:0|0:0,0:0:0:0:
357,289,29421,2,0,B|374:320|374:320|357:356,1,68.7500020980836,10|2,0:0|0:0,0:0:0:0:
318,375,29813,1,0,1:2:0:0:
213,294,30206,1,8,0:0:0:0:
213,294,30402,2,0,P|132:280|59:268,1,137.500004196167,0|0,1:0|0:0,0:0:0:0:
54,313,30990,2,0,P|25:312|-3:282,1,68.7500020980836,10|2,0:0|0:0,0:0:0:0:
4,237,31382,5,2,1:2:0:0:
74,119,31774,2,0,B|106:99|106:99|147:120,1,68.7500020980836,8|0,0:0|1:0,0:0:0:0:
163,150,32166,2,0,B|246:134|217:214|328:168,1,137.500004196167,2|10,0:0|0:0,0:0:0:0:
317,138,32755,2,0,P|344:135|381:167,1,68.7500020980836,2|0,0:0|1:2,0:0:0:0:
406,195,33147,2,0,P|433:198|470:166,1,68.7500020980836,2|8,0:0|0:0,0:0:0:0:
488,134,33539,1,0,1:0:0:0:
488,134,33735,1,2,0:0:0:0:
392,34,34127,2,0,B|358:22|358:22|319:61,1,68.7500020980836,10|2,0:0|0:0,0:0:0:0:
311,86,34519,6,0,P|323:155|339:253,1,137.500004196167,2|8,1:2|0:0,0:0:0:0:
298,254,35108,2,0,B|215:238|244:318|133:272,1,137.500004196167,0|2,1:0|0:0,0:0:0:0:
146,241,35696,2,0,P|114:233|78:258,1,68.7500020980836,10|2,0:0|0:0,0:0:0:0:
60,291,36088,1,2,1:2:0:0:
169,374,36480,1,8,0:0:0:0:
169,374,36676,2,0,P|235:363|329:347,1,137.500004196167,0|2,1:0|0:0,0:0:0:0:
352,375,37264,1,10,0:0:0:0:
352,375,37460,1,2,0:0:0:0:
430,262,37853,6,0,P|469:266|492:291,2,68.7500020980836,2|8|0,0:0|0:0|1:0,0:0:0:0:
396,227,38441,2,0,P|332:245|240:262,1,137.500004196167,2|10,0:0|0:0,0:0:0:0:
232,297,39029,1,2,0:0:0:0:
232,297,39225,2,0,P|192:253|98:283,1,137.500004196167,2|8,1:2|0:0,0:0:0:0:
86,295,39813,1,0,1:0:0:0:
58,159,40206,2,0,P|19:163|-4:188,2,68.7500020980836,10|10|8,0:0|0:0|0:0,0:0:0:0:
92,124,40794,6,0,P|156:118|211:177,1,137.500004196167,6|8,1:2|0:0,0:0:0:0:
254,169,41382,2,0,P|243:229|221:335,1,137.500004196167,0|2,1:0|0:0,0:0:0:0:
263,336,41970,2,0,P|294:329|337:321,1,68.7500020980836,10|2,0:0|0:0,0:0:0:0:
366,354,42362,1,2,1:2:0:0:
458,252,42755,1,8,0:0:0:0:
458,252,42951,2,0,P|469:192|491:86,1,137.500004196167,0|2,1:0|0:0,0:0:0:0:
436,109,43539,2,0,P|443:79|456:21,1,68.7500020980836,10|2,0:0|0:0,0:0:0:0:
411,15,43931,5,2,1:2:0:0:
298,93,44323,2,0,P|278:127|282:160,1,68.7500020980836,10|0,0:0|1:0,0:0:0:0:
309,193,44715,2,0,P|241:175|148:160,1,137.500004196167,2|10,0:0|0:0,0:0:0:0:
153,119,45304,2,0,B|127:95|127:95|94:105,1,68.7500020980836,2|2,0:0|1:2,0:0:0:0:
59,138,45696,2,0,P|66:186|71:218,1,68.7500020980836,2|8,0:0|0:0,0:0:0:0:
39,244,46088,1,0,1:0:0:0:
39,244,46284,1,2,0:0:0:0:
137,339,46676,2,0,P|177:339|205:306,1,68.7500020980836,10|2,0:0|0:0,0:0:0:0:
222,280,47068,6,0,P|212:202|202:121,1,137.500004196167,2|8,1:2|0:0,0:0:0:0:
156,141,47657,2,0,P|135:89|206:29,1,137.500004196167,0|2,1:0|0:0,0:0:0:0:
230,32,48245,2,0,P|266:39|316:49,1,68.7500020980836,10|2,0:0|0:0,0:0:0:0:
340,23,48637,1,2,1:2:0:0:
456,106,49029,1,8,0:0:0:0:
456,106,49225,2,0,P|446:184|436:265,1,137.500004196167,0|2,1:0|0:0,0:0:0:0:
400,268,49813,1,10,0:0:0:0:
400,268,50010,1,2,0:0:0:0:
272,215,50402,6,0,P|277:175|282:131,2,68.7500020980836,2|8|0,0:0|0:0|1:0,0:0:0:0:
239,250,50990,2,0,P|191:200|119:205,1,137.500004196167,2|10,0:0|0:0,0:0:0:0:
91,177,51578,1,2,0:0:0:0:
91,177,51774,2,0,P|41:225|45:297,1,137.500004196167,2|8,1:2|0:0,0:0:0:0:
73,332,52362,1,0,1:0:0:0:
73,332,52559,1,10,0:2:0:0:
203,376,52951,1,10,0:2:0:0:
284,265,53343,5,0,1:2:0:0:
284,265,53539,2,0,P|277:219|272:185,1,62.5,0|8,0:0|0:0,0:0:0:0:
152,174,54127,2,0,P|145:128|133:40,1,125,0|8,0:0|0:0,0:0:0:0:
167,21,54715,1,0,0:0:0:0:
167,21,54911,1,0,1:2:0:0:
291,36,55304,2,0,P|298:82|310:170,2,125,8|0|8,0:0|0:0|0:0,0:0:0:0:
167,21,56480,5,0,1:2:0:0:
167,21,56676,2,0,P|174:67|179:101,1,62.5,0|8,0:0|0:0,0:0:0:0:
90,173,57264,2,0,P|97:219|109:307,1,125,0|8,0:0|0:0,0:0:0:0:
92,340,57853,1,0,0:0:0:0:
92,340,58049,5,0,1:2:0:0:
