osu file format v14

[General]
AudioFilename: audio.mp3
AudioLeadIn: 0
PreviewTime: 27362
Countdown: 0
SampleSet: Soft
StackLeniency: 0.7
Mode: 0
LetterboxInBreaks: 0
WidescreenStoryboard: 1

[Editor]
DistanceSpacing: 2.1
BeatDivisor: 4
GridSize: 16
TimelineZoom: 1.7

[Metadata]
Title:Alas (TV Size)
TitleUnicode:Alas (TV Size)
Artist:Karol Sevilla
ArtistUnicode:Karol Sevilla
Creator:tomaiosai
Version:Facil de Syodou
Source:Soy Luna
Tags:español spanish azphyx tantan_ gabizon hazu- syodou -magic- pop disney botariel channel música en ti elenco de eduardo emilio frigerio federico san millán florencia ciarlo
BeatmapID:3959412
BeatmapSetID:1915826

[Difficulty]
HPDrainRate:2
CircleSize:2.2
OverallDifficulty:2
ApproachRate:3
SliderMultiplier:1.12
SliderTickRate:1

[Events]
//Background and Video events
0,0,"dsads.jpg",0,0
//Break Periods
//Storyboard Layer 0 (Background)
//Storyboard Layer 1 (Fail)
//Storyboard Layer 2 (Pass)
//Storyboard Layer 3 (Foreground)
//Storyboard Layer 4 (Overlay)
//Storyboard Sound Samples

[TimingPoints]
10,392.156862745098,4,2,1,100,1,0
10,-108.695652173913,4,2,1,100,0,0
14911,-108.695652173913,4,2,2,60,0,0
15696,-98.0392156862745,4,2,1,70,0,0
27460,-98.0392156862745,4,2,1,70,0,0
27853,-98.0392156862745,4,2,1,70,0,0
28245,-98.0392156862745,4,2,3,80,0,1
28637,-98.0392156862745,4,2,1,80,0,1
29029,-98.0392156862745,4,2,1,100,0,1
29421,-98.0392156862745,4,2,1,80,0,1
30598,-98.0392156862745,4,2,1,100,0,1
30990,-98.0392156862745,4,2,1,80,0,1
35304,-98.0392156862745,4,2,1,100,0,1
35696,-98.0392156862745,4,2,1,80,0,1
36872,-98.0392156862745,4,2,1,100,0,1
37264,-98.0392156862745,4,2,1,80,0,1
40206,-98.0392156862745,4,2,1,80,0,0
40794,-98.0392156862745,4,2,1,80,0,1
41578,-98.0392156862745,4,2,1,100,0,1
41970,-98.0392156862745,4,2,1,80,0,1
43147,-98.0392156862745,4,2,1,100,0,1
43539,-98.0392156862745,4,2,1,80,0,1
47853,-98.0392156862745,4,2,1,100,0,1
48245,-98.0392156862745,4,2,1,80,0,1
49421,-98.0392156862745,4,2,1,100,0,1
52559,-98.0392156862745,4,2,1,80,0,0

[Colours]
Combo1 : 255,255,128
Combo2 : 128,255,255
Combo3 : 255,128,192
Combo4 : 134,193,238

[HitObjects]
508,334,3147,6,0,B|422:383|363:291|412:257|337:175|246:237,1,309.119989623047,2|2,1:2|0:0,0:0:0:0:
164,288,4715,2,0,P|124:341|39:338,2,154.559994811524,2|0|2,0:2|0:0|0:0,0:0:0:0:
161,174,6284,6,0,P|179:80|368:82,1,309.119989623047,2|2,0:0|0:0,0:0:0:0:
437,156,7853,2,0,P|462:82|493:11,2,154.559994811524,2|2|2,0:2|0:0|0:0,0:0:0:0:
356,236,9421,6,0,P|321:188|272:185,1,103.039996541016,2|2,0:0|0:0,0:0:0:0:
200,102,10206,2,0,P|143:99|107:146,1,103.039996541016,2|2,0:0|0:0,0:0:0:0:
25,201,10990,2,0,P|59:262|96:360,2,154.559994811524,2|2|2,0:0|0:0|0:0,0:0:0:0:
118,136,12559,2,0,B|64:97|117:-20|243:15|276:140|220:166|217:177|174:146|139:205|169:319|227:356|303:390|405:263|301:201,1,618.239979246095,2|4,0:0|0:0,0:0:0:0:
112,364,15696,6,0,P|46:370|11:313,1,114.240000697266,2|2,3:2|0:0,0:0:0:0:
3,213,16480,2,0,P|57:205|101:258,1,114.240000697266,2|10,0:0|0:0,0:0:0:0:
203,310,17264,2,0,P|226:188|248:94,1,171.360001045898,2|10,3:2|0:0,0:0:0:0:
277,94,18049,2,0,P|344:91|377:136,1,114.240000697266,2|10,0:0|0:2,0:0:0:0:
459,214,18833,5,2,3:2:0:0:
370,302,19225,2,0,P|302:304|269:259,1,114.240000697266,2|2,0:0|0:0,0:0:0:0:
184,183,20010,1,10,0:0:0:0:
125,294,20402,2,0,B|105:194|50:256|32:156,2,171.360001045898,2|10|10,3:2|0:0|0:0,0:0:0:0:
237,349,21970,6,0,P|300:359|337:311,1,114.240000697266,2|2,3:2|0:0,0:0:0:0:
436,254,22755,2,0,P|425:186|405:136,1,114.240000697266,2|10,0:0|0:0,0:0:0:0:
295,89,23539,2,0,P|344:15|437:33,2,171.360001045898,2|10|10,3:2|0:0|0:0,0:0:0:0:
231,198,25108,5,2,3:2:0:0:
324,281,25500,1,2,3:2:0:0:
433,219,25892,2,0,P|424:147|409:94,1,114.240000697266,2|2,3:2|3:2,0:0:0:0:
310,34,26676,2,0,P|199:32|193:157,1,228.480001394531,8|2,0:3|0:0,0:0:0:0:
85,218,27853,1,10,0:3:0:0:
173,306,28245,6,0,P|259:291|272:250,1,114.240000697266,4|8,0:0|0:0,0:0:0:0:
382,224,29029,2,0,P|372:147|352:92,1,114.240000697266,0|10,0:0|0:0,0:0:0:0:
345,51,29617,2,0,P|269:36|229:113,1,171.360001045898,2|8,0:0|0:0,0:0:0:0:
163,208,30598,1,0,0:0:0:0:
75,118,30990,1,10,0:0:0:0:
2,220,31382,6,0,P|24:280|39:335,1,114.240000697266,2|8,1:2|0:0,0:0:0:0:
158,359,32166,2,0,P|221:361|254:317,1,114.240000697266,2|10,0:0|0:0,0:0:0:0:
290,273,32755,2,0,P|261:154|229:71,1,171.360001045898,2|8,0:0|0:0,0:0:0:0:
341,27,33735,2,0,P|414:26|441:82,1,114.240000697266,2|10,0:0|0:0,0:0:0:0:
497,163,34519,6,0,P|467:249|454:297,1,114.240000697266,2|8,1:2|0:0,0:0:0:0:
371,360,35304,2,0,P|308:366|275:316,1,114.240000697266,0|10,0:0|0:0,0:0:0:0:
233,286,35892,2,0,P|255:176|289:98,1,171.360001045898,2|8,0:0|0:0,0:0:0:0:
188,32,36872,2,0,P|116:30|85:76,1,114.240000697266,0|10,0:0|0:0,0:0:0:0:
10,154,37657,6,0,P|41:225|56:279,1,114.240000697266,2|8,1:2|0:0,0:0:0:0:
140,348,38441,1,2,0:0:0:0:
228,259,38833,1,10,0:0:0:0:
316,347,39225,2,0,P|383:352|411:312,1,114.240000697266,2|8,1:2|0:0,0:0:0:0:
498,230,40010,1,2,0:0:0:0:
409,141,40402,1,10,0:0:0:0:
320,229,40794,6,0,P|298:144|279:97,1,114.240000697266,6|8,1:2|0:0,0:0:0:0:
203,27,41578,2,0,P|130:18|100:63,1,114.240000697266,0|10,0:0|0:0,0:0:0:0:
72,96,42166,2,0,P|104:193|126:271,1,171.360001045898,2|8,0:0|0:0,0:0:0:0:
212,348,43147,1,0,0:0:0:0:
300,259,43539,1,10,0:0:0:0:
388,347,43931,6,0,P|405:277|432:226,1,114.240000697266,2|10,1:2|0:0,0:0:0:0:
364,128,44715,2,0,P|299:123|265:176,1,114.240000697266,2|10,0:0|0:0,0:0:0:0:
241,212,45304,2,0,P|192:269|101:244,1,171.360001045898,2|8,0:0|0:0,0:0:0:0:
17,161,46284,2,0,P|32:91|57:44,1,114.240000697266,2|10,0:0|0:0,0:0:0:0:
166,4,47068,6,0,P|223:7|255:60,1,114.240000697266,2|8,1:2|0:0,0:0:0:0:
342,139,47853,2,0,P|384:97|445:105,1,114.240000697266,0|10,0:0|0:0,0:0:0:0:
489,132,48441,2,0,P|451:230|426:319,1,171.360001045898,2|8,0:0|0:0,0:0:0:0:
323,357,49421,2,0,P|271:310|216:318,1,114.240000697266,0|10,0:0|0:0,0:0:0:0:
114,360,50206,6,0,P|93:278|75:248,1,114.240000697266,2|8,1:2|0:0,0:0:0:0:
167,164,50990,1,2,0:0:0:0:
255,252,51382,1,10,0:0:0:0:
342,162,51774,2,0,P|327:72|305:37,1,114.240000697266,2|8,1:2|0:0,0:0:0:0:
198,13,52559,1,10,0:2:0:0:
197,189,53343,6,0,B|293:178|235:118|347:109,2,171.360001045898,0|0|8,1:2|1:0|0:0,0:0:0:0:
108,277,54911,2,0,P|69:184|25:120,2,171.360001045898,0|0|8,1:2|1:0|0:0,0:0:0:0:
226,318,56480,2,0,P|320:315|350:227,2,171.360001045898,0|0|8,1:2|1:0|0:0,0:0:0:0:
200,194,58049,5,0,1:2:0:0:
