osu file format v14

[General]
AudioFilename: audio.mp3
AudioLeadIn: 0
PreviewTime: 27362
Countdown: 0
SampleSet: Soft
StackLeniency: 0.7
Mode: 0
LetterboxInBreaks: 0
WidescreenStoryboard: 1

[Editor]
Bookmarks: 15696
DistanceSpacing: 2.1
BeatDivisor: 4
GridSize: 16
TimelineZoom: 1.7

[Metadata]
Title:Alas (TV Size)
TitleUnicode:Alas (TV Size)
Artist:Karol Sevilla
ArtistUnicode:Karol Sevilla
Creator:tomaiosai
Version:Avanzado de Gabizon
Source:Soy Luna
Tags:español spanish azphyx tantan_ gabizon hazu- syodou -magic- pop disney botariel channel música en ti elenco de eduardo emilio frigerio federico san millán florencia ciarlo
BeatmapID:3953144
BeatmapSetID:1915826

[Difficulty]
HPDrainRate:4
CircleSize:3.8
OverallDifficulty:6
ApproachRate:7.5
SliderMultiplier:1.4
SliderTickRate:1

[Events]
//Background and Video events
0,0,"dsads.jpg",0,0
//Break Periods
//Storyboard Layer 0 (Background)
//Storyboard Layer 1 (Fail)
//Storyboard Layer 2 (Pass)
//Storyboard Layer 3 (Foreground)
//Storyboard Layer 4 (Overlay)
//Storyboard Sound Samples

[TimingPoints]
10,392.156862745098,4,2,1,5,1,0
402,-100,4,2,1,8,0,0
598,-100,4,2,1,12,0,0
794,-100,4,2,1,16,0,0
990,-100,4,2,1,20,0,0
1186,-100,4,2,1,24,0,0
1382,-100,4,2,1,28,0,0
1578,-100,4,2,1,32,0,0
1774,-100,4,2,1,38,0,0
1970,-100,4,2,1,42,0,0
2166,-100,4,2,1,46,0,0
2362,-100,4,2,1,50,0,0
2559,-100,4,2,1,53,0,0
2755,-100,4,2,1,56,0,0
2951,-100,4,2,1,58,0,0
3147,-111.111111111111,4,2,1,60,0,0
5107,-111.111111111111,4,2,1,60,0,0
5112,-111.111111111111,4,2,1,60,0,0
7460,-111.111111111111,4,2,1,60,0,0
8049,-111.111111111111,4,2,1,60,0,0
8054,-111.111111111111,4,2,1,60,0,0
8244,-111.111111111111,4,2,1,60,0,0
12754,-111.111111111111,4,2,1,60,0,0
12759,-111.111111111111,4,2,1,60,0,0
14911,-111.111111111111,4,2,2,60,0,0
15107,-111.111111111111,4,2,1,60,0,0
15696,-105.263157894737,4,2,1,70,0,0
16088,-105.263157894737,4,2,1,70,0,0
16093,-105.263157894737,4,2,1,70,0,0
16676,-105.263157894737,4,2,1,70,0,0
16872,-105.263157894737,4,2,1,70,0,0
18637,-105.263157894737,4,2,1,70,0,0
18833,-105.263157894737,4,2,1,70,0,0
19225,-105.263157894737,4,2,1,70,0,0
19230,-105.263157894737,4,2,1,70,0,0
19813,-105.263157894737,4,2,1,70,0,0
20010,-105.263157894737,4,2,1,70,0,0
20794,-105.263157894737,4,2,1,70,0,0
20799,-105.263157894737,4,2,1,70,0,0
21382,-105.263157894737,4,2,1,70,0,0
21578,-105.263157894737,4,2,1,70,0,0
22362,-105.263157894737,4,2,1,70,0,0
22367,-105.263157894737,4,2,1,70,0,0
22951,-105.263157894737,4,2,1,70,0,0
23147,-105.263157894737,4,2,1,70,0,0
23343,-105.263157894737,4,2,1,70,0,0
23539,-105.263157894737,4,2,1,70,0,0
23735,-105.263157894737,4,2,1,70,0,0
23931,-105.263157894737,4,2,1,70,0,0
24519,-105.263157894737,4,2,1,70,0,0
24715,-105.263157894737,4,2,1,70,0,0
25009,-105.263157894737,4,2,1,70,0,0
25108,-100,4,2,1,70,0,0
25304,-105.263157894737,4,2,1,70,0,0
25500,-100,4,2,1,70,0,0
25696,-105.263157894737,4,2,1,70,0,0
25892,-100,4,2,1,70,0,0
26088,-105.263157894737,4,2,1,70,0,0
26284,-100,4,2,1,70,0,0
28245,-86.9565217391304,4,2,3,80,0,1
28343,-86.9565217391304,4,2,1,80,0,1
28637,-86.9565217391304,4,2,1,80,0,1
30009,-86.9565217391304,4,2,1,80,0,1
30206,-86.9565217391304,4,2,1,80,0,1
30598,-86.9565217391304,4,2,1,80,0,1
30794,-86.9565217391304,4,2,1,80,0,1
30892,-86.9565217391304,4,2,1,80,0,1
30990,-86.9565217391304,4,2,1,80,0,1
31676,-86.9565217391304,4,2,1,5,0,1
31774,-86.9565217391304,4,2,1,80,0,1
34029,-86.9565217391304,4,2,1,80,0,1
34127,-86.9565217391304,4,2,1,80,0,1
36284,-86.9565217391304,4,2,1,80,0,1
36480,-86.9565217391304,4,2,1,80,0,1
36872,-86.9565217391304,4,2,1,80,0,1
37068,-86.9565217391304,4,2,1,80,0,1
39421,-86.9565217391304,4,2,1,80,0,1
39617,-86.9565217391304,4,2,1,80,0,1
40206,-86.9565217391304,4,2,1,80,0,0
40794,-86.9565217391304,4,2,1,80,0,1
41578,-86.9565217391304,4,2,1,80,0,1
41774,-86.9565217391304,4,2,1,80,0,1
42558,-86.9565217391304,4,2,1,80,0,1
42755,-86.9565217391304,4,2,1,80,0,1
43147,-86.9565217391304,4,2,1,80,0,1
43343,-86.9565217391304,4,2,1,80,0,1
43441,-86.9565217391304,4,2,1,80,0,1
43539,-86.9565217391304,4,2,1,80,0,1
44225,-86.9565217391304,4,2,1,80,0,1
44323,-86.9565217391304,4,2,1,80,0,1
48833,-86.9565217391304,4,2,1,80,0,1
49029,-86.9565217391304,4,2,1,80,0,1
49421,-86.9565217391304,4,2,1,80,0,1
49617,-86.9565217391304,4,2,1,80,0,1
51970,-86.9565217391304,4,2,1,80,0,1
52166,-86.9565217391304,4,2,1,80,0,1
52559,-86.9565217391304,4,2,1,80,0,0
52657,-86.9565217391304,4,2,1,5,0,0
52755,-86.9565217391304,4,2,1,80,0,0
53049,-86.9565217391304,4,2,1,5,0,0
53147,-86.9565217391304,4,2,1,80,0,0
53343,-95.2380952380952,4,2,1,80,0,0

[Colours]
Combo1 : 255,255,128
Combo2 : 128,255,255
Combo3 : 255,128,192
Combo4 : 134,193,238

[HitObjects]
26,227,3147,6,0,P|34:257|44:287,1,62.9999980773926,2|2,1:2|0:0,0:0:0:0:
100,355,3539,1,2,0:0:0:0:
100,355,3735,1,2,0:0:0:0:
135,275,3931,2,0,P|199:241|254:266,1,125.999996154785,2|2,0:0|0:0,0:0:0:0:
281,85,4715,2,0,P|176:161|179:207,1,188.999994232178,2|0,0:2|0:0,0:0:0:0:
416,323,5892,2,0,L|392:251,1,62.9999980773926,2|2,0:0|0:0,0:0:0:0:
441,187,6284,6,0,B|321:225,1,125.999996154785,2|2,0:0|0:0,0:0:0:0:
260,289,6872,1,2,0:0:0:0:
179,253,7068,2,0,L|207:110,1,125.999996154785,2|2,0:0|0:0,0:0:0:0:
150,63,7657,2,0,L|345:128,1,188.999994232178,2|0,0:0|0:0,0:0:0:0:
492,25,9029,6,0,P|455:35|413:46,1,62.9999980773926,2|2,0:0|0:0,0:0:0:0:
374,108,9421,2,0,P|337:98|247:81,1,125.999996154785,2|2,0:0|0:0,0:0:0:0:
175,128,10010,1,2,0:0:0:0:
216,205,10206,2,0,P|256:227|289:218,1,62.9999980773926,2|2,0:0|0:0,0:0:0:0:
347,180,10598,2,0,P|360:221|370:258,1,62.9999980773926,2|0,0:0|0:0,0:0:0:0:
441,284,10990,6,0,P|384:275|335:325,1,125.999996154785,2|2,0:0|0:0,0:0:0:0:
274,382,11578,1,2,0:0:0:0:
207,324,11774,2,0,L|230:189,1,125.999996154785,2|2,0:0|0:0,0:0:0:0:
277,82,12362,6,0,B|230:70|186:113|208:120|167:166|102:139,1,188.999994232178,2|2,0:0|0:0,0:0:0:0:
26,128,13147,1,2,0:0:0:0:
26,128,13343,2,0,P|36:172|43:208,1,62.9999980773926,2|2,0:0|0:0,0:0:0:0:
120,223,13735,2,0,P|110:267|103:303,1,62.9999980773926,2|2,0:0|0:0,0:0:0:0:
58,358,14127,2,0,L|-6:380,2,62.9999980773926,2|2|2,0:0|0:0|0:0,0:0:0:0:
149,368,14715,1,2,0:0:0:0:
149,368,14911,2,0,L|217:381,1,62.9999980773926,4|0,0:0|0:0,0:0:0:0:
274,319,15304,2,0,P|277:284|256:249,1,62.9999980773926,0|0,0:0|1:0,0:0:0:0:
251,147,15696,6,0,B|300:134|345:179|322:186|365:233|432:205,1,199.499994672775,2|10,3:2|0:0,0:0:0:0:
508,160,16480,2,0,L|489:68,1,66.4999982242585,2|0,0:0|0:0,0:0:0:0:
474,4,16872,1,10,0:0:0:0:
327,118,17264,6,0,P|235:99|120:76,1,199.499994672775,2|10,3:2|0:0,0:0:0:0:
48,46,18049,1,2,0:0:0:0:
48,46,18245,1,2,0:0:0:0:
13,132,18441,2,0,P|6:167|18:197,1,66.4999982242585,10|0,0:2|0:0,0:0:0:0:
11,307,18833,2,0,P|87:275|198:235,1,199.499994672775,2|10,3:2|0:0,0:0:0:0:
282,199,19617,2,0,P|257:181|255:136,1,66.4999982242585,2|0,0:0|0:0,0:0:0:0:
248,53,20010,1,10,0:0:0:0:
417,130,20402,6,0,B|429:179|384:225|377:202|328:245|357:313,1,199.499994672775,2|10,3:2|0:0,0:0:0:0:
281,363,21186,2,0,P|243:349|199:333,1,66.4999982242585,2|0,0:0|0:0,0:0:0:0:
132,375,21578,1,10,0:0:0:0:
78,312,21774,5,2,1:2:0:0:
78,312,21872,1,0,1:2:0:0:
78,312,21970,2,0,P|93:223|115:113,1,199.499994672775,2|10,3:2|0:0,0:0:0:0:
119,22,22755,2,0,P|151:47|186:45,1,66.4999982242585,2|0,0:0|0:0,0:0:0:0:
242,113,23147,2,0,L|319:93,1,66.4999982242585,10|0,0:0|0:0,0:0:0:0:
378,9,23539,6,0,L|455:29,1,66.4999982242585,2|0,3:2|0:0,0:0:0:0:
496,106,23931,1,2,0:0:0:0:
413,148,24127,2,0,P|383:206|436:267,1,132.999996448517,10|0,0:0|0:0,0:0:0:0:
362,335,24715,2,0,P|314:320|249:301,1,99.7499973363877,10|0,0:0|0:0,0:0:0:0:
234,296,25108,6,0,P|245:254|260:213,1,70,2|0,3:2|0:0,0:0:0:0:
160,199,25500,2,0,P|148:240|134:282,1,70,2|0,3:2|0:0,0:0:0:0:
44,241,25892,2,0,P|54:205|69:167,1,70,2|0,3:2|0:0,0:0:0:0:
26,84,26284,1,2,3:2:0:0:
220,44,26676,5,8,0:3:0:0:
220,44,26774,2,0,L|307:28,1,70,8|8,0:3|0:3,0:0:0:0:
311,74,27068,2,0,L|398:90,1,70,4|8,0:3|0:3,0:0:0:0:
427,96,27362,1,8,0:3:0:0:
421,197,27559,5,8,0:3:0:0:
421,197,27657,2,0,P|404:233|414:269,1,70,6|10,0:3|0:3,0:0:0:0:
432,304,27951,2,0,L|469:310,2,35,8|10|8,0:3|0:3|0:3,0:0:0:0:
382,330,28245,6,0,B|342:319|305:355|324:361|289:400|235:377,1,161.000003070831,4|8,0:0|0:0,0:0:0:0:
127,379,28833,2,0,P|125:322|213:266,1,161.000003070831,0|0,1:0|0:0,0:0:0:0:
272,177,29421,1,10,0:0:0:0:
272,177,29617,1,2,0:0:0:0:
179,112,29813,6,0,P|135:124|83:141,1,80.5000015354157,0|0,1:2|0:0,0:0:0:0:
45,36,30206,1,8,0:0:0:0:
155,16,30402,2,0,P|199:28|251:45,1,80.5000015354157,0|0,1:0|0:0,0:0:0:0:
336,104,30794,1,0,0:0:0:0:
336,104,30892,1,0,0:0:0:0:
336,104,30990,2,0,P|327:57|320:21,1,80.5000015354157,10|2,0:0|0:0,0:0:0:0:
451,66,31382,6,0,P|423:156|413:192,1,120.750002303124,2|0,1:2|0:0,0:0:0:0:
378,196,31774,2,0,P|392:247|398:278,1,80.5000015354157,8|0,0:0|1:0,0:0:0:0:
287,300,32166,2,0,P|278:260|267:221,1,80.5000015354157,2|0,0:0|0:0,0:0:0:0:
194,142,32559,1,10,0:0:0:0:
194,142,32755,1,2,0:0:0:0:
140,240,32951,6,0,P|90:255|72:288,1,80.5000015354157,0|2,1:2|0:0,0:0:0:0:
132,373,33343,1,8,0:0:0:0:
235,329,33539,2,0,L|258:243,1,80.5000015354157,0|2,1:0|0:0,0:0:0:0:
347,184,33931,1,2,0:0:0:0:
347,184,34029,1,0,0:0:0:0:
347,184,34127,2,0,L|424:154,1,80.5000015354157,10|2,0:0|0:0,0:0:0:0:
436,17,34519,6,0,P|346:52|274:78,1,161.000003070831,2|8,1:2|0:0,0:0:0:0:
174,52,35108,2,0,P|244:100|237:191,1,161.000003070831,0|2,1:0|0:0,0:0:0:0:
194,271,35696,1,10,0:0:0:0:
194,271,35892,1,2,0:0:0:0:
93,220,36088,6,0,L|71:133,1,80.5000015354157,2|0,1:2|0:0,0:0:0:0:
135,47,36480,1,8,0:0:0:0:
227,112,36676,2,0,P|278:127|310:115,1,80.5000015354157,0|0,1:0|0:0,0:0:0:0:
418,96,37068,1,2,0:0:0:0:
418,96,37166,1,2,0:0:0:0:
418,96,37264,2,0,L|398:175,1,80.5000015354157,10|2,0:0|0:0,0:0:0:0:
459,269,37657,6,0,P|412:256|367:273,1,80.5000015354157,2|2,1:2|0:0,0:0:0:0:
324,359,38049,1,8,0:0:0:0:
250,277,38245,1,0,1:0:0:0:
156,339,38441,2,0,P|171:274|196:180,1,161.000003070831,2|10,0:0|0:0,0:0:0:0:
207,70,39029,1,2,0:0:0:0:
303,128,39225,5,2,1:2:0:0:
104,20,39617,1,8,0:0:0:0:
37,110,39813,2,0,L|55:194,1,80.5000015354157,0|2,1:0|0:0,0:0:0:0:
148,250,40206,1,10,0:0:0:0:
53,311,40402,1,10,0:0:0:0:
160,369,40598,5,8,0:0:0:0:
160,369,40696,1,8,0:0:0:0:
160,369,40794,2,0,P|203:361|320:339,1,161.000003070831,6|8,1:2|0:0,0:0:0:0:
430,327,41382,2,0,P|392:291|390:253,1,80.5000015354157,0|0,1:0|0:0,0:0:0:0:
443,166,41774,1,2,0:0:0:0:
357,93,41970,2,0,P|307:107|264:123,1,80.5000015354157,10|2,0:0|0:0,0:0:0:0:
192,187,42362,6,0,P|236:199|288:216,1,80.5000015354157,2|0,1:2|0:0,0:0:0:0:
339,298,42755,1,8,0:0:0:0:
255,373,42951,2,0,P|241:329|228:276,1,80.5000015354157,0|0,1:0|0:0,0:0:0:0:
130,280,43343,1,2,0:0:0:0:
130,280,43441,1,0,0:0:0:0:
130,280,43539,2,0,P|82:295|48:305,1,80.5000015354157,10|2,0:0|0:0,0:0:0:0:
76,168,43931,6,0,P|96:99|63:63,1,120.750002303124,2|0,1:2|0:0,0:0:0:0:
32,48,44323,2,0,L|112:21,1,80.5000015354157,10|0,0:0|1:0,0:0:0:0:
201,86,44715,2,0,L|281:113,1,80.5000015354157,2|2,0:0|0:0,0:0:0:0:
372,49,45108,1,10,0:0:0:0:
372,49,45304,1,2,0:0:0:0:
404,156,45500,6,0,P|402:208|375:234,1,80.5000015354157,2|2,1:2|0:0,0:0:0:0:
300,302,45892,1,8,0:0:0:0:
384,376,46088,2,0,L|465:352,1,80.5000015354157,0|2,1:0|0:0,0:0:0:0:
506,254,46480,1,2,0:0:0:0:
506,254,46578,1,2,0:0:0:0:
506,254,46676,2,0,P|499:209|515:175,1,80.5000015354157,10|2,0:0|0:0,0:0:0:0:
384,228,47068,6,0,B|340:248|306:208|331:196|283:164|231:183,1,161.000003070831,2|8,1:2|0:0,0:0:0:0:
170,92,47657,2,0,L|203:252,1,161.000003070831,0|2,1:0|0:0,0:0:0:0:
152,352,48245,1,10,0:0:0:0:
152,352,48441,1,2,0:0:0:0:
48,306,48637,6,0,L|70:219,1,80.5000015354157,2|0,1:2|0:0,0:0:0:0:
174,192,49029,1,8,0:0:0:0:
77,133,49225,2,0,L|55:46,1,80.5000015354157,0|0,1:0|0:0,0:0:0:0:
164,9,49617,1,2,0:0:0:0:
164,9,49715,1,2,0:0:0:0:
164,9,49813,2,0,P|203:5|243:29,1,80.5000015354157,10|2,0:0|0:0,0:0:0:0:
258,135,50206,6,0,P|305:122|356:108,1,80.5000015354157,2|2,1:2|0:0,0:0:0:0:
423,41,50598,1,8,0:0:0:0:
500,122,50794,1,0,1:0:0:0:
416,197,50990,2,0,P|376:259|424:335,1,161.000003070831,2|10,0:0|0:0,0:0:0:0:
507,267,51578,1,2,0:0:0:0:
416,197,51774,5,2,1:2:0:0:
209,287,52166,2,0,P|203:338|239:367,1,80.5000015354157,8|0,0:0|1:0,0:0:0:0:
296,290,52559,2,0,L|372:263,1,80.5000015354157,10|2,0:2|0:0,0:0:0:0:
241,188,52951,2,0,L|150:220,1,80.5000015354157,10|2,0:2|0:0,0:0:0:0:
62,211,53343,6,0,L|49:133,1,73.4999977569581,0|0,1:2|0:0,0:0:0:0:
23,43,53735,1,8,0:0:0:0:
23,43,53931,1,0,1:0:0:0:
119,78,54127,2,0,P|162:79|196:52,1,73.4999977569581
279,19,54519,2,0,L|264:111,1,73.4999977569581,8|0,0:0|0:0,0:0:0:0:
181,151,54911,6,0,L|196:243,1,73.4999977569581,0|0,1:2|0:0,0:0:0:0:
169,324,55304,1,8,0:0:0:0:
267,294,55500,2,0,P|297:288|349:311,1,73.4999977569581,0|0,1:0|0:0,0:0:0:0:
432,339,55892,2,0,L|445:384,2,36.749998878479,0|0|8,0:0|0:0|0:0,0:0:0:0:
510,273,56284,2,0,L|500:238,1,36.749998878479
475,213,56480,6,0,L|497:109,1,73.4999977569581,0|0,1:2|0:0,0:0:0:0:
443,55,56872,1,8,0:0:0:0:
443,55,57068,1,0,1:0:0:0:
397,147,57264,2,0,L|320:173,1,73.4999977569581
229,202,57656,2,0,P|220:164|244:117,1,73.4999977569581,8|0,0:0|0:0,0:0:0:0:
283,43,58049,5,0,1:2:0:0:
