osu file format v14

[General]
AudioFilename: audio.mp3
AudioLeadIn: 0
PreviewTime: 66176
Countdown: 0
SampleSet: Soft
StackLeniency: 0.7
Mode: 3
LetterboxInBreaks: 0
SpecialStyle: 0
WidescreenStoryboard: 1

[Editor]
Bookmarks: 12739,30739,54739
DistanceSpacing: 1.3
BeatDivisor: 2
GridSize: 32
TimelineZoom: 1.9

[Metadata]
Title:MISSIN YOU
TitleUnicode:MISSIN YOU
Artist:KARNAMEREKA
ArtistUnicode:KARNAMEREKA
Creator:Lita-
Version:Sya's Mudah
Source:
Tags:stelar karena mereka krnmrk heroherda pop punk rock band bahasa indonesian kanon matsubara _viank_ syadow- yukari_sama atian540
BeatmapID:3092044
BeatmapSetID:1506339

[Difficulty]
HPDrainRate:6.5
CircleSize:4
OverallDifficulty:6.5
ApproachRate:5
SliderMultiplier:1.4
SliderTickRate:1

[Events]
//Background and Video events
0,0,"bg.jpg",0,0
//Break Periods
//Storyboard Layer 0 (Background)
//Storyboard Layer 1 (Fail)
//Storyboard Layer 2 (Pass)
//Storyboard Layer 3 (Foreground)
//Storyboard Layer 4 (Overlay)
//Storyboard Sound Samples
Sample,11950,0,"Crash 2.wav",55
Sample,12137,0,"Crash 2.wav",55
Sample,12325,0,"Crash 2.wav",55
Sample,13075,0,"Hat open.wav",75
Sample,13637,0,"Hat open.wav",75
Sample,14012,0,"Hat open.wav",75
Sample,14387,0,"Hat open.wav",75
Sample,15325,0,"Hat open.wav",75
Sample,15700,0,"Crash 2.wav",55
Sample,16450,0,"Crash 2.wav",55
Sample,16637,0,"Crash 2.wav",55
Sample,17387,0,"Hat open.wav",75
Sample,18325,0,"Crash 2.wav",55
Sample,19075,0,"Hat open.wav",75
Sample,19637,0,"Hat open.wav",75
Sample,20012,0,"Hat open.wav",75
Sample,20387,0,"Hat open.wav",75
Sample,21325,0,"Hat open.wav",75
Sample,21700,0,"Crash 2.wav",55
Sample,22075,0,"Crash 2.wav",55
Sample,22450,0,"Hat open.wav",75
Sample,22637,0,"Crash 2.wav",55
Sample,23012,0,"Hat open.wav",75
Sample,23950,0,"Crash 2.wav",55
Sample,24137,0,"Tom3.wav",45
Sample,24325,0,"Tom3.wav",45
Sample,24512,0,"Tom3.wav",45
Sample,25075,0,"Crash 2.wav",45
Sample,25825,0,"Crash 2.wav",45
Sample,26575,0,"Crash 2.wav",45
Sample,27137,0,"Tom3.wav",45
Sample,27325,0,"Tom3.wav",45
Sample,27512,0,"Tom3.wav",45
Sample,28075,0,"Crash 2.wav",45
Sample,28825,0,"Crash 2.wav",45
Sample,29575,0,"Crash 2.wav",45
Sample,30137,0,"Tom2.wav",40
Sample,30231,0,"Tom2.wav",40
Sample,31262,0,"Tom2.wav",45
Sample,31356,0,"Tom3.wav",45
Sample,32012,0,"Ride 2.wav",25
Sample,32762,0,"Tom2.wav",45
Sample,32856,0,"Tom3.wav",45
Sample,33137,0,"Ride 2.wav",25
Sample,34262,0,"Tom2.wav",45
Sample,34356,0,"Tom3.wav",45
Sample,35012,0,"Ride.wav",60
Sample,35762,0,"Tom2.wav",45
Sample,35856,0,"Tom3.wav",45
Sample,36137,0,"Tom3.wav",45
Sample,36325,0,"Crash 2.wav",55
Sample,37262,0,"Tom2.wav",45
Sample,37356,0,"Tom3.wav",45
Sample,38012,0,"Ride 2.wav",25
Sample,38762,0,"Tom2.wav",45
Sample,38856,0,"Tom3.wav",45
Sample,39137,0,"Ride 2.wav",25
Sample,40262,0,"Tom2.wav",45
Sample,40356,0,"Tom3.wav",45
Sample,41012,0,"Ride.wav",60
Sample,41762,0,"Tom2.wav",45
Sample,41856,0,"Tom3.wav",45
Sample,42137,0,"Tom3.wav",45
Sample,42325,0,"Tom3.wav",45
Sample,42512,0,"Tom3.wav",45
Sample,48512,0,"Hat open.wav",75
Sample,52825,0,"Hat open.wav",50
Sample,53200,0,"Hat open.wav",75
Sample,53575,0,"Hat open.wav",85
Sample,54043,0,"Tom1.wav",40
Sample,54137,0,"Tom2.wav",45
Sample,54325,0,"Crash 2.wav",55
Sample,56200,0,"Rim.wav",65
Sample,57700,0,"Rim.wav",65
Sample,59200,0,"Rim.wav",65
Sample,60700,0,"Rim.wav",65
Sample,62200,0,"Rim.wav",65
Sample,67262,0,"Crash 2.wav",55
Sample,67918,0,"Tom1.wav",40
Sample,68012,0,"Tom2.wav",45
Sample,68200,0,"Crash 2.wav",55
Sample,69137,0,"Crash 2.wav",55
Sample,69325,0,"Crash 2.wav",55
Sample,70262,0,"Crash 2.wav",55
Sample,70918,0,"Tom1.wav",40
Sample,71012,0,"Tom2.wav",45
Sample,71200,0,"Crash 2.wav",55
Sample,72137,0,"Tom3.wav",45
Sample,72325,0,"Tom3.wav",45
Sample,73825,0,"Hat open.wav",75
Sample,75325,0,"Hat open.wav",75
Sample,76825,0,"Hat open.wav",75
Sample,77387,0,"Crash 2.wav",55
Sample,77950,0,"Hat open.wav",75
Sample,78137,0,"Tom3.wav",45
Sample,78325,0,"Tom3.wav",45
Sample,79262,0,"Crash 2.wav",55
Sample,79918,0,"Tom1.wav",40
Sample,80012,0,"Tom2.wav",45
Sample,80200,0,"Crash 2.wav",55
Sample,81137,0,"Crash 2.wav",55
Sample,81325,0,"Crash 2.wav",55
Sample,82262,0,"Crash 2.wav",55
Sample,82918,0,"Tom1.wav",40
Sample,83012,0,"Tom2.wav",45
Sample,83200,0,"Crash 2.wav",55
Sample,84137,0,"Tom3.wav",45
Sample,84325,0,"Tom3.wav",45
Sample,86200,0,"Crash 2.wav",55
Sample,87700,0,"Crash 2.wav",55
Sample,89200,0,"Crash 2.wav",55
Sample,89950,0,"Hat open.wav",75
Sample,90137,0,"Tom3.wav",45
Sample,90325,0,"Tom3.wav",45
Sample,91168,0,"Tom2.wav",45
Sample,91356,0,"Tom3.wav",45
Sample,91450,0,"Crash 2.wav",55
Sample,92387,0,"Crash 2.wav",55
Sample,92575,0,"Tom1.wav",40
Sample,92668,0,"Tom1.wav",40
Sample,92762,0,"Tom2.wav",45
Sample,92856,0,"Tom2.wav",45
Sample,92950,0,"Crash 2.wav",55
Sample,93512,0,"Crash short.wav",70
Sample,94637,0,"Tom3.wav",45
Sample,94825,0,"Tom3.wav",45
Sample,95575,0,"Tom3.wav",35
Sample,95762,0,"Tom3.wav",35
Sample,95950,0,"Tom3.wav",35
Sample,96137,0,"Tom3.wav",35
Sample,96325,0,"Tom3.wav",35
Sample,96512,0,"Tom3.wav",35
Sample,96606,0,"Tom2.wav",45
Sample,96700,0,"Tom3.wav",35
Sample,96887,0,"Tom3.wav",35
Sample,97075,0,"Tom3.wav",35
Sample,97262,0,"Tom3.wav",35
Sample,97450,0,"Tom3.wav",35
Sample,97637,0,"Tom3.wav",35
Sample,97825,0,"Tom3.wav",35
Sample,98012,0,"Tom3.wav",35
Sample,98106,0,"Tom2.wav",45
Sample,98200,0,"Tom3.wav",35
Sample,98387,0,"Tom3.wav",35
Sample,98575,0,"Tom3.wav",35
Sample,98762,0,"Tom3.wav",35
Sample,98950,0,"Tom3.wav",35
Sample,99137,0,"Tom3.wav",35
Sample,99325,0,"Tom3.wav",35
Sample,99512,0,"Tom3.wav",35
Sample,99606,0,"Tom2.wav",45
Sample,99700,0,"Tom3.wav",35
Sample,99887,0,"Tom3.wav",35
Sample,100075,0,"Tom3.wav",35
Sample,100262,0,"Tom3.wav",35
Sample,100450,0,"Tom3.wav",35
Sample,100637,0,"Tom3.wav",35
Sample,100825,0,"Tom3.wav",35
Sample,101012,0,"Tom3.wav",35
Sample,101106,0,"Tom2.wav",45
Sample,101387,0,"Tom3.wav",35
Sample,101575,0,"Tom3.wav",35
Sample,101762,0,"Tom3.wav",35
Sample,101950,0,"Tom3.wav",35
Sample,102137,0,"Tom3.wav",35
Sample,102325,0,"Tom3.wav",35
Sample,102512,0,"Tom3.wav",35
Sample,102606,0,"Tom2.wav",45
Sample,102700,0,"Tom3.wav",35
Sample,102887,0,"Tom3.wav",35
Sample,103075,0,"Tom3.wav",35
Sample,103262,0,"Tom3.wav",35
Sample,103450,0,"Tom3.wav",35
Sample,103637,0,"Tom3.wav",35
Sample,103825,0,"Tom3.wav",35
Sample,104012,0,"Tom3.wav",35
Sample,104106,0,"Tom2.wav",45
Sample,104200,0,"Tom3.wav",35
Sample,104387,0,"Tom3.wav",35
Sample,104575,0,"Tom3.wav",35
Sample,104762,0,"Tom3.wav",35
Sample,104950,0,"Tom3.wav",35
Sample,105137,0,"Tom3.wav",35
Sample,105325,0,"Tom3.wav",35
Sample,105512,0,"Tom3.wav",35
Sample,105606,0,"Tom2.wav",45
Sample,105700,0,"Tom3.wav",35
Sample,105887,0,"Tom3.wav",35
Sample,106075,0,"Tom3.wav",35
Sample,106262,0,"Tom3.wav",35
Sample,106450,0,"Crash 2.wav",55
Sample,106637,0,"Hat open.wav",75
Sample,106825,0,"Hat open.wav",75
Sample,107012,0,"Hat open.wav",75
Sample,118450,0,"Hat open.wav",50
Sample,118637,0,"Hat open.wav",75
Sample,118825,0,"Hat open.wav",75
Sample,119012,0,"Hat open.wav",75
Sample,127450,0,"Hat open.wav",75
Sample,130543,0,"Tom1.wav",40
Sample,130637,0,"Tom2.wav",45
Sample,130825,0,"Crash 2.wav",55
Sample,131762,0,"Crash 2.wav",55
Sample,132418,0,"Tom1.wav",40
Sample,132512,0,"Tom2.wav",45
Sample,132700,0,"Crash 2.wav",55
Sample,133637,0,"Crash 2.wav",55
Sample,133825,0,"Crash 2.wav",55
Sample,134762,0,"Crash 2.wav",55
Sample,135418,0,"Tom1.wav",40
Sample,135512,0,"Tom2.wav",45
Sample,135700,0,"Crash 2.wav",55
Sample,136637,0,"Tom3.wav",45
Sample,136825,0,"Tom3.wav",45
Sample,138700,0,"Crash 2.wav",55
Sample,140200,0,"Crash 2.wav",55
Sample,141887,0,"Crash 2.wav",55
Sample,142450,0,"Hat open.wav",75
Sample,143762,0,"Crash 2.wav",55
Sample,144418,0,"Tom1.wav",40
Sample,144512,0,"Tom2.wav",45
Sample,144700,0,"Crash 2.wav",55
Sample,145637,0,"Crash 2.wav",55
Sample,145825,0,"Crash 2.wav",55
Sample,146762,0,"Crash 2.wav",55
Sample,147418,0,"Tom1.wav",40
Sample,147512,0,"Tom2.wav",45
Sample,147700,0,"Crash 2.wav",55
Sample,148637,0,"Tom3.wav",45
Sample,148825,0,"Tom3.wav",45
Sample,150700,0,"Crash 2.wav",55
Sample,152200,0,"Crash 2.wav",55
Sample,153700,0,"Crash 2.wav",55
Sample,154450,0,"Hat open.wav",75
Sample,154637,0,"Tom3.wav",45
Sample,154825,0,"Tom3.wav",45
Sample,172637,0,"D6_s.wav",100
Sample,172825,0,"E6_s.wav",100
Sample,173012,0,"F#6.wav",100
Sample,174137,0,"D6_s.wav",100
Sample,174325,0,"F#6_s.wav",100
Sample,174512,0,"E6.wav",100
Sample,175262,0,"A6.wav",100
Sample,175825,0,"E6.wav",100
Sample,176200,0,"D6.wav",100
Sample,177325,0,"B5.wav",65
Sample,177700,0,"A5.wav",65
Sample,178637,0,"D6_s.wav",100
Sample,178825,0,"E6_s.wav",100
Sample,179012,0,"F#6.wav",100
Sample,180137,0,"D6_s.wav",100
Sample,180325,0,"F#6_s.wav",100
Sample,180512,0,"E6.wav",100
Sample,181262,0,"A6.wav",100
Sample,181825,0,"F#6.wav",100
Sample,182200,0,"B6.wav",100
Sample,183325,0,"B6.wav",100
Sample,183700,0,"A6.wav",100
Sample,185200,0,"Tom3.wav",45
Sample,185387,0,"Tom3.wav",45
Sample,185575,0,"Splash.wav",55
Sample,185950,0,"Hat open.wav",75
Sample,186325,0,"Crash 2.wav",55
Sample,186700,0,"Tom3.wav",45
Sample,186887,0,"Tom3.wav",45
Sample,187075,0,"Splash.wav",55
Sample,187450,0,"Hat open.wav",75
Sample,187825,0,"Crash 2.wav",55
Sample,188200,0,"Tom3.wav",45
Sample,188387,0,"Tom3.wav",45
Sample,188575,0,"Splash.wav",55
Sample,188950,0,"Hat open.wav",75
Sample,189325,0,"Crash 2.wav",55
Sample,189700,0,"Hat open.wav",75
Sample,190262,0,"Splash.wav",55
Sample,190543,0,"Tom1.wav",40
Sample,190637,0,"Tom2.wav",45
Sample,190825,0,"Crash 2.wav",55
Sample,191200,0,"Tom3.wav",45
Sample,191387,0,"Tom3.wav",45
Sample,191575,0,"Splash.wav",55
Sample,191950,0,"Hat open.wav",75
Sample,192325,0,"Crash 2.wav",55
Sample,192700,0,"Tom3.wav",45
Sample,192887,0,"Tom3.wav",45
Sample,193075,0,"Splash.wav",55
Sample,193450,0,"Hat open.wav",75
Sample,193825,0,"Crash 2.wav",55
Sample,194012,0,"Tom2.wav",35
Sample,194106,0,"Tom2.wav",35
Sample,195981,0,"Tom1.wav",40
Sample,196262,0,"Tom2.wav",45
Sample,196450,0,"Tom2.wav",45
Sample,196731,0,"Tom3.wav",45
Sample,197012,0,"Tom3.wav",45
Sample,197762,0,"Crash 2.wav",55
Sample,198418,0,"Tom1.wav",40
Sample,198512,0,"Tom2.wav",45
Sample,198700,0,"Crash 2.wav",55
Sample,199637,0,"Crash 2.wav",55
Sample,199825,0,"Crash 2.wav",55
Sample,200762,0,"Crash 2.wav",55
Sample,201418,0,"Tom1.wav",40
Sample,201512,0,"Tom2.wav",45
Sample,201700,0,"Crash 2.wav",55
Sample,202637,0,"Tom3.wav",45
Sample,202825,0,"Tom3.wav",45
Sample,204700,0,"Crash 2.wav",55
Sample,206200,0,"Crash 2.wav",55
Sample,207887,0,"Crash 2.wav",55
Sample,208450,0,"Hat open.wav",75
Sample,209762,0,"Crash 2.wav",55
Sample,210418,0,"Tom1.wav",40
Sample,210512,0,"Tom2.wav",45
Sample,210700,0,"Crash 2.wav",55
Sample,211637,0,"Crash 2.wav",55
Sample,211825,0,"Crash 2.wav",55
Sample,212762,0,"Crash 2.wav",55
Sample,213418,0,"Tom1.wav",40
Sample,213512,0,"Tom2.wav",45
Sample,213700,0,"Crash 2.wav",55
Sample,214637,0,"Tom3.wav",45
Sample,214825,0,"Tom3.wav",45
Sample,216700,0,"Crash 2.wav",55
Sample,218200,0,"Crash 2.wav",55
Sample,219700,0,"Crash 2.wav",55
Sample,220450,0,"Hat open.wav",75
Sample,220637,0,"Tom3.wav",45
Sample,220825,0,"Tom3.wav",45
Sample,221012,0,"Crash 2.wav",55
Sample,221668,0,"Tom1.wav",40
Sample,221762,0,"Tom2.wav",45
Sample,221856,0,"Tom3.wav",45
Sample,221950,0,"Crash 2.wav",55
Sample,222887,0,"Crash 2.wav",55
Sample,223168,0,"Tom1.wav",40
Sample,223262,0,"Tom2.wav",45
Sample,223356,0,"Tom2.wav",45
Sample,223637,0,"Tom3.wav",45
Sample,223825,0,"Tom3.wav",45
Sample,224012,0,"Crash short.wav",65
Sample,225137,0,"Tom3.wav",45
Sample,225325,0,"Tom3.wav",45
Sample,225512,0,"Tom3.wav",45
Sample,226075,0,"Crash 2.wav",55
Sample,226450,0,"Crash 2.wav",55
Sample,226825,0,"Crash 2.wav",55
Sample,227200,0,"Crash 2.wav",55
Sample,227575,0,"Crash 2.wav",55
Sample,227950,0,"Crash 2.wav",55
Sample,228137,0,"Tom3.wav",45
Sample,228325,0,"Tom3.wav",45
Sample,228512,0,"Tom3.wav",45
Sample,229075,0,"Crash 2.wav",55
Sample,229450,0,"Crash 2.wav",55
Sample,229825,0,"Crash 2.wav",55
Sample,230200,0,"Crash 2.wav",55
Sample,230575,0,"Crash 2.wav",55
Sample,230950,0,"Crash 2.wav",55
Sample,231137,0,"Tom3.wav",45
Sample,231325,0,"Tom3.wav",45
Sample,231512,0,"Tom3.wav",45

[TimingPoints]
700,375,4,2,1,50,1,0
12700,-100,4,2,1,55,0,0
24700,-100,4,2,1,45,0,0
30700,-100,4,2,1,50,0,0
66700,-100,4,2,1,65,0,1
90512,-100,4,2,1,55,0,0
131200,-100,4,2,1,65,0,1
155012,-100,4,2,1,50,0,0
185200,-100,4,2,1,55,0,0
197200,-100,4,2,1,65,0,1
221012,-100,4,2,1,55,0,0

[HitObjects]
192,192,11950,5,8,0:0:0:0:
320,192,12137,1,8,0:0:0:0:
448,192,12325,1,8,0:0:0:0:
64,192,12700,1,2,0:0:0:0:
192,192,12700,1,4,0:0:0:0:
320,192,13075,1,8,0:0:0:0:
64,192,13450,1,2,0:0:0:0:
448,192,13637,1,8,0:0:0:0:
192,192,14012,1,2,0:0:0:0:
320,192,14387,1,8,0:0:0:0:
192,192,14762,1,2,0:0:0:0:
448,192,15137,1,8,0:0:0:0:
64,192,15325,1,8,0:0:0:0:
320,192,15700,1,8,0:0:0:0:
320,192,16075,1,12,0:0:0:0:
192,192,16450,1,8,0:0:0:0:
448,192,16637,1,8,0:0:0:0:
64,192,17012,1,6,0:0:0:0:
320,192,17387,1,8,0:0:0:0:
448,192,17762,1,2,0:0:0:0:
192,192,17950,128,8,18325:0:0:0:0:
320,192,18325,1,8,0:0:0:0:
64,192,18700,1,2,0:0:0:0:
448,192,18700,1,4,0:0:0:0:
192,192,19075,1,8,0:0:0:0:
448,192,19450,1,2,0:0:0:0:
64,192,19637,1,8,0:0:0:0:
320,192,20012,1,2,0:0:0:0:
192,192,20387,1,8,0:0:0:0:
320,192,20762,1,2,0:0:0:0:
64,192,21137,1,8,0:0:0:0:
448,192,21325,1,8,0:0:0:0:
192,192,21700,1,8,0:0:0:0:
192,192,22075,1,8,0:0:0:0:
320,192,22450,1,2,0:0:0:0:
64,192,22637,1,8,0:0:0:0:
448,192,23012,1,2,0:0:0:0:
192,192,23387,1,12,0:0:0:0:
320,192,23575,1,12,0:0:0:0:
320,192,23950,1,8,0:0:0:0:
64,192,24325,1,8,0:0:0:0:
192,192,24512,1,8,0:0:0:0:
320,192,24700,1,2,0:0:0:0:
448,192,24700,128,4,25637:0:0:0:0:
64,192,25637,128,0,27137:0:0:0:0:
448,192,27137,1,8,0:0:0:0:
320,192,27325,1,8,0:0:0:0:
192,192,27512,1,8,0:0:0:0:
64,192,27700,1,2,0:0:0:0:
448,192,27700,128,4,28637:0:0:0:0:
192,192,28637,128,0,30325:0:0:0:0:
320,192,30325,1,2,0:0:0:0:
64,192,30700,1,2,0:0:0:0:
448,192,30700,1,4,0:0:0:0:
192,192,31075,1,8,0:0:0:0:
320,192,31450,1,2,0:0:0:0:
192,192,31825,1,8,0:0:0:0:
448,192,32200,1,0,0:0:0:75:Hat open.wav
64,192,32575,1,8,0:0:0:0:
192,192,32950,1,2,0:0:0:0:
320,192,33325,1,0,0:0:0:55:Splash.wav
64,192,33700,1,2,0:0:0:0:
448,192,34075,1,8,0:0:0:0:
320,192,34450,1,2,0:0:0:0:
192,192,34825,1,8,0:0:0:0:
448,192,35200,1,0,0:0:0:75:Hat open.wav
64,192,35575,1,8,0:0:0:0:
320,192,35950,1,2,0:0:0:0:
192,192,36325,1,8,0:0:0:0:
448,192,36700,1,2,0:0:0:0:
320,192,37075,1,8,0:0:0:0:
64,192,37450,1,2,0:0:0:0:
448,192,37825,1,8,0:0:0:0:
192,192,38200,1,0,0:0:0:75:Hat open.wav
320,192,38575,1,8,0:0:0:0:
448,192,38950,1,2,0:0:0:0:
64,192,39325,1,0,0:0:0:55:Splash.wav
320,192,39700,1,2,0:0:0:0:
192,192,40075,1,8,0:0:0:0:
448,192,40450,1,2,0:0:0:0:
320,192,40825,1,8,0:0:0:0:
192,192,41200,1,0,0:0:0:75:Hat open.wav
64,192,41575,1,8,0:0:0:0:
448,192,41950,1,2,0:0:0:0:
192,192,42137,1,8,0:0:0:0:
320,192,42325,1,8,0:0:0:0:
448,192,42512,1,8,0:0:0:0:
64,192,42700,1,2,0:0:0:0:
192,192,42700,1,4,0:0:0:0:
320,192,43075,1,8,0:0:0:0:
64,192,43450,1,2,0:0:0:0:
320,192,43825,1,8,0:0:0:0:
192,192,44200,1,2,0:0:0:0:
448,192,44575,1,8,0:0:0:0:
192,192,44950,1,2,0:0:0:0:
448,192,45325,1,8,0:0:0:0:
64,192,45700,1,2,0:0:0:0:
192,192,46075,1,8,0:0:0:0:
448,192,46450,1,2,0:0:0:0:
320,192,46825,1,8,0:0:0:0:
192,192,47200,1,2,0:0:0:0:
448,192,47575,1,8,0:0:0:0:
64,192,47950,1,2,0:0:0:0:
448,192,48325,1,8,0:0:0:0:
320,192,48512,1,8,0:0:0:0:
192,192,48700,1,2,0:0:0:0:
320,192,49075,1,8,0:0:0:0:
64,192,49450,1,2,0:0:0:0:
192,192,49825,1,8,0:0:0:0:
448,192,50200,1,2,0:0:0:0:
64,192,50575,1,8,0:0:0:0:
320,192,50950,1,2,0:0:0:0:
192,192,51325,1,8,0:0:0:0:
448,192,51700,1,2,0:0:0:0:
320,192,52075,1,8,0:0:0:0:
192,192,52450,1,2,0:0:0:0:
320,192,52825,1,8,0:0:0:0:
64,192,53200,1,2,0:0:0:0:
448,192,53575,1,8,0:0:0:0:
192,192,53950,128,8,54325:0:0:0:0:
320,192,54325,1,8,0:0:0:0:
64,192,54700,1,2,0:0:0:0:
448,192,54700,1,4,0:0:0:0:
64,192,55075,1,0,0:0:0:65:Rim.wav
448,192,55450,1,0,0:0:0:65:Rim.wav
448,192,55825,1,0,0:0:0:65:Rim.wav
192,192,56200,1,2,0:0:0:0:
192,192,56575,1,0,0:0:0:65:Rim.wav
320,192,56950,1,0,0:0:0:65:Rim.wav
320,192,57325,1,0,0:0:0:65:Rim.wav
64,192,57700,1,2,0:0:0:0:
64,192,58075,1,0,0:0:0:65:Rim.wav
448,192,58450,1,0,0:0:0:65:Rim.wav
448,192,58825,1,0,0:0:0:65:Rim.wav
192,192,59200,1,2,0:0:0:0:
192,192,59575,1,0,0:0:0:65:Rim.wav
320,192,59950,128,2,60325:0:0:0:0:
64,192,60325,128,0,60700:0:0:0:65:Rim.wav
448,192,60700,1,2,0:0:0:0:
448,192,61075,1,0,0:0:0:65:Rim.wav
192,192,61450,1,0,0:0:0:65:Rim.wav
192,192,61825,1,0,0:0:0:65:Rim.wav
320,192,62200,1,2,0:0:0:0:
320,192,62575,1,0,0:0:0:65:Rim.wav
64,192,62950,1,0,0:0:0:65:Rim.wav
64,192,63325,1,0,0:0:0:65:Rim.wav
320,192,63700,1,2,0:0:0:0:
448,192,63700,128,0,65200:0:0:0:75:Splash.wav
64,192,66700,1,8,0:0:0:0:
448,192,66700,1,4,0:0:0:0:
192,192,66887,1,2,0:0:0:0:
320,192,67262,1,8,0:0:0:0:
192,192,67450,1,2,0:0:0:0:
448,192,67825,128,8,68200:0:0:0:0:
64,192,68200,1,8,0:0:0:0:
320,192,68387,1,2,0:0:0:0:
192,192,68762,1,12,0:0:0:0:
448,192,69137,1,8,0:0:0:0:
64,192,69325,1,8,0:0:0:0:
320,192,69700,1,12,0:0:0:0:
64,192,69887,1,2,0:0:0:0:
192,192,70262,1,8,0:0:0:0:
448,192,70450,1,2,0:0:0:0:
192,192,70825,128,8,71200:0:0:0:0:
448,192,71200,1,8,0:0:0:0:
64,192,71387,1,2,0:0:0:0:
320,192,71762,1,12,0:0:0:0:
192,192,72137,1,8,0:0:0:0:
448,192,72325,1,8,0:0:0:0:
64,192,72700,1,2,0:0:0:0:
320,192,72700,1,4,0:0:0:0:
192,192,73262,1,8,0:0:0:0:
192,192,73825,1,8,0:0:0:0:
320,192,74200,1,6,0:0:0:0:
448,192,74762,1,8,0:0:0:0:
448,192,75325,1,8,0:0:0:0:
64,192,75700,1,6,0:0:0:0:
192,192,76262,1,8,0:0:0:0:
192,192,76825,1,8,0:0:0:0:
320,192,77012,1,8,0:0:0:0:
448,192,77200,128,6,77575:0:0:0:0:
64,192,77575,128,8,77950:0:0:0:0:
448,192,77950,1,2,0:0:0:0:
192,192,78137,1,8,0:0:0:0:
320,192,78325,1,8,0:0:0:0:
64,192,78700,1,8,0:0:0:0:
448,192,78700,1,4,0:0:0:0:
320,192,78887,1,2,0:0:0:0:
192,192,79262,1,8,0:0:0:0:
320,192,79450,1,2,0:0:0:0:
64,192,79825,128,8,80200:0:0:0:0:
448,192,80200,1,8,0:0:0:0:
192,192,80387,1,2,0:0:0:0:
320,192,80762,1,12,0:0:0:0:
64,192,81137,1,8,0:0:0:0:
448,192,81325,1,8,0:0:0:0:
192,192,81700,1,12,0:0:0:0:
448,192,81887,1,2,0:0:0:0:
320,192,82262,1,8,0:0:0:0:
64,192,82450,1,2,0:0:0:0:
320,192,82825,128,8,83200:0:0:0:0:
64,192,83200,1,8,0:0:0:0:
448,192,83387,1,2,0:0:0:0:
192,192,83762,1,12,0:0:0:0:
320,192,84137,1,8,0:0:0:0:
64,192,84325,1,8,0:0:0:0:
192,192,84700,1,10,0:0:0:0:
448,192,84700,1,0,0:0:0:55:Crash 2.wav
320,192,85075,1,2,0:0:0:0:
64,192,85262,1,8,0:0:0:0:
192,192,85825,1,10,0:0:0:0:
448,192,86012,1,8,0:0:0:0:
64,192,86200,1,2,0:0:0:0:
320,192,86575,1,2,0:0:0:0:
192,192,86762,1,8,0:0:0:0:
448,192,87137,1,8,0:0:0:0:
320,192,87325,1,6,0:0:0:0:
192,192,87512,1,8,0:0:0:0:
320,192,87700,1,2,0:0:0:0:
64,192,88075,1,2,0:0:0:0:
448,192,88262,1,8,0:0:0:0:
320,192,88825,1,10,0:0:0:0:
192,192,89012,1,8,0:0:0:0:
64,192,89200,128,2,89575:0:0:0:0:
448,192,89575,128,8,89950:0:0:0:0:
64,192,89950,1,2,0:0:0:0:
320,192,90137,1,8,0:0:0:0:
192,192,90325,1,8,0:0:0:0:
448,192,90512,1,6,0:0:0:0:
64,192,90887,128,0,91262:0:0:0:40:Tom1.wav
320,192,91262,128,0,91637:0:0:0:45:Tom3.wav
192,192,91637,128,8,92200:0:0:0:0:
448,192,92200,1,6,0:0:0:0:
64,192,92387,1,2,0:0:0:0:
320,192,92950,1,2,0:0:0:0:
192,192,93137,1,8,0:0:0:0:
448,192,93325,1,8,0:0:0:0:
64,192,93512,1,2,0:0:0:0:
192,192,94637,1,8,0:0:0:0:
320,192,94825,1,8,0:0:0:0:
64,192,95012,1,2,0:0:0:0:
448,192,95012,1,4,0:0:0:0:
320,192,95575,1,8,0:0:0:0:
192,192,95950,1,2,0:0:0:0:
320,192,96325,1,8,0:0:0:0:
64,192,96700,1,2,0:0:0:0:
448,192,97075,1,8,0:0:0:0:
320,192,97450,1,2,0:0:0:0:
192,192,97825,1,8,0:0:0:0:
448,192,98200,1,2,0:0:0:0:
64,192,98575,1,8,0:0:0:0:
192,192,98950,1,2,0:0:0:0:
320,192,99325,1,8,0:0:0:0:
64,192,99700,1,2,0:0:0:0:
448,192,100075,1,8,0:0:0:0:
192,192,100450,1,2,0:0:0:0:
320,192,100825,1,8,0:0:0:0:
64,192,101200,1,6,0:0:0:0:
192,192,101575,1,8,0:0:0:0:
448,192,101950,1,2,0:0:0:0:
64,192,102325,1,8,0:0:0:0:
320,192,102700,1,2,0:0:0:0:
192,192,103075,1,8,0:0:0:0:
64,192,103450,1,2,0:0:0:0:
448,192,103825,1,8,0:0:0:0:
192,192,104200,1,2,0:0:0:0:
320,192,104575,1,8,0:0:0:0:
64,192,104950,1,2,0:0:0:0:
192,192,105325,1,8,0:0:0:0:
320,192,105700,1,2,0:0:0:0:
448,192,106075,1,8,0:0:0:0:
64,192,106450,1,2,0:0:0:0:
320,192,106637,1,8,0:0:0:0:
192,192,106825,1,8,0:0:0:0:
64,192,107012,1,8,0:0:0:0:
320,192,107200,1,2,0:0:0:0:
448,192,107200,1,4,0:0:0:0:
192,192,107575,1,8,0:0:0:0:
448,192,107950,1,2,0:0:0:0:
192,192,108325,1,8,0:0:0:0:
320,192,108700,1,2,0:0:0:0:
64,192,109075,1,8,0:0:0:0:
320,192,109450,1,2,0:0:0:0:
64,192,109825,1,8,0:0:0:0:
448,192,110200,1,2,0:0:0:0:
320,192,110575,1,8,0:0:0:0:
64,192,110950,1,2,0:0:0:0:
192,192,111325,1,8,0:0:0:0:
320,192,111700,1,2,0:0:0:0:
64,192,112075,1,8,0:0:0:0:
448,192,112450,1,2,0:0:0:0:
64,192,112825,1,8,0:0:0:0:
192,192,113012,1,2,0:0:0:0:
320,192,113200,1,2,0:0:0:0:
192,192,113575,1,8,0:0:0:0:
448,192,113950,1,2,0:0:0:0:
320,192,114325,1,8,0:0:0:0:
64,192,114700,1,2,0:0:0:0:
448,192,115075,1,8,0:0:0:0:
192,192,115450,1,2,0:0:0:0:
320,192,115825,1,8,0:0:0:0:
64,192,116200,1,2,0:0:0:0:
192,192,116575,1,8,0:0:0:0:
320,192,116950,1,2,0:0:0:0:
192,192,117325,1,8,0:0:0:0:
448,192,117700,1,2,0:0:0:0:
64,192,118075,1,8,0:0:0:0:
320,192,118450,128,2,118825:0:0:0:0:
64,192,118825,1,8,0:0:0:0:
192,192,119012,1,8,0:0:0:0:
320,192,119200,1,2,0:0:0:0:
448,192,119200,1,4,0:0:0:0:
64,192,119762,1,8,0:0:0:0:
64,192,120325,1,8,0:0:0:0:
320,192,120700,1,2,0:0:0:0:
448,192,120887,1,2,0:0:0:0:
192,192,121262,1,8,0:0:0:0:
192,192,121825,1,8,0:0:0:0:
64,192,122200,1,2,0:0:0:0:
320,192,122387,1,2,0:0:0:0:
448,192,122762,1,8,0:0:0:0:
448,192,123325,1,8,0:0:0:0:
192,192,123700,1,2,0:0:0:0:
320,192,123887,1,2,0:0:0:0:
64,192,124262,1,8,0:0:0:0:
64,192,124825,1,8,0:0:0:0:
192,192,125200,1,2,0:0:0:0:
320,192,125387,1,2,0:0:0:0:
448,192,125762,1,8,0:0:0:0:
448,192,126325,1,8,0:0:0:0:
64,192,126700,1,2,0:0:0:0:
320,192,126887,1,2,0:0:0:0:
192,192,127262,1,8,0:0:0:0:
448,192,127637,1,0,0:0:0:40:Tom1.wav
192,192,127825,1,8,0:0:0:0:
320,192,128012,1,2,0:0:0:0:
64,192,128200,128,2,129700:0:0:0:0:
448,192,128200,1,0,0:0:0:55:Crash 2.wav
320,192,130450,128,8,130825:0:0:0:0:
192,192,130825,1,8,0:0:0:0:
64,192,131200,1,8,0:0:0:0:
448,192,131200,1,4,0:0:0:0:
320,192,131387,1,2,0:0:0:0:
192,192,131762,1,8,0:0:0:0:
320,192,131950,1,2,0:0:0:0:
64,192,132325,128,8,132700:0:0:0:0:
448,192,132700,1,8,0:0:0:0:
192,192,132887,1,2,0:0:0:0:
320,192,133262,1,12,0:0:0:0:
64,192,133637,1,8,0:0:0:0:
448,192,133825,1,8,0:0:0:0:
64,192,134200,1,12,0:0:0:0:
320,192,134387,1,2,0:0:0:0:
448,192,134762,1,8,0:0:0:0:
192,192,134950,1,2,0:0:0:0:
320,192,135325,128,8,135700:0:0:0:0:
64,192,135700,1,8,0:0:0:0:
448,192,135887,1,2,0:0:0:0:
192,192,136262,1,12,0:0:0:0:
320,192,136637,1,8,0:0:0:0:
64,192,136825,1,8,0:0:0:0:
192,192,137200,1,10,0:0:0:0:
448,192,137200,1,4,0:0:0:0:
320,192,137575,1,2,0:0:0:0:
192,192,137762,1,8,0:0:0:0:
64,192,138325,1,10,0:0:0:0:
448,192,138512,1,8,0:0:0:0:
192,192,138700,1,2,0:0:0:0:
320,192,139075,1,2,0:0:0:0:
64,192,139262,1,8,0:0:0:0:
448,192,139637,1,8,0:0:0:0:
192,192,139825,1,6,0:0:0:0:
320,192,140012,1,8,0:0:0:0:
448,192,140200,1,2,0:0:0:0:
64,192,140575,1,2,0:0:0:0:
320,192,140762,1,8,0:0:0:0:
320,192,141325,1,10,0:0:0:0:
192,192,141512,1,8,0:0:0:0:
64,192,141700,128,6,142075:0:0:0:0:
448,192,142075,128,8,142450:0:0:0:0:
64,192,142450,1,2,0:0:0:0:
320,192,142637,1,8,0:0:0:0:
192,192,142825,1,8,0:0:0:0:
64,192,143200,1,8,0:0:0:0:
448,192,143200,1,4,0:0:0:0:
192,192,143387,1,2,0:0:0:0:
320,192,143762,1,8,0:0:0:0:
192,192,143950,1,2,0:0:0:0:
448,192,144325,128,8,144700:0:0:0:0:
64,192,144700,1,8,0:0:0:0:
320,192,144887,1,2,0:0:0:0:
192,192,145262,1,12,0:0:0:0:
448,192,145637,1,8,0:0:0:0:
64,192,145825,1,8,0:0:0:0:
320,192,146200,1,12,0:0:0:0:
64,192,146387,1,2,0:0:0:0:
192,192,146762,1,8,0:0:0:0:
448,192,146950,1,2,0:0:0:0:
192,192,147325,128,8,147700:0:0:0:0:
448,192,147700,1,8,0:0:0:0:
64,192,147887,1,2,0:0:0:0:
320,192,148262,1,12,0:0:0:0:
192,192,148637,1,8,0:0:0:0:
448,192,148825,1,8,0:0:0:0:
64,192,149200,1,10,0:0:0:0:
320,192,149200,1,0,0:0:0:55:Crash 2.wav
192,192,149575,1,2,0:0:0:0:
320,192,149762,1,8,0:0:0:0:
320,192,150325,1,10,0:0:0:0:
64,192,150512,1,8,0:0:0:0:
448,192,150700,1,2,0:0:0:0:
192,192,151075,1,2,0:0:0:0:
320,192,151262,1,8,0:0:0:0:
64,192,151637,1,8,0:0:0:0:
448,192,151825,1,6,0:0:0:0:
320,192,152012,1,8,0:0:0:0:
192,192,152200,1,2,0:0:0:0:
64,192,152575,1,2,0:0:0:0:
448,192,152762,1,8,0:0:0:0:
192,192,153325,1,10,0:0:0:0:
320,192,153512,1,8,0:0:0:0:
448,192,153700,128,2,154075:0:0:0:0:
192,192,154075,128,8,154450:0:0:0:0:
448,192,154450,1,2,0:0:0:0:
320,192,154637,1,8,0:0:0:0:
192,192,154825,1,8,0:0:0:0:
64,192,155012,128,6,161200:0:0:0:0:
448,192,161200,128,2,162325:0:0:0:0:
192,192,162325,1,8,0:0:0:0:
320,192,162700,128,2,163825:0:0:0:0:
64,192,163825,1,8,0:0:0:0:
192,192,164200,128,2,165325:0:0:0:0:
448,192,165325,1,8,0:0:0:0:
64,192,165700,128,2,166825:0:0:0:0:
320,192,166825,1,8,0:0:0:0:
192,192,167200,128,2,168325:0:0:0:0:
448,192,168325,1,8,0:0:0:0:
320,192,168700,128,2,169825:0:0:0:0:
192,192,169825,1,8,0:0:0:0:
64,192,170200,128,2,171325:0:0:0:0:
448,192,171325,1,8,0:0:0:0:
320,192,171700,128,2,172825:0:0:0:0:
64,192,172825,128,8,173200:0:0:0:0:
448,192,173200,128,2,174325:0:0:0:0:
192,192,174325,128,8,174700:0:0:0:0:
320,192,174700,128,2,175262:0:0:0:0:
64,192,175262,128,2,175825:0:0:0:0:
448,192,175825,128,8,176200:0:0:0:0:
192,192,176200,128,2,177325:0:0:0:0:
320,192,177325,128,8,177700:0:0:0:0:
64,192,177700,128,2,178825:0:0:0:0:
192,192,178825,128,8,179200:0:0:0:0:
320,192,179200,128,2,180325:0:0:0:0:
192,192,180325,128,8,180700:0:0:0:0:
448,192,180700,128,2,181262:0:0:0:0:
320,192,181262,128,2,181825:0:0:0:0:
64,192,181825,128,8,182200:0:0:0:0:
448,192,182200,128,2,183325:0:0:0:0:
192,192,183325,128,8,183700:0:0:0:0:
320,192,183700,128,2,184825:0:0:0:0:
64,192,184825,128,8,185200:0:0:0:0:
448,192,185200,1,8,0:0:0:0:
192,192,185387,1,8,0:0:0:0:
320,192,185762,1,8,0:0:0:0:
320,192,186325,1,8,0:0:0:0:
64,192,186700,1,8,0:0:0:0:
448,192,186887,1,8,0:0:0:0:
192,192,187262,1,8,0:0:0:0:
192,192,187825,1,8,0:0:0:0:
320,192,188200,1,8,0:0:0:0:
192,192,188387,1,8,0:0:0:0:
64,192,188762,1,8,0:0:0:0:
64,192,189325,1,8,0:0:0:0:
192,192,189887,1,2,0:0:0:0:
448,192,190075,1,8,0:0:0:0:
64,192,190450,128,8,190825:0:0:0:0:
320,192,190825,1,8,0:0:0:0:
192,192,191012,1,2,0:0:0:0:
448,192,191200,1,8,0:0:0:0:
64,192,191387,1,8,0:0:0:0:
320,192,191762,1,8,0:0:0:0:
320,192,192325,1,8,0:0:0:0:
192,192,192700,1,8,0:0:0:0:
448,192,192887,1,8,0:0:0:0:
64,192,193262,1,8,0:0:0:0:
64,192,193825,1,8,0:0:0:0:
192,192,194200,128,2,195700:0:0:0:0:
320,192,194200,1,4,0:0:0:0:
448,192,195700,128,8,197200:0:0:0:0:
64,192,197200,1,8,0:0:0:0:
192,192,197200,1,4,0:0:0:0:
320,192,197387,1,2,0:0:0:0:
448,192,197762,1,8,0:0:0:0:
192,192,197950,1,2,0:0:0:0:
320,192,198325,128,8,198700:0:0:0:0:
64,192,198700,1,8,0:0:0:0:
448,192,198887,1,2,0:0:0:0:
192,192,199262,1,12,0:0:0:0:
320,192,199637,1,8,0:0:0:0:
64,192,199825,1,8,0:0:0:0:
448,192,200200,1,12,0:0:0:0:
192,192,200387,1,2,0:0:0:0:
64,192,200762,1,8,0:0:0:0:
320,192,200950,1,2,0:0:0:0:
192,192,201325,128,8,201700:0:0:0:0:
448,192,201700,1,8,0:0:0:0:
64,192,201887,1,2,0:0:0:0:
320,192,202262,1,12,0:0:0:0:
192,192,202637,1,8,0:0:0:0:
448,192,202825,1,8,0:0:0:0:
64,192,203200,1,2,0:0:0:0:
320,192,203200,1,4,0:0:0:0:
448,192,203575,1,2,0:0:0:0:
192,192,203762,1,8,0:0:0:0:
192,192,204325,1,10,0:0:0:0:
320,192,204512,1,8,0:0:0:0:
64,192,204700,1,2,0:0:0:0:
448,192,205075,1,2,0:0:0:0:
192,192,205262,1,8,0:0:0:0:
320,192,205637,1,8,0:0:0:0:
64,192,205825,1,6,0:0:0:0:
448,192,206012,1,8,0:0:0:0:
192,192,206200,1,2,0:0:0:0:
320,192,206575,1,2,0:0:0:0:
64,192,206762,1,8,0:0:0:0:
192,192,207325,1,10,0:0:0:0:
320,192,207512,1,8,0:0:0:0:
448,192,207700,128,6,208075:0:0:0:0:
64,192,208075,128,8,208450:0:0:0:0:
448,192,208450,1,2,0:0:0:0:
192,192,208637,1,8,0:0:0:0:
320,192,208825,1,8,0:0:0:0:
64,192,209200,1,8,0:0:0:0:
448,192,209200,1,4,0:0:0:0:
320,192,209387,1,2,0:0:0:0:
192,192,209762,1,8,0:0:0:0:
320,192,209950,1,2,0:0:0:0:
64,192,210325,128,8,210700:0:0:0:0:
448,192,210700,1,8,0:0:0:0:
192,192,210887,1,2,0:0:0:0:
320,192,211262,1,12,0:0:0:0:
64,192,211637,1,8,0:0:0:0:
448,192,211825,1,8,0:0:0:0:
320,192,212200,1,12,0:0:0:0:
64,192,212387,1,2,0:0:0:0:
192,192,212762,1,8,0:0:0:0:
448,192,212950,1,2,0:0:0:0:
320,192,213325,128,8,213700:0:0:0:0:
64,192,213700,1,8,0:0:0:0:
448,192,213887,1,2,0:0:0:0:
192,192,214262,1,12,0:0:0:0:
320,192,214637,1,8,0:0:0:0:
64,192,214825,1,8,0:0:0:0:
192,192,215200,1,10,0:0:0:0:
448,192,215200,1,0,0:0:0:55:Crash 2.wav
64,192,215575,1,2,0:0:0:0:
320,192,215762,1,8,0:0:0:0:
192,192,216325,1,10,0:0:0:0:
448,192,216512,1,8,0:0:0:0:
64,192,216700,1,2,0:0:0:0:
320,192,217075,1,2,0:0:0:0:
192,192,217262,1,8,0:0:0:0:
448,192,217637,1,8,0:0:0:0:
64,192,217825,1,6,0:0:0:0:
192,192,218012,1,8,0:0:0:0:
320,192,218200,1,2,0:0:0:0:
448,192,218575,1,2,0:0:0:0:
64,192,218762,1,8,0:0:0:0:
320,192,219325,1,10,0:0:0:0:
192,192,219512,1,8,0:0:0:0:
64,192,219700,128,2,220075:0:0:0:0:
448,192,220075,128,8,220450:0:0:0:0:
64,192,220450,1,2,0:0:0:0:
320,192,220637,1,8,0:0:0:0:
192,192,220825,1,8,0:0:0:0:
448,192,221012,1,2,0:0:0:0:
64,192,221387,128,0,222137:0:0:0:40:Tom1.wav
320,192,222137,128,8,222700:0:0:0:0:
192,192,222700,128,6,223075:0:0:0:0:
448,192,223075,128,0,223450:0:0:0:40:Tom1.wav
64,192,223450,1,6,0:0:0:0:
320,192,223637,1,8,0:0:0:0:
192,192,223825,1,8,0:0:0:0:
448,192,224012,1,2,0:0:0:0:
64,192,224762,1,0,0:0:0:0:
448,192,225137,1,8,0:0:0:0:
320,192,225325,1,8,0:0:0:0:
192,192,225512,1,8,0:0:0:0:
64,192,225700,1,2,0:0:0:0:
448,192,225700,1,4,0:0:0:0:
320,192,226075,1,10,0:0:0:0:
192,192,226450,1,2,0:0:0:0:
320,192,226825,1,10,0:0:0:0:
64,192,227200,1,2,0:0:0:0:
448,192,227575,1,10,0:0:0:0:
192,192,227950,1,2,0:0:0:0:
448,192,228137,1,8,0:0:0:0:
320,192,228325,1,8,0:0:0:0:
192,192,228512,1,8,0:0:0:0:
64,192,228700,1,2,0:0:0:0:
448,192,228700,1,4,0:0:0:0:
192,192,229075,1,10,0:0:0:0:
320,192,229450,1,2,0:0:0:0:
64,192,229825,1,10,0:0:0:0:
448,192,230200,1,2,0:0:0:0:
192,192,230575,1,10,0:0:0:0:
320,192,230950,1,2,0:0:0:0:
64,192,231137,1,8,0:0:0:0:
192,192,231325,1,8,0:0:0:0:
320,192,231512,1,8,0:0:0:0:
64,192,231700,128,2,237700:0:0:0:0:
448,192,231700,1,4,0:0:0:0:
