osu file format v14

[General]
AudioFilename: audio.mp3
AudioLeadIn: 0
PreviewTime: 66250
Countdown: 0
SampleSet: Normal
StackLeniency: 0.2
Mode: 0
LetterboxInBreaks: 0
WidescreenStoryboard: 0

[Editor]
Bookmarks: 21250,36250,51250,66250,81250
DistanceSpacing: 1
BeatDivisor: 4
GridSize: 8
TimelineZoom: 2.7

[Metadata]
Title:Starlight (SIF Edit)
TitleUnicode:Starlight (SIF Edit)
Artist:Karin Asaka (CV.Miyu Kubota)
ArtistUnicode:朝香果林 (CV.久保田未夢)
Creator:Cxk224
Version:MASTER Lv.11
Source:Love Live! School Idol Festival Perfect Dream Project
Tags:LoveLive SIF Kubota Miyu Asaka Karin PDP
BeatmapID:1848079
BeatmapSetID:884108

[Difficulty]
HPDrainRate:6
CircleSize:4
OverallDifficulty:8
ApproachRate:9
SliderMultiplier:2
SliderTickRate:1

[Events]
//Background and Video events
//Break Periods
//Storyboard Layer 0 (Background)
//Storyboard Layer 1 (Fail)
//Storyboard Layer 2 (Pass)
//Storyboard Layer 3 (Foreground)
//Storyboard Sound Samples

[TimingPoints]
2500,468.75,4,1,0,15,1,0
2968,-71.4285714285714,4,1,0,15,0,0
3437,-83.3333333333333,4,1,0,15,0,0
3906,-55.5555555555556,4,1,0,15,0,0
4375,-66.6666666666667,4,1,0,15,0,0
4843,-55.5555555555556,4,1,0,15,0,0
5312,-50,4,1,0,15,0,0
6250,-100,4,1,0,35,0,0
9531,-200,4,1,0,35,0,0
10000,-100,4,1,0,35,0,0
10937,-80,4,1,0,35,0,0
11406,-133.333333333333,4,1,0,35,0,0
11875,-100,4,1,0,35,0,0
12812,-80,4,1,0,35,0,0
13750,-58.8235294117647,4,1,0,35,0,0
14218,-100,4,1,0,35,0,0
15625,-58.8235294117647,4,1,0,35,0,0
16093,-100,4,1,0,35,0,0
16562,-66.6666666666667,4,1,0,35,0,0
18437,-80,4,1,0,35,0,0
18671,-66.6666666666667,4,1,0,35,0,0
25351,-100,4,1,0,35,0,0
25703,-57.1428571428571,4,1,0,35,0,0
26875,-66.6666666666667,4,1,0,35,0,0
34375,-55.5555555555556,4,1,0,50,0,0
34726,-44.6428571428571,4,1,0,50,0,0
35312,-30.03003003003,4,1,0,45,0,0
38125,-200,4,1,0,45,0,0
43046,-66.6666666666667,4,1,0,45,0,0
43750,-50,4,1,0,45,0,0
44101,-55.5555555555556,4,1,0,45,0,0
44687,-50,4,1,0,45,0,0
45156,-100,4,1,0,45,0,0
45390,-55.5555555555556,4,1,0,45,0,0
46562,-80,4,1,0,45,0,0
55000,-133.333333333333,4,1,0,30,0,0
57812,-100,4,1,0,30,0,0
63906,-58.8235294117647,4,1,0,30,0,0
64375,-30.03003003003,4,1,0,30,0,0
65312,-50,4,1,0,30,0,0
65781,-30.7692307692308,4,1,0,55,0,0
66718,-40,4,1,0,55,0,0
67187,-52.6315789473684,4,1,0,55,0,0
67890,-66.6666666666667,4,1,0,55,0,0
68125,-40,4,1,0,55,0,0
68593,-35.7142857142857,4,1,0,55,0,0
69062,-50,4,1,0,55,0,0
70000,-55.5555555555556,4,1,0,55,0,0
71406,-50,4,1,0,55,0,0
71875,-44.6428571428571,4,1,0,55,0,0
75625,-40,4,1,0,55,0,0
77968,-50,4,1,0,55,0,0
80780,-100,4,1,0,35,0,0
81718,-66.6666666666667,4,1,0,35,0,0
82187,-90.9090909090909,4,1,0,35,0,0
83125,-66.6666666666667,4,1,0,35,0,0
86875,-50,4,1,0,35,0,0
88867,-50,4,1,0,10,0,0

[HitObjects]
334,177,2500,6,0,P|393:194|430:218,1,100
310,272,2851,1,0,0:0:0:0:
310,272,2968,2,0,P|240:225|203:178,1,139.999995727539
199,146,3320,1,0,0:0:0:0:
251,214,3437,6,0,P|249:284|234:332,1,119.999996337891
137,283,3789,1,0,0:0:0:0:
137,283,3906,2,0,P|171:182|216:120,1,179.999994506836
287,97,4257,1,0,0:0:0:0:
194,98,4375,6,0,P|109:72|57:36,1,150.000005722046
97,157,4726,1,0,0:0:0:0:
97,157,4843,2,0,P|73:259|35:325,1,179.999994506836
96,379,5195,1,0,0:0:0:0:
177,332,5312,6,0,L|382:322,1,200
367,227,5664,1,0,0:0:0:0:
367,227,5781,6,0,L|253:221,1,100
180,210,6015,1,0,0:0:0:0:
106,277,6132,1,0,0:0:0:0:
32,345,6249,5,0,0:0:0:0:
32,345,6718,1,0,0:0:0:0:
32,345,7187,1,0,0:0:0:0:
32,345,7656,1,0,0:0:0:0:
32,345,8125,6,0,L|49:237,1,100
120,78,8476,1,0,0:0:0:0:
120,78,8828,1,0,0:0:0:0:
197,61,8945,1,0,0:0:0:0:
274,46,9062,2,0,P|290:122|262:204,1,150
129,307,9531,6,0,L|105:339,1,25
349,345,9765,6,0,L|362:379,1,25
283,177,10000,6,0,B|277:119|277:119|311:32,1,150
472,136,10468,1,0,0:0:0:0:
472,136,10703,1,0,0:0:0:0:
455,205,10820,1,0,0:0:0:0:
433,273,10937,2,0,P|334:293|251:271,1,187.5
101,148,11406,6,0,L|59:132,1,37.5000014305115
322,69,11640,6,0,L|354:37,1,37.5000014305115
253,255,11875,6,0,L|243:370,1,100
294,216,12226,2,0,L|284:331,1,100
154,188,12578,1,0,0:0:0:0:
322,71,12812,6,0,P|387:67|438:99,1,125
262,127,13164,2,0,P|305:78|363:64,1,125
372,260,13515,1,0,0:0:0:0:
168,384,13750,6,0,L|-15:363,1,170.000003242493
110,178,14218,2,0,L|101:288,1,100
115,118,14687,2,0,L|106:228,1,100
121,62,15156,2,0,L|112:172,1,100
190,384,15625,6,0,L|7:363,1,170.000003242493
309,356,16093,1,0,0:0:0:0:
145,249,16328,1,0,0:0:0:0:
153,174,16445,1,0,0:0:0:0:
161,99,16562,1,0,0:0:0:0:
81,205,16796,5,0,0:0:0:0:
372,375,17031,6,0,L|350:292,1,75.0000028610231
94,360,17265,6,0,L|128:281,1,75.0000028610231
368,208,17500,5,0,0:0:0:0:
132,253,17734,1,0,0:0:0:0:
86,48,17968,5,0,0:0:0:0:
322,4,18202,1,0,0:0:0:0:
71,53,18437,6,0,L|82:122,1,62.5
125,365,18671,2,0,L|106:257,1,75.0000028610231
349,13,18906,6,0,L|368:143,1,75.0000028610231
404,327,19140,2,0,L|385:219,1,75.0000028610231
472,28,19375,5,0,0:0:0:0:
471,113,19492,1,0,0:0:0:0:
398,152,19609,1,0,0:0:0:0:
310,143,19726,1,0,0:0:0:0:
224,114,19843,5,0,0:0:0:0:
126,125,19960,1,0,0:0:0:0:
43,190,20078,1,0,0:0:0:0:
22,293,20195,1,0,0:0:0:0:
72,382,20312,5,0,0:0:0:0:
256,192,21250,5,0,0:0:0:0:
256,192,21718,1,0,0:0:0:0:
256,192,22187,5,0,0:0:0:0:
256,192,22539,1,0,0:0:0:0:
256,192,22890,1,0,0:0:0:0:
424,49,23125,5,0,0:0:0:0:
424,49,23593,1,0,0:0:0:0:
424,49,24062,5,0,0:0:0:0:
424,49,24414,1,0,0:0:0:0:
424,49,24765,1,0,0:0:0:0:
354,192,25000,6,0,P|348:277|354:348,1,150.000005722046
233,135,25351,2,0,L|232:81,1,50
48,206,25703,2,0,P|64:294|68:382,1,175.00000166893
376,112,26289,5,0,0:0:0:0:
376,112,26640,1,0,0:0:0:0:
363,343,26875,6,0,P|461:355|424:266,1,225.000008583069
269,324,27343,1,0,0:0:0:0:
95,256,27578,1,0,0:0:0:0:
248,174,27812,2,0,P|256:265|236:321,1,150.000005722046
85,48,28281,2,0,P|164:20|237:8,1,150.000005722046
337,203,28750,5,0,0:0:0:0:
337,203,29101,2,0,L|467:108,1,150.000005722046
258,165,29453,1,0,0:0:0:0:
167,29,29687,5,0,0:0:0:0:
167,29,30039,1,0,0:0:0:0:
151,243,30390,1,0,0:0:0:0:
333,351,30625,5,0,0:0:0:0:
333,351,30976,2,0,P|268:333|180:326,1,150.000005722046
309,241,31328,2,0,L|251:181,1,75.0000028610231
44,172,31562,5,0,0:0:0:0:
44,172,32031,1,0,0:0:0:0:
231,72,32265,1,0,0:0:0:0:
254,337,32500,6,0,L|224:181,1,150.000005722046
372,53,32968,1,0,0:0:0:0:
456,345,33203,2,0,L|486:189,1,150.000005722046
319,281,33671,1,0,0:0:0:0:
259,55,33906,6,0,P|355:43|409:60,1,150.000005722046
190,336,34375,5,0,0:0:0:0:
173,226,34492,2,0,P|151:184|120:148,1,89.9999972534181
329,307,34726,6,0,P|419:291|351:225,1,224.000002734375
159,282,35078,1,0,0:0:0:0:
89,239,35195,1,0,0:0:0:0:
69,160,35312,1,0,0:0:0:0:
112,90,35429,5,0,0:0:0:0:
192,70,35546,1,0,0:0:0:0:
263,114,35664,1,0,0:0:0:0:
281,193,35781,1,0,0:0:0:0:
238,263,35898,5,0,0:0:0:0:
159,282,36015,1,0,0:0:0:0:
89,239,36132,1,0,0:0:0:0:
69,160,36250,5,0,0:0:0:0:
286,217,36718,5,0,0:0:0:0:
248,163,37890,5,0,0:0:0:0:
392,140,38125,2,0,P|397:172|394:198,1,50
325,288,38593,5,0,0:0:0:0:
169,201,39765,5,0,0:0:0:0:
150,264,39882,1,0,0:0:0:0:
131,329,39999,1,0,0:0:0:0:
320,277,40468,5,0,0:0:0:0:
165,175,41640,5,0,0:0:0:0:
118,298,41875,2,0,P|90:305|63:302,1,50
246,344,42343,5,0,0:0:0:0:
220,53,42812,5,0,0:0:0:0:
238,91,42929,1,0,0:0:0:0:
251,129,43046,2,0,L|250:215,1,75.0000028610231
247,317,43281,2,0,L|245:358,1,37.5000014305115
247,317,43515,2,0,L|248:276,1,37.5000014305115
89,101,43750,6,0,P|80:202|55:308,1,200
44,233,44101,2,0,P|149:214|225:239,1,179.999994506836
281,327,44453,1,0,0:0:0:0:
364,19,44687,5,0,0:0:0:0:
411,107,44804,2,0,P|420:208|445:314,1,200
448,145,45156,2,0,L|440:93,1,50
228,51,45390,6,0,L|135:64,1,89.9999972534181
235,182,45625,6,0,L|243:374,1,179.999994506836
388,177,46093,2,0,P|323:104|236:86,1,179.999994506836
190,328,46562,2,0,P|146:315|85:259,1,125
99,151,46914,2,0,P|69:186|50:266,1,125
208,257,47265,5,0,0:0:0:0:
397,75,47500,6,0,L|400:39,1,31.25
114,75,47734,6,0,L|110:39,1,31.25
390,87,47968,6,0,L|393:52,1,31.25
120,87,48202,6,0,L|117:52,1,31.25
256,240,48437,6,0,L|256:192,1,31.25
136,304,48671,6,0,L|104:288,1,31.25
376,304,48906,6,0,L|408:288,1,31.25
146,240,49140,1,0,0:0:0:0:
102,185,49257,1,0,0:0:0:0:
99,117,49374,5,0,0:0:0:0:
184,57,49609,1,0,0:0:0:0:
291,69,49843,5,0,0:0:0:0:
347,200,50078,1,0,0:0:0:0:
255,45,50312,1,0,0:0:0:0:
178,36,50429,1,0,0:0:0:0:
113,79,50546,1,0,0:0:0:0:
92,154,50664,1,0,0:0:0:0:
28,206,50781,5,0,0:0:0:0:
12,283,50898,1,0,0:0:0:0:
51,352,51015,1,0,0:0:0:0:
128,380,51132,1,0,0:0:0:0:
219,350,51250,5,0,0:0:0:0:
219,350,51953,1,0,0:0:0:0:
219,350,52656,1,0,0:0:0:0:
219,350,53359,5,0,0:0:0:0:
315,293,53593,1,0,0:0:0:0:
421,314,53828,1,0,0:0:0:0:
476,220,54062,2,0,P|475:136|451:91,1,125
360,58,54531,1,0,0:0:0:0:
155,306,55000,6,0,P|133:266|126:220,1,75.0000028610231
122,218,55351,2,0,P|120:255|130:291,1,75.0000028610231,0|0,2:0|2:0,2:0:0:0:
143,305,55703,1,0,0:0:0:0:
156,69,56171,6,0,L|144:131,1,37.5000014305115
244,73,56406,2,0,L|232:135,1,37.5000014305115
335,78,56640,2,0,L|323:140,1,37.5000014305115
413,198,56875,6,0,L|432:321,1,112.500004291535
450,304,57343,2,0,L|432:192,1,112.500004291535
403,169,57812,2,0,P|428:138|426:200,1,150
286,264,58281,6,0,L|119:252,1,150
68,82,58750,5,0,0:0:0:0:
68,82,59218,5,0,0:0:0:0:
211,199,59453,1,0,0:0:0:0:
211,199,60156,1,0,0:0:0:0:
211,199,60859,5,0,0:0:0:0:
342,184,61093,1,0,0:0:0:0:
346,305,61328,1,0,0:0:0:0:
207,311,61562,1,0,0:0:0:0:
211,188,61796,1,0,0:0:0:0:
207,311,62031,2,0,L|323:306,1,100
125,55,62500,5,0,0:0:0:0:
125,55,62968,1,0,0:0:0:0:
125,55,63437,1,0,0:0:0:0:
129,58,63906,6,0,P|175:53|221:69,1,85.0000016212464
317,147,64140,2,0,P|361:131|409:137,1,85.0000016212464
441,313,64375,6,0,P|410:347|368:357,1,83.2500020324708
360,351,64492,6,0,P|314:353|277:330,1,83.2500020324708
276,321,64609,6,0,P|242:290|232:248,1,83.2500020324708
238,242,64726,6,0,P|236:196|258:158,1,83.2500020324708
268,158,64843,6,0,P|297:125|340:114,1,83.2500020324708
348,120,64961,6,0,P|391:118|430:140,1,83.2500020324708
431,149,65078,6,0,P|462:179|474:222,1,83.2500020324708
468,228,65195,6,0,P|469:273|446:311,1,83.2500020324708
441,313,65312,2,0,B|398:330|398:330|393:326|393:326|392:332|392:332|334:350,1,100
247,233,65546,2,0,B|290:216|290:216|295:220|295:220|296:214|296:214|353:195,1,100
371,173,65781,6,0,P|280:248|325:65,1,487.500013947487
469,108,66250,5,0,0:0:0:0:
366,384,66484,1,0,0:0:0:0:
299,18,66718,2,0,P|165:16|51:61,1,250
136,364,67187,2,0,L|164:77,1,284.999992389679
262,205,67656,5,0,0:0:0:0:
325,108,67773,1,0,0:0:0:0:
242,28,67890,2,0,L|165:33,1,75.0000028610231
71,195,68125,6,0,P|34:284|165:212,1,375
176,207,68593,6,0,P|91:348|66:185,1,419.999987182618
104,75,69062,1,0,0:0:0:0:
163,21,69179,1,0,0:0:0:0:
242,0,69296,1,0,0:0:0:0:
322,15,69413,1,0,0:0:0:0:
405,66,69531,5,0,0:0:0:0:
456,137,69648,1,0,0:0:0:0:
472,230,69765,1,0,0:0:0:0:
446,318,69882,1,0,0:0:0:0:
370,376,70000,6,0,L|270:365,1,89.9999972534181
124,331,70234,2,0,L|24:320,1,89.9999972534181
10,136,70468,6,0,L|110:125,1,89.9999972534181
272,96,70702,2,0,L|372:85,1,89.9999972534181
379,315,70937,1,0,0:0:0:0:
303,0,71171,1,0,0:0:0:0:
103,220,71406,2,0,P|91:118|158:49,1,200
394,258,71875,6,0,B|464:308|464:308|211:260,1,336.000004101563
131,259,72343,6,0,L|477:324,1,336.000004101563
416,140,72812,1,0,0:0:0:0:
358,84,72929,1,0,0:0:0:0:
282,57,73046,1,0,0:0:0:0:
203,63,73163,1,0,0:0:0:0:
224,160,73281,5,0,0:0:0:0:
248,256,73398,1,0,0:0:0:0:
272,354,73515,2,0,P|330:373|389:364,1,112.000001367188
318,168,73750,6,0,L|201:140,1,112.000001367188
108,46,73984,2,0,L|-9:18,1,112.000001367188
44,270,74218,2,0,L|158:258,1,112.000001367188
331,308,74453,2,0,L|445:296,1,112.000001367188
318,99,74687,6,0,L|308:225,1,112.000001367188
177,323,74921,1,0,0:0:0:0:
166,59,75156,1,0,0:0:0:0:
377,285,75390,1,0,0:0:0:0:
216,197,75625,6,0,B|183:210|151:187|151:187|156:265|61:290|11:264|-38:187|25:114|81:115,1,375
152,185,76093,6,0,B|179:207|216:195|216:195|188:268|270:321|326:312|396:253|359:165|305:148,1,375
231,61,76562,1,0,0:0:0:0:
157,96,76679,1,0,0:0:0:0:
125,171,76796,1,0,0:0:0:0:
152,248,76913,1,0,0:0:0:0:
210,320,77031,5,0,0:0:0:0:
291,364,77148,1,0,0:0:0:0:
386,344,77265,1,0,0:0:0:0:
442,266,77382,1,0,0:0:0:0:
436,165,77500,6,0,B|387:159|387:159|161:212,1,250
294,377,77851,1,0,0:0:0:0:
268,266,77968,2,0,L|247:169,1,100
129,28,78203,2,0,P|113:167|78:230,1,200
388,360,78671,1,0,0:0:0:0:
451,100,78906,5,0,0:0:0:0:
192,26,79140,2,0,P|67:45|-15:88,1,200
147,316,79609,5,0,0:0:0:0:
134,46,79843,1,0,0:0:0:0:
258,284,80078,5,0,0:0:0:0:
231,16,80312,1,0,0:0:0:0:
363,265,80546,5,0,2:0:0:0:
340,17,80781,2,0,L|353:171,1,150
253,267,81250,5,0,0:0:0:0:
197,104,81484,1,0,0:0:0:0:
131,116,81601,1,0,0:0:0:0:
65,128,81718,2,0,L|68:287,1,150.000005722046
273,328,82187,6,0,P|334:363|378:357,1,110.000003356934
415,250,82539,2,0,P|354:215|310:221,1,110.000003356934
193,379,82890,1,0,0:0:0:0:
170,267,83125,6,0,L|16:255,1,150.000005722046
193,63,83593,1,0,0:0:0:0:
393,157,83828,1,0,0:0:0:0:
370,220,83945,1,0,0:0:0:0:
348,284,84062,2,0,P|231:309|147:276,1,150.000005722046
147,200,84414,2,0,P|264:175|348:208,1,150.000005722046
420,275,84765,6,0,L|410:194,1,75.0000028610231
323,93,85000,5,0,0:0:0:0:
106,189,85351,1,0,0:0:0:0:
309,321,85703,1,0,0:0:0:0:
379,199,85937,5,0,0:0:0:0:
202,291,86171,1,0,0:0:0:0:
234,146,86406,1,0,0:0:0:0:
386,278,86640,1,0,0:0:0:0:
143,68,86875,6,0,L|121:273,1,200
299,76,87226,6,0,L|277:281,1,200
223,75,87578,6,0,L|211:177,1,100
195,347,87812,1,0,0:0:0:0:
265,380,87929,1,0,0:0:0:0:
344,380,88046,1,0,0:0:0:0:
414,346,88163,1,0,0:0:0:0:
462,269,88280,5,0,0:0:0:0:
477,173,88397,1,0,0:0:0:0:
438,72,88515,1,0,0:0:0:0:
344,7,88632,1,0,0:0:0:0:
214,17,88750,5,0,0:0:0:0:
256,192,88867,12,0,92500,0:0:0:0:
