osu file format v14

[General]
AudioFilename: audio.mp3
AudioLeadIn: 0
PreviewTime: 66250
Countdown: 0
SampleSet: None
StackLeniency: 0.2
Mode: 0
LetterboxInBreaks: 0
WidescreenStoryboard: 1

[Editor]
Bookmarks: 21250,36250,51250,66250,81250
DistanceSpacing: 1.1
BeatDivisor: 4
GridSize: 8
TimelineZoom: 2.7

[Metadata]
Title:Starlight (SIF Edit)
TitleUnicode:Starlight (SIF Edit)
Artist:Karin Asaka (CV.Miyu Kubota)
ArtistUnicode:朝香果林 (CV.久保田未夢)
Creator:Cxk224
Version:2019 SIFAS Remap
Source:Love Live! School Idol Festival Perfect Dream Project
Tags:LoveLive SIF Kubota Miyu Asaka Karin PDP
BeatmapID:2199300
BeatmapSetID:884108

[Difficulty]
HPDrainRate:6
CircleSize:4
OverallDifficulty:8
ApproachRate:9
SliderMultiplier:2
SliderTickRate:1

[Events]
//Background and Video events
//Break Periods
//Storyboard Layer 0 (Background)
//Storyboard Layer 1 (Fail)
//Storyboard Layer 2 (Pass)
//Storyboard Layer 3 (Foreground)
//Storyboard Layer 4 (Overlay)
//Storyboard Sound Samples

[TimingPoints]
2500,468.75,4,1,0,15,1,0
2968,-80,4,1,0,20,0,0
3437,-66.6666666666667,4,1,0,25,0,0
3906,-66.6666666666667,4,1,0,30,0,0
4375,-57.1428571428571,4,1,0,35,0,0
4843,-50,4,1,0,40,0,0
5312,-44.6428571428571,4,1,0,40,0,0
6250,-66.6666666666667,4,1,0,50,0,0
13750,-66.6666666666667,4,1,0,80,0,0
17031,-133.333333333333,4,1,0,80,0,0
17500,-100,4,1,0,80,0,0
17968,-57.1428571428571,4,1,0,80,0,0
18437,-40,4,1,0,80,0,0
18906,-25,4,1,0,80,0,0
21250,-66.6666666666667,4,1,0,60,0,0
25351,-100,4,1,0,60,0,0
33203,-66.6666666666667,4,1,0,60,0,0
33906,-50,4,1,0,60,0,0
34375,-50,4,1,0,80,0,0
36250,-50,4,1,0,60,0,0
42812,-100,4,1,0,60,0,0
43750,-44.6428571428571,4,1,0,85,0,0
45156,-66.6666666666667,4,1,0,85,0,0
45859,-44.6428571428571,4,1,0,85,0,0
46210,-66.6666666666667,4,1,0,85,0,0
47968,-50,4,1,0,85,0,0
48437,-40,4,1,0,85,0,0
51250,-100,4,1,0,60,0,0
56875,-133.333333333333,4,1,0,60,0,0
58750,-66.6666666666667,4,1,0,70,0,0
63906,-33.3333333333333,4,1,0,70,0,0
64375,-30.03003003003,4,1,0,90,0,0
66250,-30.03003003003,4,1,0,90,0,1
80781,-30.03003003003,4,1,0,90,0,0

[HitObjects]
428,346,2500,6,0,L|317:326,1,100
259,231,2851,1,0,0:0:0:0:
259,231,2968,2,0,L|392:254,1,125
262,366,3320,1,0,0:0:0:0:
232,378,3437,2,0,L|259:220,1,150.000005722046
410,171,3789,1,0,0:0:0:0:
440,159,3906,2,0,L|412:316,1,150.000005722046
171,215,4257,1,0,0:0:0:0:
161,134,4375,6,0,L|350:167,1,175.00000166893
482,315,4726,1,0,0:0:0:0:
482,315,4843,2,0,L|277:278,1,200
208,100,5195,1,0,0:0:0:0:
230,26,5312,2,0,L|191:246,1,224.000002734375
82,370,5664,1,0,0:0:0:0:
51,384,5781,6,0,L|73:257,1,112.000001367188
48,177,6015,1,0,0:0:0:0:
131,224,6132,1,0,0:0:0:0:
214,272,6249,5,0,0:0:0:0:
214,272,6718,1,0,0:0:0:0:
214,272,7187,1,0,0:0:0:0:
214,272,7656,1,0,0:0:0:0:
493,267,7890,1,0,0:0:0:0:
422,279,8007,1,0,0:0:0:0:
351,292,8125,2,0,B|264:307|264:307|208:268,1,150.000005722046
178,346,8476,2,0,B|91:361|91:361|35:322,1,150.000005722046
238,104,8828,5,0,0:0:0:0:
250,174,8945,1,0,0:0:0:0:
263,245,9062,2,0,B|267:268|267:268|280:298|280:298|256:343|256:343|264:390,1,150.000005722046
186,251,9414,2,0,B|162:255|162:255|132:268|132:268|87:244|87:244|40:252,1,150.000005722046
40,325,9765,5,0,0:0:0:0:
0,108,10000,2,0,B|86:92|86:92|142:131,1,150.000005722046
201,79,10351,2,0,B|287:63|287:63|343:102,1,150.000005722046
452,302,10703,5,0,0:0:0:0:
439,231,10820,1,0,0:0:0:0:
426,160,10937,2,0,B|418:116|418:116|420:83|420:83|407:53|407:53|400:14,1,150.000005722046
247,36,11289,2,0,B|254:79|254:79|252:112|252:112|265:142|265:142|272:181,1,150.000005722046
338,99,11640,5,0,0:0:0:0:
132,384,11875,2,0,B|116:297|116:297|155:241,1,150.000005722046
90,181,12226,2,0,B|176:165|176:165|232:204,1,150.000005722046
227,282,12578,1,0,0:0:0:0:
470,47,12812,6,0,B|383:31|383:31|327:70,1,150.000005722046
267,5,13163,2,0,B|251:91|251:91|290:147,1,150.000005722046
368,142,13515,1,0,0:0:0:0:
345,383,13750,5,0,0:0:0:0:
345,383,14218,1,0,0:0:0:0:
345,383,14687,1,0,0:0:0:0:
345,383,15156,1,0,0:0:0:0:
49,174,15390,1,0,0:0:0:0:
69,177,15507,1,0,0:0:0:0:
90,181,15625,5,0,0:0:0:0:
90,181,16093,1,0,0:0:0:0:
90,181,16562,1,0,0:0:0:0:
90,181,17031,6,0,L|99:125,1,37.5000014305115
100,180,17265,2,0,L|109:124,1,37.5000014305115
248,319,17500,6,0,L|259:382,1,50
170,332,17734,2,0,L|181:395,1,50
305,193,17968,6,0,L|323:90,1,87.500000834465
445,220,18203,2,0,L|463:117,1,87.500000834465
195,136,18437,6,0,L|53:161,1,125
1,286,18671,2,0,L|142:260,1,125
262,48,18906,6,0,L|298:252,1,200
463,384,19140,2,0,L|426:179,1,200
26,134,19375,1,0,0:0:0:0:
83,186,19492,1,0,0:0:0:0:
163,182,19609,1,0,0:0:0:0:
218,125,19726,1,0,0:0:0:0:
262,48,19843,5,0,0:0:0:0:
339,1,19960,1,0,0:0:0:0:
425,27,20078,1,0,0:0:0:0:
470,107,20195,1,0,0:0:0:0:
427,187,20312,5,0,0:0:0:0:
427,187,21250,5,0,0:0:0:0:
427,187,21718,1,0,0:0:0:0:
427,187,22187,1,0,0:0:0:0:
427,187,22539,1,0,0:0:0:0:
427,187,22890,1,0,0:0:0:0:
80,384,23125,6,0,L|110:210,1,150.000005722046
80,384,23593,1,0,0:0:0:0:
80,384,24062,1,0,0:0:0:0:
80,384,24414,1,0,0:0:0:0:
80,384,24765,1,0,0:0:0:0:
233,47,25000,6,0,B|146:31|146:31|90:70,1,150.000005722046
23,29,25351,2,0,B|12:84|12:84|37:120,1,100
113,143,25703,1,0,0:0:0:0:
430,184,25937,6,0,B|378:193|378:193|375:197|375:197|324:206,1,100
286,273,26289,2,0,B|234:282|234:282|231:286|231:286|180:295,1,100
115,272,26640,1,0,0:0:0:0:
312,48,26875,6,0,L|292:158,1,100
312,48,27343,1,0,0:0:0:0:
294,146,27578,1,0,0:0:0:0:
493,131,27812,2,0,B|466:154|466:154|388:142,1,100
312,48,28281,2,0,L|422:67,1,100
512,288,28750,6,0,L|385:310,1,100
512,288,29218,2,0,L|385:310,1,100
318,259,29687,1,0,0:0:0:0:
318,259,30039,1,0,0:0:0:0:
318,259,30390,1,0,0:0:0:0:
153,356,30625,6,0,L|46:336,1,100
12,319,31093,2,0,B|75:330|75:330|108:368,1,100
201,284,31562,2,0,L|220:173,1,100
98,357,32031,1,0,0:0:0:0:
195,303,32265,1,0,0:0:0:0:
162,112,32500,6,0,L|51:92,1,100
193,28,32968,1,0,0:0:0:0:
14,138,33203,6,0,L|171:110,1,150.000005722046
0,31,33671,1,0,0:0:0:0:
72,240,33906,6,0,L|108:35,1,200
287,384,34375,5,0,0:0:0:0:
287,384,34726,1,0,0:0:0:0:
287,384,35078,1,0,0:0:0:0:
162,303,35312,1,0,0:0:0:0:
195,315,35429,1,0,0:0:0:0:
248,307,35546,1,0,0:0:0:0:
288,257,35664,1,0,0:0:0:0:
300,186,35781,5,0,0:0:0:0:
361,132,35898,1,0,0:0:0:0:
440,144,36015,1,0,0:0:0:0:
487,209,36132,1,0,0:0:0:0:
477,289,36250,5,0,0:0:0:0:
477,289,37656,1,0,0:0:0:0:
89,358,37890,6,0,B|175:342|175:342|194:355|194:355|265:343|265:343|278:324|278:324|348:312|348:312|380:306|397:263|365:219|333:225|333:225|302:231|302:231|283:218|283:218|220:229|220:229|219:221|219:221|220:229|220:229|141:243,1,600
3,150,38828,1,0,0:0:0:0:
77,179,39062,1,0,0:0:0:0:
154,158,39296,1,0,0:0:0:0:
194,88,39531,1,0,0:0:0:0:
436,142,39765,5,0,0:0:0:0:
409,217,39882,5,0,0:0:0:0:
357,156,40000,6,0,B|348:203|348:203|361:221|361:221|351:276|351:276|351:276|351:276|342:332|342:332|338:355|278:369|227:336|231:312|231:312|238:273|238:273|225:254|225:254|246:146|246:146|263:131|263:131|273:76|273:76|277:52|258:24|234:20|234:20|179:10|179:10|155:6|128:26|122:57|122:57|118:81,1,800
365,339,41406,1,0,0:0:0:0:
365,339,41640,1,0,0:0:0:0:
70,272,41875,6,0,B|140:284|140:284|159:271|159:271|230:284|230:284|243:302|243:302|353:322|353:322|377:326|409:283|393:231|370:227|370:227|346:223|346:223|346:223|346:223|299:214|299:214|286:196|286:196|199:181,1,600
153,364,42812,6,0,L|216:375,1,50
211,365,43046,2,0,L|162:357,1,50
113,177,43281,6,0,L|124:240,1,50
29,193,43515,2,0,L|40:256,1,50
246,28,43750,6,0,B|212:66|212:66|224:136|224:136|216:138|216:138|224:136|224:136|239:222,1,224.000002734375
489,241,44101,2,0,B|449:247|449:247|448:240|448:240|449:247|449:247|378:260,1,112.000001367188
459,347,44453,6,0,B|470:320|499:314|499:314|310:347,1,224.000002734375
200,346,44804,2,0,B|263:334|263:334|307:310|307:310|357:318|357:318|428:305,1,224.000002734375
322,384,45156,6,0,L|308:305,1,75.0000028610231
106,346,45390,2,0,L|119:267,1,75.0000028610231
133,262,45625,6,0,L|119:335,1,75.0000028610231
9,118,45859,2,0,B|33:162|33:162|103:175|103:175|102:182|102:182|103:175|103:175|190:190,1,224.000002734375
216,269,46210,2,0,B|259:252|259:252|279:142,1,150.000005722046
299,1,46562,5,0,0:0:0:0:
299,1,46914,5,0,0:0:0:0:
299,1,47265,5,0,0:0:0:0:
471,171,47500,6,0,L|486:84,1,75.0000028610231
392,157,47734,2,0,L|407:70,1,75.0000028610231
278,281,47968,6,0,L|296:383,1,100
387,362,48203,2,0,L|368:259,1,100
232,112,48437,6,0,L|74:139,1,125
64,288,48671,2,0,L|221:260,1,125
289,0,48906,6,0,L|316:157,1,125
326,200,49140,1,0,0:0:0:0:
340,277,49257,1,0,0:0:0:0:
353,355,49374,1,0,0:0:0:0:
353,355,49609,5,0,0:0:0:0:
512,174,49843,1,0,0:0:0:0:
271,371,50078,1,0,0:0:0:0:
0,92,50312,1,0,0:0:0:0:
83,69,50429,1,0,0:0:0:0:
159,114,50546,1,0,0:0:0:0:
181,198,50664,1,0,0:0:0:0:
255,248,50781,5,0,0:0:0:0:
340,231,50898,1,0,0:0:0:0:
389,157,51015,1,0,0:0:0:0:
371,72,51132,1,0,0:0:0:0:
299,18,51250,5,0,0:0:0:0:
299,18,51953,1,0,0:0:0:0:
299,18,52656,1,0,0:0:0:0:
358,375,53359,5,0,0:0:0:0:
294,326,53593,1,0,0:0:0:0:
214,337,53828,1,0,0:0:0:0:
142,371,54062,2,0,L|160:268,1,100
66,348,54531,1,0,0:0:0:0:
34,274,54765,1,0,0:0:0:0:
108,38,55000,6,0,B|80:57|80:57|67:128,1,100
38,193,55351,2,0,B|65:173|65:173|78:102,1,100
108,38,55703,1,0,0:0:0:0:
407,29,56171,5,0,0:0:0:0:
342,75,56405,1,0,0:0:0:0:
262,81,56640,1,0,0:0:0:0:
192,41,56875,2,0,L|175:152,1,112.500004291535
106,189,57343,6,0,B|124:224|124:224|242:245,1,150.000005722046
512,0,58750,5,0,0:0:0:0:
512,0,59218,1,0,0:0:0:0:
512,0,59687,1,0,0:0:0:0:
512,0,60156,1,0,0:0:0:0:
404,384,60859,5,0,0:0:0:0:
376,306,61093,1,0,0:0:0:0:
413,232,61328,1,0,0:0:0:0:
493,215,61562,1,0,0:0:0:0:
300,312,61796,6,0,L|221:298,1,75.0000028610231
153,285,62031,1,0,0:0:0:0:
153,285,62265,1,0,0:0:0:0:
0,0,62500,5,0,0:0:0:0:
366,60,62968,5,0,0:0:0:0:
316,383,63437,5,0,0:0:0:0:
165,80,63906,6,0,B|127:105|127:105|120:145|120:145|113:143|113:143|120:145|120:145|111:200,1,150.000005722046
93,270,64140,2,0,B|163:282|163:282|188:278|188:278|244:288,1,150.000005722046
407,310,64375,6,0,P|376:344|334:354,1,83.2500020324708
326,348,64492,6,0,P|280:350|243:327,1,83.2500020324708
242,318,64609,6,0,P|208:287|198:245,1,83.2500020324708
204,239,64726,6,0,P|202:193|224:155,1,83.2500020324708
234,155,64843,6,0,P|263:122|306:111,1,83.2500020324708
314,117,64961,6,0,P|357:115|396:137,1,83.2500020324708
397,146,65078,6,0,P|428:176|440:219,1,83.2500020324708
434,225,65195,6,0,P|435:270|412:308,1,83.2500020324708
407,310,65312,6,0,B|370:242|370:242|422:168|422:168|497:220|497:220|486:296,1,333.000008129883
55,348,65781,2,0,B|4:387|4:387|146:362|146:362|155:368|155:368|313:340|313:340|322:347|322:347|429:327,1,499.500012194825
