osu file format v14

[General]
AudioFilename: audio.mp3
AudioLeadIn: 0
PreviewTime: 5104
Countdown: 0
SampleSet: Soft
StackLeniency: 0.7
Mode: 0
LetterboxInBreaks: 0
WidescreenStoryboard: 0

[Editor]
DistanceSpacing: 1.4
BeatDivisor: 4
GridSize: 4
TimelineZoom: 1

[Metadata]
Title:Where You Belong
TitleUnicode:Where You Belong
Artist:Kari Kimmel
ArtistUnicode:Kari Kimmel
Creator:MkGuh
Version:Fosters
Source:The Fosters
Tags:Lumael Serie TV Show Netflix Foster Maia Mitchell Cierra Ramirez Jake T. Austin Noah Centineo Teri Polo Sherri Saum Hayden Byerly David Lambert Danny Nucci calm slow piano Freeform
BeatmapID:1438611
BeatmapSetID:680367

[Difficulty]
HPDrainRate:6
CircleSize:5.5
OverallDifficulty:6.6
ApproachRate:7.5
SliderMultiplier:1.9
SliderTickRate:1

[Events]
//Background and Video events
0,0,"the-fosters-cast.jpg",0,0
Video,130,"1.flv"
//Break Periods
//Storyboard Layer 0 (Background)
//Storyboard Layer 1 (Fail)
//Storyboard Layer 2 (Pass)
//Storyboard Layer 3 (Foreground)
//Storyboard Sound Samples

[TimingPoints]
1156,750,4,2,1,31,1,0
1156,-142.857142857143,4,2,1,31,0,0
6031,-90.9090909090909,4,2,0,60,0,0
7170,750,4,2,0,60,1,0
7170,-90.9090909090909,4,2,0,60,0,0
28920,-142.857142857143,4,2,0,50,0,0
31170,-166.666666666667,4,2,0,50,0,0
32670,-166.666666666667,4,2,0,45,0,0
33420,-166.666666666667,4,2,0,40,0,0
34170,-166.666666666667,4,2,0,35,0,0
34920,-166.666666666667,4,2,0,30,0,0
35670,-166.666666666667,4,2,0,25,0,0
36420,-166.666666666667,4,2,0,20,0,0

[Colours]
Combo1 : 255,187,119
Combo2 : 132,215,255
Combo3 : 109,102,255
Combo4 : 122,122,61
Combo5 : 240,120,0

[HitObjects]
151,95,1156,5,2,0:0:0:0:
234,155,1531,1,0,0:0:0:0:
212,21,1906,1,2,0:0:0:0:
306,77,2281,1,0,0:0:0:0:
148,168,2656,5,2,0:0:0:0:
234,155,3031,1,0,0:0:0:0:
96,116,3406,2,0,P|74:160|76:203,1,66.4999979705811,2|0,0:0|0:0,0:0:0:0:
104,292,4156,5,2,0:0:0:0:
204,332,4531,1,0,0:0:0:0:
192,200,4906,1,2,0:0:0:0:
344,304,5281,5,0,0:0:0:0:
236,272,5656,1,2,0:0:0:0:
356,152,6031,1,4,3:3:0:0:
364,324,6406,1,2,0:3:0:0:
204,236,6781,1,4,0:3:0:0:
408,84,7170,6,0,P|441:141|435:185,1,104.500003189087,4|0,0:1|0:0,0:0:0:0:
456,264,7732,1,0,0:0:0:0:
376,308,7920,2,0,L|259:295,1,104.500003189087,0|0,1:0|0:0,0:0:0:0:
128,120,8670,2,0,P|132:162|144:193,1,52.2500015945435,2|0,0:0|0:0,0:0:0:0:
240,120,9045,2,0,P|245:94|246:68,1,52.2500015945435
160,12,9420,1,0,1:0:0:0:
40,148,9795,1,0,0:0:0:0:
178,304,10170,6,0,P|237:313|289:277,1,104.500003189087,2|0,0:0|0:0,0:0:0:0:
336,220,10732,1,0,0:0:0:0:
416,280,10920,2,0,L|399:393,1,104.500003189087,0|0,1:0|0:0,0:0:0:0:
325,231,11670,1,2,0:0:0:0:
325,231,11857,2,0,L|316:116,1,104.500003189087,2|0,0:0|0:0,0:0:0:0:
305,54,12420,2,0,P|355:65|378:94,1,52.2500015945435,0|0,1:0|0:0,0:0:0:0:
448,144,12795,2,0,P|398:133|375:104,1,52.2500015945435
305,54,13170,6,0,L|192:72,1,104.500003189087,2|0,0:0|0:0,0:0:0:0:
108,48,13732,1,0,0:0:0:0:
64,132,13920,2,0,P|71:183|53:231,1,104.500003189087,0|0,1:0|0:0,0:0:0:0:
124,308,14482,1,0,0:0:0:0:
185,227,14670,2,0,L|268:216,1,52.2500015945435,2|0,0:0|0:0,0:0:0:0:
342,142,15045,2,0,L|267:153,1,52.2500015945435
425,146,15420,2,0,P|405:85|361:62,1,104.500003189087,0|0,1:0|0:0,0:0:0:0:
403,231,16170,6,0,L|413:366,1,104.500003189087,2|0,0:0|0:0,0:0:0:0:
324,384,16732,1,0,0:0:0:0:
228,348,16920,2,0,P|224:316|240:276,1,52.2500015945435,0|0,1:0|0:0,0:0:0:0:
312,208,17295,2,0,P|316:240|300:280,1,52.2500015945435
204,208,17670,1,2,0:0:0:0:
344,124,18045,1,0,0:0:0:0:
200,60,18420,2,0,P|192:8|200:-12,2,52.2500015945435,4|0|0,0:0|0:0|0:0,0:0:0:0:
388,178,19170,6,0,P|335:203|270:177,1,104.500003189087,4|0,0:0|0:0,0:0:0:0:
204,168,19732,1,0,0:0:0:0:
205,256,19920,2,0,P|212:326|184:367,1,104.500003189087,0|0,1:0|0:0,0:0:0:0:
104,352,20482,1,0,0:0:0:0:
48,248,20670,2,0,L|58:181,1,52.2500015945435,2|0,0:0|0:0,0:0:0:0:
125,103,21045,2,0,L|133:181,1,52.2500015945435
24,75,21420,1,0,1:0:0:0:
191,20,21795,2,0,P|233:17|254:24,1,52.2500015945435
392,152,22170,6,0,P|341:166|287:148,1,104.500003189087,2|0,0:0|0:0,0:0:0:0:
217,84,22732,1,0,0:0:0:0:
160,168,22920,2,0,L|165:274,1,104.500003189087,0|0,1:0|0:0,0:0:0:0:
220,356,23482,1,0,0:0:0:0:
315,355,23670,2,0,L|387:348,1,52.2500015945435,2|0,0:0|0:0,0:0:0:0:
463,335,24045,2,0,P|469:290|457:258,1,52.2500015945435
421,196,24420,1,0,1:0:0:0:
376,110,24607,1,0,0:0:0:0:
376,110,24795,2,0,L|381:44,1,52.2500015945435
228,72,25170,6,0,B|186:88|161:53|120:74,1,104.500003189087,2|0,0:0|0:0,0:0:0:0:
282,248,25920,2,0,B|324:232|349:267|390:246,1,104.500003189087,0|0,1:0|0:0,0:0:0:0:
471,72,26670,1,2,0:0:0:0:
471,72,26857,2,0,P|444:125|455:192,1,104.500003189087,2|0,0:0|0:0,0:0:0:0:
466,249,27420,1,0,1:0:0:0:
239,225,27795,1,0,0:0:0:0:
343,352,28170,1,2,0:0:0:0:
363,158,28545,1,0,0:0:0:0:
176,30,28920,6,0,B|117:18|71:54|71:54|63:102|17:122|17:122|81:178|104:148|102:94|161:90|191:130,1,398.999987823487,4|2,0:1|0:0,0:0:0:0:
256,192,31357,12,2,37357,0:0:0:0:
