osu file format v14

[General]
AudioFilename: audio.mp3
AudioLeadIn: 0
PreviewTime: 5104
Countdown: 0
SampleSet: Soft
StackLeniency: 0.7
Mode: 0
LetterboxInBreaks: 0
WidescreenStoryboard: 0

[Editor]
DistanceSpacing: 1.4
BeatDivisor: 4
GridSize: 4
TimelineZoom: 1

[Metadata]
Title:Where You Belong
TitleUnicode:Where You Belong
Artist:Kari Kimmel
ArtistUnicode:Kari Kimmel
Creator:MkGuh
Version:Hard
Source:The Fosters
Tags:Lumael Serie TV Show Netflix Foster Maia Mitchell Cierra Ramirez Jake T. Austin Noah Centineo Teri Polo Sherri Saum Hayden Byerly David Lambert Danny Nucci calm slow piano Freeform
BeatmapID:1438610
BeatmapSetID:680367

[Difficulty]
HPDrainRate:5
CircleSize:4.5
OverallDifficulty:5.6
ApproachRate:6.6
SliderMultiplier:1.7
SliderTickRate:1

[Events]
//Background and Video events
0,0,"the-fosters-cast.jpg",0,0
Video,130,"1.flv"
//Break Periods
//Storyboard Layer 0 (Background)
//Storyboard Layer 1 (Fail)
//Storyboard Layer 2 (Pass)
//Storyboard Layer 3 (Foreground)
//Storyboard Sound Samples

[TimingPoints]
1156,750,4,2,1,40,1,0
1156,-166.666666666667,4,2,1,40,0,0
6031,-100,4,2,0,60,0,0
7170,750,4,2,0,60,1,0
28920,-166.666666666667,4,2,0,50,0,0
32670,-166.666666666667,4,2,0,45,0,0
33420,-166.666666666667,4,2,0,40,0,0
34170,-166.666666666667,4,2,0,35,0,0
34920,-166.666666666667,4,2,0,30,0,0
35670,-166.666666666667,4,2,0,25,0,0
36420,-166.666666666667,4,2,0,20,0,0

[Colours]
Combo1 : 255,187,119
Combo2 : 132,215,255
Combo3 : 109,102,255
Combo4 : 122,122,61
Combo5 : 240,120,0

[HitObjects]
71,29,1156,6,0,P|69:63|79:88,1,50.9999984436036,2|0,0:0|0:0,0:0:0:0:
156,152,1906,2,0,P|158:118|148:93,1,50.9999984436036,2|0,0:0|0:0,0:0:0:0:
85,198,2656,2,0,P|83:232|93:257,1,50.9999984436036,2|0,0:0|0:0,0:0:0:0:
170,321,3406,2,0,P|172:287|162:262,1,50.9999984436036,2|0,0:0|0:0,0:0:0:0:
234,204,4156,6,0,L|301:198,1,50.9999984436036,2|0,0:0|0:0,0:0:0:0:
387,125,4906,2,0,L|321:131,1,50.9999984436036,2|0,0:0|0:0,0:0:0:0:
346,256,5656,1,2,0:0:0:0:
512,137,6031,5,4,3:3:0:0:
500,0,6406,1,2,0:3:0:0:
349,8,6781,1,4,0:3:0:0:
302,160,7170,6,0,P|257:173|214:163,1,85,4|0,0:1|0:0,0:0:0:0:
187,156,7732,1,0,0:0:0:0:
154,146,7920,2,0,L|160:238,1,85,0|0,1:0|0:0,0:0:0:0:
124,326,8670,1,2,0:0:0:0:
233,316,9045,1,0,0:0:0:0:
66,267,9420,2,0,P|42:317|47:360,1,85,0|0,1:0|0:0,0:0:0:0:
163,232,10170,5,2,0:0:0:0:
119,100,10545,2,0,L|122:151,1,42.5,0|0,0:0|0:0,0:0:0:0:
45,176,10920,2,0,L|40:91,1,85,0|0,1:0|0:0,0:0:0:0:
217,36,11670,5,2,0:0:0:0:
256,160,12045,1,0,0:0:0:0:
340,58,12420,1,0,1:0:0:0:
340,58,12607,1,0,0:0:0:0:
340,58,12795,1,0,0:0:0:0:
365,215,13170,6,0,P|350:289|238:327,1,170,2|0,0:0|1:0,0:0:0:0:
214,227,14295,1,0,0:0:0:0:
144,368,14670,2,0,L|47:359,1,85,2|0,0:0|0:0,0:0:0:0:
1,210,15420,2,0,L|92:218,1,85,0|0,1:0|0:0,0:0:0:0:
241,228,16170,6,0,P|251:187|239:141,1,85,2|0,0:0|0:0,0:0:0:0:
199,21,16920,2,0,L|288:16,1,85,0|0,1:0|0:0,0:0:0:0:
431,61,17670,1,2,0:0:0:0:
387,217,18045,1,0,0:0:0:0:
298,89,18420,1,4,0:0:0:0:
474,138,18795,1,0,0:0:0:0:
281,196,19170,6,0,B|239:215|188:193,1,85,4|0,0:0|0:0,0:0:0:0:
168,184,19732,1,0,0:0:0:0:
140,169,19920,2,0,L|150:261,1,85,0|0,1:0|0:0,0:0:0:0:
38,121,20670,1,2,0:0:0:0:
208,108,21045,1,0,0:0:0:0:
141,255,21420,2,0,P|96:266|52:250,1,85,0|0,1:0|0:0,0:0:0:0:
168,136,22170,5,2,0:0:0:0:
288,216,22545,2,0,L|292:267,1,42.5
378,274,22920,2,0,L|371:187,1,85,0|0,1:0|0:0,0:0:0:0:
319,46,23670,1,2,0:0:0:0:
226,156,24045,1,0,0:0:0:0:
373,187,24420,1,0,1:0:0:0:
373,187,24607,1,0,0:0:0:0:
373,187,24795,1,0,0:0:0:0:
174,96,25170,6,0,P|151:135|154:188,1,85,2|0,0:0|0:0,0:0:0:0:
362,173,25920,2,0,P|360:131|338:96,1,85,0|0,1:0|0:0,0:0:0:0:
256,254,26670,2,0,L|256:342,2,85,2|0|0,0:0|0:0|1:0,0:0:0:0:
256,68,27795,1,0,0:0:0:0:
160,248,28170,5,2,0:0:0:0:
348,248,28545,1,0,0:0:0:0:
178,177,28920,6,0,P|104:200|214:298,1,305.999990661621,4|2,0:1|0:0,0:0:0:0:
256,192,31357,12,2,37357,0:0:0:0:
