osu file format v14

[General]
AudioFilename: audio.mp3
AudioLeadIn: 0
PreviewTime: 4653
Countdown: 0
SampleSet: Soft
StackLeniency: 0.7
Mode: 0
LetterboxInBreaks: 0
WidescreenStoryboard: 1

[Editor]
Bookmarks: 4753,6353,19153,31953,42335,43714,54748,65783
DistanceSpacing: 1.1
BeatDivisor: 4
GridSize: 4
TimelineZoom: 1.75

[Metadata]
Title:Full Flavour
TitleUnicode:Full Flavour
Artist:Karetus
ArtistUnicode:Karetus
Creator:Xenon-
Version:Beginner
Source:
Tags:full flavor nmsnl electronic visualizer EDM hardstyle jumpstyle dnb drum n bass drumstep jumps
BeatmapID:1587620
BeatmapSetID:753264

[Difficulty]
HPDrainRate:5
CircleSize:4
OverallDifficulty:8
ApproachRate:9
SliderMultiplier:1.6
SliderTickRate:1

[Events]
//Background and Video events
0,0,"bg.jpg",0,0
//Break Periods
2,37535,41735
//Storyboard Layer 0 (Background)
//Storyboard Layer 1 (Fail)
//Storyboard Layer 2 (Pass)
//Storyboard Layer 3 (Foreground)
//Storyboard Sound Samples

[TimingPoints]
4753,400,4,2,0,60,1,0
6153,-100,4,2,0,10,0,0
6353,-100,4,2,0,60,0,1
9153,-66.6666666666667,4,2,0,60,0,1
9553,-100,4,2,0,60,0,1
12353,-66.6666666666667,4,2,0,60,0,1
12753,-100,4,2,0,60,0,1
15553,-66.6666666666667,4,2,0,60,0,1
15953,-100,4,2,0,60,0,1
17553,-166.666666666667,4,2,0,40,0,1
18753,-50,4,2,0,60,0,1
19153,-100,4,2,0,60,0,1
21953,-66.6666666666667,4,2,0,60,0,1
22353,-100,4,2,0,60,0,1
25153,-66.6666666666667,4,2,0,60,0,1
25553,-100,4,2,0,60,0,1
28353,-66.6666666666667,4,2,0,60,0,1
28753,-100,4,2,0,60,0,1
31953,394.736842105263,4,2,0,50,1,0
31953,-125,4,2,0,50,0,0
33531,384.615384615385,4,2,0,60,1,0
33531,-125,4,2,0,60,0,0
35099,375,4,2,0,60,1,0
35099,-125,4,2,0,60,0,0
36599,368.098159509202,4,2,0,60,1,0
36599,-125,4,2,0,60,0,0
42335,344.827586206897,4,2,0,60,1,0
43541,-100,4,2,0,10,0,0
43714,-100,4,2,0,60,0,1
46128,-66.6666666666667,4,2,0,60,0,1
46472,-100,4,2,0,60,0,1
48886,-66.6666666666667,4,2,0,60,0,1
49231,-100,4,2,0,60,0,1
51645,-66.6666666666667,4,2,0,60,0,1
51990,-100,4,2,0,60,0,1
54403,-66.6666666666667,4,2,0,60,0,1
54748,-100,4,2,0,60,0,1
59921,-66.6666666666667,4,2,0,60,0,1
60266,-100,4,2,0,60,0,1
65438,-50,4,2,0,60,0,1
65783,-100,4,2,0,60,0,0

[Colours]
Combo1 : 128,128,192
Combo2 : 0,128,255

[HitObjects]
155,85,6353,6,0,L|146:181,1,80,2|0,0:0|0:0,0:0:0:0:
191,343,6753,1,8,0:0:0:0:
141,250,6953,1,0,0:0:0:0:
319,217,7153,1,2,0:0:0:0:
226,267,7353,1,0,0:0:0:0:
303,134,7553,2,0,L|295:54,1,80,8|0,0:0|0:0,0:0:0:0:
210,184,7953,5,2,0:0:0:0:
303,134,8153,1,0,0:0:0:0:
339,311,8353,1,8,0:0:0:0:
289,218,8553,1,0,0:0:0:0:
173,329,8753,2,0,L|93:336,1,80,2|0,0:0|0:0,0:0:0:0:
251,370,9153,2,0,P|257:300|222:255,1,120,12|0,0:0|0:0,0:0:0:0:
320,132,9553,6,0,L|312:211,1,80,2|0,0:0|0:0,0:0:0:0:
278,58,9953,1,8,0:0:0:0:
382,68,10153,1,0,0:0:0:0:
205,107,10353,1,2,0:0:0:0:
215,3,10553,1,0,0:0:0:0:
320,132,10753,2,0,L|312:211,1,80,8|0,0:0|0:0,0:0:0:0:
175,169,11153,5,2,0:0:0:0:
125,262,11353,1,0,0:0:0:0:
302,298,11553,1,8,0:0:0:0:
209,248,11753,1,0,0:0:0:0:
320,132,11953,2,0,L|327:52,1,80,2|0,0:0|0:0,0:0:0:0:
361,210,12353,2,0,P|291:216|246:181,1,120,12|0,0:0|0:0,0:0:0:0:
169,314,12753,6,0,L|176:234,1,80,2|0,0:0|0:0,0:0:0:0:
113,62,13153,1,8,0:0:0:0:
105,164,13353,1,0,0:0:0:0:
263,70,13553,1,2,0:0:0:0:
271,172,13753,1,0,0:0:0:0:
113,62,13953,2,0,L|33:54,1,80,8|0,0:0|0:0,0:0:0:0:
199,111,14353,5,2,0:0:0:0:
105,164,14553,1,0,0:0:0:0:
302,202,14753,1,8,0:0:0:0:
194,200,14953,1,0,0:0:0:0:
359,134,15153,2,0,L|438:126,1,80,2|0,0:0|0:0,0:0:0:0:
281,93,15553,2,0,P|275:163|310:208,1,120,8|0,0:0|0:0,0:0:0:0:
179,273,15953,6,0,L|275:282,1,80,6|0,0:0|0:0,0:0:0:0:
437,237,16353,1,8,0:0:0:0:
344,287,16553,1,0,0:0:0:0:
311,109,16753,1,2,0:0:0:0:
361,202,16953,1,0,0:0:0:0:
228,125,17153,2,0,L|148:132,1,80,8|0,0:0|0:0,0:0:0:0:
278,218,17553,6,0,L|225:222,1,47.9999985351563,0|0,0:0|0:0,0:0:0:0:
328,311,17953,2,0,L|275:315,1,47.9999985351563,0|0,0:0|0:0,0:0:0:0:
179,325,18353,1,0,0:0:0:0:
121,207,18753,6,0,B|145:184|145:184|129:89|129:89|99:74,1,160,12|0,0:0|0:0,0:0:0:0:
121,207,19153,6,0,L|238:216,1,106.666666666667,2|0,0:0|0:0,0:0:0:0:
345,293,19553,2,0,L|238:301,1,106.666666666667,8|0,0:0|0:0,0:0:0:0:
132,293,19953,2,0,L|238:301,1,106.666666666667,2|0,0:0|0:0,0:0:0:0:
333,207,20353,2,0,L|216:216,1,106.666666666667,8|0,0:0|0:0,0:0:0:0:
318,116,20753,6,0,L|371:120,2,53.3333333333333,2|0|0,0:0|0:0|0:0,0:0:0:0:
409,39,21153,2,0,L|302:30,1,106.666666666667,8|0,0:0|0:0,0:0:0:0:
132,94,21553,2,0,L|239:85,1,106.666666666667,2|0,0:0|0:0,0:0:0:0:
61,39,21953,2,0,P|43:101|79:165,1,120.000004577637,12|0,0:0|0:0,0:0:0:0:
238,85,22353,6,0,L|229:202,1,106.666666666667,2|0,0:0|0:0,0:0:0:0:
152,309,22753,2,0,L|144:202,1,106.666666666667,8|0,0:0|0:0,0:0:0:0:
152,96,23153,2,0,L|144:202,1,106.666666666667,2|0,0:0|0:0,0:0:0:0:
238,297,23553,2,0,L|229:180,1,106.666666666667,8|0,0:0|0:0,0:0:0:0:
329,282,23953,6,0,L|325:335,2,53.3333333333333,2|0|0,0:0|0:0|0:0,0:0:0:0:
406,373,24353,2,0,L|415:266,1,106.666666666667,8|0,0:0|0:0,0:0:0:0:
351,96,24753,2,0,L|360:203,1,106.666666666667,2|0,0:0|0:0,0:0:0:0:
406,25,25153,2,0,P|344:7|280:43,1,120.000004577637,12|0,0:0|0:0,0:0:0:0:
266,213,25553,6,0,L|257:106,1,106.666666666667,2|0,0:0|0:0,0:0:0:0:
359,202,25953,2,0,L|350:309,1,106.666666666667,8|0,0:0|0:0,0:0:0:0:
447,207,26353,2,0,L|438:100,1,106.666666666667,2|0,0:0|0:0,0:0:0:0:
359,202,26753,2,0,L|350:309,1,106.666666666667,8|0,0:0|0:0,0:0:0:0:
264,164,27153,6,0,L|269:218,2,53.3333333333333,2|0|0,0:0|0:0|0:0,0:0:0:0:
112,79,27553,2,0,L|219:88,1,106.666666666667,8|0,0:0|0:0,0:0:0:0:
370,155,27953,2,0,L|263:164,1,106.666666666667,2|0,0:0|0:0,0:0:0:0:
441,210,28353,2,0,P|459:148|423:84,1,120.000004577637,12|0,0:0|0:0,0:0:0:0:
263,163,28753,6,0,L|370:154,1,106.666666666667,2|0,0:0|0:0,0:0:0:0:
274,256,29153,2,0,L|167:247,1,106.666666666667,8|0,0:0|0:0,0:0:0:0:
269,344,29553,2,0,L|376:335,1,106.666666666667,2|0,0:0|0:0,0:0:0:0:
274,256,29953,2,0,L|167:247,1,106.666666666667,8|0,0:0|0:0,0:0:0:0:
311,161,30353,6,0,L|257:165,2,53.3333333333333,2|0|0,0:0|0:0|0:0,0:0:0:0:
397,9,30753,2,0,L|388:116,1,106.666666666667,8|0,0:0|0:0,0:0:0:0:
321,267,31153,2,0,L|312:160,1,106.666666666667,2|0,0:0|0:0,0:0:0:0:
266,338,31553,1,12,0:0:0:0:
312,160,31953,6,0,P|317:111|314:82,1,64,2|0,0:0|0:0,0:0:0:0:
404,178,32347,2,0,L|409:249,1,64,8|0,0:0|0:0,0:0:0:0:
318,243,32742,2,0,L|323:314,1,64,2|0,0:0|0:0,0:0:0:0:
417,332,33137,1,8,0:0:0:0:
253,364,33531,6,0,L|182:359,1,64,2|0,0:0|0:0,0:0:0:0:
163,275,33915,2,0,L|226:279,1,64,8|0,0:0|0:0,0:0:0:0:
314,284,34300,1,2,0:0:0:0:
162,137,35099,6,0,P|157:88|160:59,1,64,2|0,0:0|0:0,0:0:0:0:
70,155,35474,2,0,L|65:226,1,64,8|0,0:0|0:0,0:0:0:0:
156,220,35849,2,0,L|151:291,1,64,2|0,0:0|0:0,0:0:0:0:
57,309,36224,1,8,0:0:0:0:
221,341,36599,6,0,L|292:336,1,64,2|0,0:0|0:0,0:0:0:0:
311,252,36967,2,0,L|247:256,1,64,8|0,0:0|0:0,0:0:0:0:
160,261,37335,1,2,0:0:0:0:
256,192,42335,12,0,43541,0:0:0:0:
297,76,43714,6,0,L|303:166,1,80,2|0,0:0|0:0,0:0:0:0:
206,258,44059,1,8,0:0:0:0:
309,237,44231,1,0,0:0:0:0:
269,314,44403,2,0,L|272:359,1,40,2|0,0:0|0:0,0:0:0:0:
208,179,44576,2,0,L|205:134,1,40,0|0,0:0|0:0,0:0:0:0:
147,314,44748,2,0,L|63:308,1,80,8|0,0:0|0:0,0:0:0:0:
116,138,45093,5,2,0:0:0:0:
45,226,45266,1,0,0:0:0:0:
51,81,45438,2,0,L|54:36,1,40,8|0,0:0|0:0,0:0:0:0:
205,139,45610,2,0,L|202:184,1,40,0|0,0:0|0:0,0:0:0:0:
147,314,45783,2,0,L|141:230,1,80,2|0,0:0|0:0,0:0:0:0:
224,254,46128,2,0,B|229:324|229:324|247:371,1,120.000004577637,12|0,0:0|0:0,0:0:0:0:
309,298,46472,6,0,L|303:214,1,80,2|0,0:0|0:0,0:0:0:0:
321,61,46817,1,8,0:0:0:0:
375,160,46990,1,0,0:0:0:0:
234,76,47162,2,0,L|237:31,1,40,2|0,0:0|0:0,0:0:0:0:
412,39,47335,2,0,L|409:78,1,40,0|0,0:0|0:0,0:0:0:0:
228,155,47507,2,0,L|233:71,1,80,8|0,0:0|0:0,0:0:0:0:
303,218,47852,6,0,L|309:298,1,80,2|0,0:0|0:0,0:0:0:0:
398,357,48197,2,0,L|395:317,1,40,8|0,0:0|0:0,0:0:0:0:
217,238,48369,2,0,L|219:277,1,40,0|0,0:0|0:0,0:0:0:0:
381,157,48541,2,0,L|375:77,1,80,2|0,0:0|0:0,0:0:0:0:
409,252,48886,2,0,P|350:252|303:218,1,120.000004577637,12|0,0:0|0:0,0:0:0:0:
290,120,49231,6,0,P|246:135|217:165,1,80,2|0,0:0|0:0,0:0:0:0:
262,329,49576,1,8,0:0:0:0:
303,218,49748,1,0,0:0:0:0:
174,336,49921,2,0,L|134:339,1,40,2|0,0:0|0:0,0:0:0:0:
182,154,50093,2,0,L|222:157,1,40,0|0,0:0|0:0,0:0:0:0:
262,329,50266,2,0,L|342:323,1,80,8|0,0:0|0:0,0:0:0:0:
186,251,50610,6,0,L|106:257,1,80,2|0,0:0|0:0,0:0:0:0:
182,154,50955,2,0,L|222:157,1,40,8|0,0:0|0:0,0:0:0:0:
318,240,51128,2,0,L|278:243,1,40,0|0,0:0|0:0,0:0:0:0:
308,146,51300,2,0,L|388:140,1,80,2|0,0:0|0:0,0:0:0:0:
225,65,51645,2,0,B|320:58|320:58|298:45,1,120.000004577637,12|0,0:0|0:0,0:0:0:0:
483,52,51990,6,0,L|403:58,1,80,2|0,0:0|0:0,0:0:0:0:
277,170,52335,1,8,0:0:0:0:
225,65,52507,1,0,0:0:0:0:
197,213,52679,2,0,L|200:253,1,40,2|0,0:0|0:0,0:0:0:0:
313,82,52852,2,0,L|310:42,1,40,0|0,0:0|0:0,0:0:0:0:
277,170,53024,2,0,L|283:250,1,80,8|0,0:0|0:0,0:0:0:0:
395,164,53369,6,0,L|401:84,1,80,2|0,0:0|0:0,0:0:0:0:
460,280,53714,2,0,L|457:240,1,40,8|0,0:0|0:0,0:0:0:0:
351,355,53886,2,0,L|354:315,1,40,0|0,0:0|0:0,0:0:0:0:
277,170,54059,2,0,L|197:164,1,80,2|0,0:0|0:0,0:0:0:0:
138,256,54403,2,0,B|127:244|107:237|107:237|191:244,1,120.000004577637,12|0,0:0|0:0,0:0:0:0:
30,270,54748,6,0,P|24:217|47:180,1,80,2|0,0:0|0:0,0:0:0:0:
197,164,55093,1,8,0:0:0:0:
110,238,55266,1,0,0:0:0:0:
141,72,55438,1,2,0:0:0:0:
141,72,55524,1,0,0:0:0:0:
141,72,55610,1,0,0:0:0:0:
274,129,55783,2,0,P|283:167|272:205,1,80,8|0,0:0|0:0,0:0:0:0:
236,381,56128,5,2,0:0:0:0:
209,261,56300,1,0,0:0:0:0:
409,280,56472,1,8,0:0:0:0:
289,307,56644,1,0,0:0:0:0:
410,189,56817,1,2,0:0:0:0:
410,189,56903,1,0,0:0:0:0:
410,189,56990,1,0,0:0:0:0:
441,360,57162,2,0,P|388:366|351:343,1,80,8|0,0:0|0:0,0:0:0:0:
244,230,57507,6,0,P|215:256|203:294,1,80,2|0,0:0|0:0,0:0:0:0:
409,280,57852,1,8,0:0:0:0:
289,307,58024,1,0,0:0:0:0:
426,180,58197,1,2,0:0:0:0:
426,180,58283,1,0,0:0:0:0:
426,180,58369,1,0,0:0:0:0:
245,143,58541,2,0,P|206:150|176:177,1,80,8|0,0:0|0:0,0:0:0:0:
214,377,58886,5,2,0:0:0:0:
244,230,59059,1,0,0:0:0:0:
406,339,59231,1,8,0:0:0:0:
259,309,59404,1,0,0:0:0:0:
415,210,59576,1,2,0:0:0:0:
415,210,59662,1,0,0:0:0:0:
415,210,59748,1,0,0:0:0:0:
245,143,59921,2,0,P|195:158|157:222,1,120.000004577637,12|0,0:0|0:0,0:0:0:0:
289,368,60266,5,2,0:0:0:0:
415,210,60438,1,0,0:0:0:0:
244,230,60610,1,8,0:0:0:0:
416,303,60783,1,0,0:0:0:0:
339,144,60955,1,2,0:0:0:0:
339,144,61041,1,0,0:0:0:0:
339,144,61128,1,0,0:0:0:0:
289,304,61300,2,0,P|253:319|214:314,1,80,8|0,0:0|0:0,0:0:0:0:
106,151,61645,5,2,0:0:0:0:
128,287,61817,1,0,0:0:0:0:
183,97,61990,1,8,0:0:0:0:
196,234,62162,1,0,0:0:0:0:
105,68,62335,1,2,0:0:0:0:
105,68,62421,1,0,0:0:0:0:
105,68,62507,1,0,0:0:0:0:
258,142,62679,2,0,P|271:104|263:65,1,80,8|0,0:0|0:0,0:0:0:0:
214,217,63024,6,0,P|251:230|290:222,1,80,2|0,0:0|0:0,0:0:0:0:
344,33,63369,1,8,0:0:0:0:
427,151,63541,1,0,0:0:0:0:
258,142,63714,1,2,0:0:0:0:
258,142,63800,1,0,0:0:0:0:
258,142,63886,1,0,0:0:0:0:
383,226,64059,2,0,P|420:239|459:231,1,80,8|0,0:0|0:0,0:0:0:0:
303,268,64403,6,0,P|265:254|226:262,1,80,2|0,0:0|0:0,0:0:0:0:
60,371,64748,1,8,0:0:0:0:
141,214,64921,1,0,0:0:0:0:
267,345,65093,1,2,0:0:0:0:
267,345,65179,1,0,0:0:0:0:
267,345,65266,1,0,0:0:0:0:
224,151,65438,2,0,P|115:114|61:147,1,160,12|0,0:0|0:0,0:0:0:0:
141,214,65783,5,6,0:0:0:0:
