osu file format v14

[General]
AudioFilename: audio.mp3
AudioLeadIn: 0
PreviewTime: 227634
Countdown: 1
SampleSet: None
StackLeniency: 0.2
Mode: 0
LetterboxInBreaks: 0
WidescreenStoryboard: 1

[Editor]
Bookmarks: 6104,13604,30479,75479,90479,105479,119739,147168,150596,190305,215905,227706,238712,249752,264322,282236,312236
DistanceSpacing: 0.5
BeatDivisor: 8
GridSize: 32
TimelineZoom: 2.299999

[Metadata]
Title:Full Flavor
TitleUnicode:Full Flavor
Artist:Karetus
ArtistUnicode:Karetus
Creator:Spagett
Version:Marathon (2018)
Source:
Tags:Trap EDM Hardstyle Electronic DnB
BeatmapID:2340703
BeatmapSetID:426740

[Difficulty]
HPDrainRate:6
CircleSize:4
OverallDifficulty:7
ApproachRate:9.5
SliderMultiplier:2.6
SliderTickRate:1

[Events]
//Background and Video events
0,0,"cracks_texture_background_light_surface_50654_1920x1080.jpg",0,0
//Break Periods
2,148453,149311
2,223508,224919
//Storyboard Layer 0 (Background)
//Storyboard Layer 1 (Fail)
//Storyboard Layer 2 (Pass)
//Storyboard Layer 3 (Foreground)
//Storyboard Layer 4 (Overlay)
//Storyboard Sound Samples

[TimingPoints]
479,468.75,4,1,1,100,1,0
713,-111.111111111111,4,1,2,75,0,0
4229,-83.3333333333333,4,1,2,75,0,0
4463,-90.9090909090909,4,1,2,75,0,0
4697,-111.111111111111,4,1,2,75,0,0
7510,-111.111111111111,4,1,1,75,0,0
7744,-111.111111111111,4,1,2,75,0,0
11729,-83.3333333333333,4,1,2,75,0,0
11963,-90.9090909090909,4,1,2,75,0,0
12197,-111.111111111111,4,1,2,75,0,0
15010,-111.111111111111,4,1,1,75,0,0
15244,-111.111111111111,4,1,2,75,0,0
19229,-83.3333333333333,4,1,2,75,0,0
19463,-90.9090909090909,4,1,2,75,0,0
19697,-111.111111111111,4,1,2,75,0,0
22510,-111.111111111111,4,1,1,75,0,0
22744,-111.111111111111,4,1,2,75,0,0
26729,-83.3333333333333,4,1,2,75,0,0
26963,-90.9090909090909,4,1,2,75,0,0
27197,-111.111111111111,4,1,2,75,0,0
30010,-111.111111111111,4,1,1,75,0,0
30479,-133.333333333333,4,1,2,75,0,0
40791,-133.333333333333,4,3,2,75,0,0
41729,-133.333333333333,4,1,2,75,0,0
44541,-133.333333333333,4,3,2,75,0,0
45479,-100,4,1,2,100,0,0
60479,-90.9090909090909,4,1,2,100,0,0
67979,-86.9565217391304,4,3,2,100,0,0
71729,-83.3333333333333,4,1,2,100,0,0
73604,-133.333333333333,4,1,2,100,0,0
75479,-83.3333333333333,4,1,2,100,0,1
78291,-83.3333333333333,4,3,2,100,0,1
79229,-83.3333333333333,4,1,2,100,0,1
82041,-83.3333333333333,4,3,2,100,0,1
82979,-83.3333333333333,4,1,2,100,0,1
103604,-133.333333333333,4,3,2,100,0,1
103955,-66.6666666666667,4,3,2,100,0,1
104307,-133.333333333333,4,3,2,100,0,1
104658,-66.6666666666667,4,3,2,100,0,1
105010,-57.1428571428571,4,3,2,100,0,1
105479,468.75,4,1,2,100,1,0
105479,-100,4,1,2,100,0,0
107353,461.538461538462,4,1,2,100,1,0
109199,454.545454545455,4,1,2,100,1,0
111017,447.761194029851,4,1,2,100,1,0
112808,441.176470588235,4,1,2,100,1,0
114572,434.782608695652,4,1,2,100,1,0
116311,428.571428571429,4,1,2,100,1,0
118025,-133.333333333333,4,1,2,100,0,0
119739,-83.3333333333333,4,1,2,100,0,1
147168,-100,4,1,2,55,0,0
154023,425.531914893617,4,1,2,65,1,0
157427,422.535211267606,4,1,2,70,1,0
159962,-100,4,3,2,70,0,0
160807,419.58041958042,4,1,2,100,1,0
163324,-100,4,3,2,100,0,0
164163,416.666666666667,4,1,2,100,1,0
167491,413.793103448276,4,1,2,100,1,0
170821,410.958904109589,4,1,2,100,1,0
174108,410.958904109589,4,1,2,100,1,0
177380,408.163265306122,4,1,2,100,1,0
177380,-90.9090909090909,4,1,2,100,0,0
180645,405.405405405405,4,1,2,100,1,0
180645,-90.9090909090909,4,1,2,100,0,0
183884,402.684563758389,4,1,2,100,1,0
183884,-83.3333333333333,4,1,2,100,0,0
187105,400,4,1,2,100,1,0
187105,-83.3333333333333,4,1,2,100,0,0
188705,-133.333333333333,4,1,2,100,0,0
190305,-83.3333333333333,4,1,2,100,0,1
201505,-133.333333333333,4,1,2,100,0,0
202705,-66.6666666666667,4,1,2,100,0,0
203105,-83.3333333333333,4,1,2,100,0,1
206305,-83.3333333333333,4,3,2,100,0,1
215906,-100,4,1,2,100,0,0
217506,389.61038961039,4,1,2,100,1,0
219064,379.746835443038,4,1,2,100,1,0
220582,370.37037037037,4,1,2,100,1,0
222063,361.44578313253,4,1,2,100,1,0
223508,352.941176470588,4,1,2,100,1,0
224919,344.827586206897,4,1,2,100,1,0
226298,-133.333333333333,4,1,2,100,0,0
227677,-83.3333333333333,4,1,2,100,0,1
238712,-125,4,1,2,100,0,1
249746,-100,4,1,2,100,0,1
249752,352.941176470588,4,1,2,100,1,0
251180,375,4,1,2,100,1,0
252685,400,4,1,2,100,1,0
254306,428.571428571429,4,1,2,100,1,0
256015,461.538461538462,4,1,2,100,1,0
257823,500,4,1,2,100,1,0
259856,545.454545454546,4,1,2,100,1,0
262037,571.428571428571,4,1,2,100,1,0
262037,-133.333333333333,4,1,2,100,0,0
264322,-83.3333333333333,4,1,2,100,0,1
278037,545.454545454546,4,1,2,100,1,1
278037,-83.3333333333333,4,1,2,100,0,1
280218,515.021459227468,4,1,2,100,1,1
280218,-83.3333333333333,4,1,2,100,0,1
282236,468.75,4,1,2,100,1,0
282236,-133.333333333333,4,1,2,100,0,0

[Colours]
Combo1 : 255,130,173
Combo2 : 255,128,128
Combo3 : 255,168,125
Combo4 : 255,255,128
Combo5 : 128,255,128
Combo6 : 81,255,168
Combo7 : 128,255,255
Combo8 : 255,128,255

[HitObjects]
80,135,479,5,14,0:0:0:0:
4,292,713,2,0,L|36:347,2,58.4999982147217,0|0|4,0:0|0:0|0:0,0:0:0:0:
102,355,1182,2,0,L|157:387,2,58.4999982147217,0|0|4,0:0|0:0|0:0,0:0:0:0:
218,356,1650,2,0,L|282:356,2,58.4999982147217,0|0|4,0:0|0:0|0:0,0:0:0:0:
318,294,2119,6,0,L|373:262,2,58.4999982147217,0|0|4,0:0|0:0|0:0,0:0:0:0:
379,194,2588,2,0,L|411:138,2,58.4999982147217,0|0|4,0:0|0:0|0:0,0:0:0:0:
378,76,3057,2,0,L|378:11,2,58.4999982147217,0|0|4,0:0|0:0|0:0,0:0:0:0:
379,194,3525,2,0,L|411:249,2,58.4999982147217,0|0|4,0:0|0:0|0:0,0:0:0:0:
276,136,3994,2,0,L|220:104,1,58.4999982147217
165,157,4229,6,0,L|231:195,1,77.999997619629,2|0,0:0|0:0,0:0:0:0:
302,212,4463,2,0,P|350:164|350:103,1,71.5000021820069,4|0,0:0|0:0,0:0:0:0:
340,87,4697,1,2,0:0:0:0:
199,87,4932,2,0,B|229:94|229:94|257:87,1,58.4999982147217,4|0,0:0|0:0,0:0:0:0:
340,87,5166,1,2,0:0:0:0:
199,87,5400,2,0,L|257:87,1,58.4999982147217,4|0,0:0|0:0,0:0:0:0:
340,87,5635,1,2,0:0:0:0:
199,87,5869,2,0,B|229:80|229:80|257:87,1,58.4999982147217,4|0,0:0|0:0,0:0:0:0:
255,227,6104,6,0,B|255:258|255:258|275:240|302:178,1,116.999996429443,2|4,0:0|0:0,0:0:0:0:
340,87,6572,1,2,0:0:0:0:
199,87,6807,2,0,B|229:80|229:80|257:87,1,58.4999982147217,4|0,0:0|0:0,0:0:0:0:
340,87,7041,1,2,0:0:0:0:
199,87,7275,2,0,B|229:94|229:94|257:87,1,58.4999982147217,4|0,0:0|0:0,0:0:0:0:
417,16,7510,1,14,0:0:0:0:
440,130,7744,2,0,B|445:163|445:163|440:188,1,58.4999982147217
408,270,7979,5,14,0:0:0:0:
245,336,8213,2,0,B|214:340|214:340|180:334,2,58.4999982147217,0|0|4,0:0|0:0|0:0,0:0:0:0:
145,274,8682,2,0,B|120:254|120:254|100:226,2,58.4999982147217,0|0|4,0:0|0:0|0:0,0:0:0:0:
113,161,9150,2,0,B|109:129|109:129|115:95,2,58.4999982147217,0|0|4,0:0|0:0|0:0,0:0:0:0:
185,68,9619,6,0,B|204:43|204:43|232:23,2,58.4999982147217,0|0|4,0:0|0:0|0:0,0:0:0:0:
301,53,10088,2,0,B|332:49|332:49|366:54,2,58.4999982147217,0|0|4,0:0|0:0|0:0,0:0:0:0:
392,125,10557,2,0,B|416:144|416:144|436:172,2,58.4999982147217,0|0|4,0:0|0:0|0:0,0:0:0:0:
420,238,11025,2,0,B|423:269|423:269|417:303,2,58.4999982147217,0|0|4,0:0|0:0|0:0,0:0:0:0:
354,335,11494,2,0,B|334:359|334:359|306:379,1,58.4999982147217
245,336,11729,6,0,B|208:340|208:340|168:333,1,77.999997619629,2|0,0:0|0:0,0:0:0:0:
215,262,11963,2,0,B|248:257|248:257|284:264,1,71.5000021820069,4|0,0:0|0:0,0:0:0:0:
65,130,12197,1,2,0:0:0:0:
133,261,12431,2,0,B|125:239|125:239|103:211,1,58.4999982147217,4|0,0:0|0:0,0:0:0:0:
65,130,12666,1,2,0:0:0:0:
133,261,12900,2,0,B|100:203,1,58.4999982147217,4|0,0:0|0:0,0:0:0:0:
65,130,13135,1,2,0:0:0:0:
133,261,13369,2,0,B|111:233|111:233|100:203,1,58.4999982147217,4|0,0:0|0:0,0:0:0:0:
224,201,13604,6,0,B|279:225|279:225|263:281,1,116.999996429443,2|4,0:0|0:0,0:0:0:0:
65,130,14072,1,2,0:0:0:0:
133,261,14307,2,0,B|125:239|125:239|103:211,1,58.4999982147217,4|0,0:0|0:0,0:0:0:0:
65,130,14541,1,2,0:0:0:0:
133,261,14775,2,0,B|111:233|111:233|100:203,1,58.4999982147217,4|0,0:0|0:0,0:0:0:0:
57,40,15010,1,14,0:0:0:0:
161,91,15244,2,0,B|183:119|183:119|194:149,1,58.4999982147217,4|0,0:0|0:0,0:0:0:0:
221,223,15479,5,14,0:0:0:0:
95,345,15713,2,0,B|71:369|71:369|71:326,2,58.4999982147217,0|0|4,0:0|0:0|0:0,0:0:0:0:
46,238,16182,2,0,B|12:238|12:238|42:207,2,58.4999982147217,0|0|4,0:0|0:0|0:0,0:0:0:0:
95,132,16650,2,0,B|70:108|70:108|113:108,2,58.4999982147217,0|0|4,0:0|0:0|0:0,0:0:0:0:
191,64,17119,6,0,B|191:30|191:30|221:60,2,58.4999982147217,0|0|4,0:0|0:0|0:0,0:0:0:0:
284,135,17588,2,0,B|308:110|308:110|308:153,2,58.4999982147217,0|0|4,0:0|0:0|0:0,0:0:0:0:
334,240,18057,2,0,B|367:239|367:239|337:270,2,58.4999982147217,0|0|4,0:0|0:0|0:0,0:0:0:0:
291,348,18525,2,0,B|315:372|315:372|272:372,2,58.4999982147217,0|0|4,0:0|0:0|0:0,0:0:0:0:
192,284,18994,2,0,P|169:256|160:225,1,58.4999982147217
154,157,19229,6,0,B|154:106|173:67,1,77.999997619629,2|0,0:0|0:0,0:0:0:0:
224,37,19463,2,0,P|236:65|233:113,1,71.5000021820069,4|0,0:0|0:0,0:0:0:0:
224,192,19697,1,2,0:0:0:0:
143,321,19932,2,0,B|156:283|156:283|178:266,1,58.4999982147217,4|0,0:0|0:0,0:0:0:0:
224,192,20166,1,2,0:0:0:0:
143,321,20401,2,0,L|178:266,1,58.4999982147217,4|0,0:0|0:0,0:0:0:0:
224,192,20635,1,2,0:0:0:0:
143,321,20870,2,0,B|171:291|171:291|178:266,1,58.4999982147217,4|0,0:0|0:0,0:0:0:0:
107,169,21104,6,0,P|57:181|61:252,1,116.999996429443,2|4,0:0|0:0,0:0:0:0:
224,192,21572,1,2,0:0:0:0:
143,321,21807,2,0,B|156:283|156:283|178:266,1,58.4999982147217,4|0,0:0|0:0,0:0:0:0:
224,192,22041,1,2,0:0:0:0:
143,321,22275,2,0,B|171:291|171:291|178:266,1,58.4999982147217,4|0,0:0|0:0,0:0:0:0:
224,192,22510,1,14,0:0:0:0:
134,116,22745,2,0,L|76:67,1,58.4999982147217,4|0,0:0|0:0,0:0:0:0:
164,33,22979,5,14,0:0:0:0:
162,208,23213,2,0,L|162:280,2,58.4999982147217,0|0|4,0:0|0:0|0:0,0:0:0:0:
258,274,23682,2,0,L|320:310,2,58.4999982147217,0|0|4,0:0|0:0|0:0,0:0:0:0:
363,224,24150,2,0,L|425:188,2,58.4999982147217,0|0|4,0:0|0:0|0:0,0:0:0:0:
362,106,24619,6,0,L|362:34,2,58.4999982147217,0|0|4,0:0|0:0|0:0,0:0:0:0:
258,51,25088,2,0,L|195:15,2,58.4999982147217,0|0|4,0:0|0:0|0:0,0:0:0:0:
157,112,25557,2,0,L|94:147,2,58.4999982147217,0|0|4,0:0|0:0|0:0,0:0:0:0:
156,228,26025,2,0,L|156:299,2,58.4999982147217,0|0|4,0:0|0:0|0:0,0:0:0:0:
49,177,26494,2,0,B|60:209|60:209|85:223,1,58.4999982147217
125,155,26729,6,0,P|144:123|136:75,1,77.999997619629
83,37,26963,2,0,P|69:70|73:106,1,71.5000021820069
256,192,27197,12,14,30010,0:0:0:0:
166,233,30479,5,8,0:0:0:0:
166,233,30947,1,8,0:0:0:0:
73,203,31182,1,4,0:0:0:0:
73,106,31416,1,2,0:0:0:0:
73,203,31650,1,4,0:0:0:0:
166,233,31885,1,8,0:0:0:0:
223,155,32354,5,0,0:0:0:0:
166,233,32588,1,8,0:0:0:0:
223,155,32822,1,0,0:0:0:0:
73,203,33057,1,4,0:0:0:0:
166,233,33291,1,8,0:0:0:0:
166,233,34229,5,8,0:0:0:0:
166,233,34697,1,8,0:0:0:0:
73,203,34932,1,4,0:0:0:0:
73,106,35166,1,2,0:0:0:0:
73,203,35400,1,4,0:0:0:0:
166,233,35635,1,8,0:0:0:0:
223,155,36104,5,0,0:0:0:0:
166,233,36338,1,8,0:0:0:0:
223,155,36572,1,0,0:0:0:0:
73,203,36807,1,4,0:0:0:0:
166,233,37041,1,8,0:0:0:0:
166,233,37979,5,8,0:0:0:0:
166,233,38447,1,8,0:0:0:0:
73,203,38682,1,4,0:0:0:0:
73,106,38916,1,2,0:0:0:0:
73,203,39150,1,4,0:0:0:0:
166,233,39385,1,8,0:0:0:0:
223,155,39854,5,0,0:0:0:0:
166,233,40088,1,8,0:0:0:0:
223,155,40322,1,0,0:0:0:0:
73,203,40557,1,4,0:0:0:0:
166,233,40791,2,0,B|224:260|275:233|275:233|345:233|345:233|427:288,1,195.00000743866,8|0,0:0|0:0,0:0:0:0:
406,318,41729,5,8,0:0:0:0:
406,318,42197,1,8,0:0:0:0:
294,282,42432,1,4,0:0:0:0:
294,165,42666,1,2,0:0:0:0:
294,282,42900,1,4,0:0:0:0:
406,318,43135,1,8,0:0:0:0:
474,224,43604,5,0,0:0:0:0:
406,318,43838,1,8,0:0:0:0:
474,224,44072,1,0,0:0:0:0:
294,282,44307,1,4,0:0:0:0:
406,318,44541,2,0,B|397:268|397:268|386:243|386:243|384:220|384:220|390:193|390:193|381:120,1,195.00000743866
122,103,45479,5,6,0:0:0:0:
216,192,45713,1,0,0:0:0:0:
216,62,45947,1,6,0:0:0:0:
231,217,46182,1,0,0:0:0:0:
88,84,46416,1,6,0:0:0:0:
231,217,46650,1,0,0:0:0:0:
122,103,46885,1,6,0:0:0:0:
216,192,47119,1,0,0:0:0:0:
216,62,47353,5,6,0:0:0:0:
320,64,47588,1,0,0:0:0:0:
216,62,47822,1,6,0:0:0:0:
340,101,48057,1,0,0:0:0:0:
215,138,48291,2,0,P|175:127|141:93,1,65,6|0,0:0|0:0,0:0:0:0:
216,62,48525,2,0,P|256:73|290:107,1,65
290,163,48760,2,0,P|265:196|222:217,1,65,6|0,0:0|0:0,0:0:0:0:
171,184,48994,2,0,P|195:150|238:129,1,65
340,101,49229,5,6,0:0:0:0:
246,190,49463,1,0,0:0:0:0:
246,60,49697,1,6,0:0:0:0:
231,215,49932,1,0,0:0:0:0:
374,82,50166,1,6,0:0:0:0:
231,215,50400,1,0,0:0:0:0:
340,101,50635,1,6,0:0:0:0:
246,190,50869,1,0,0:0:0:0:
246,60,51103,5,6,0:0:0:0:
142,62,51338,1,0,0:0:0:0:
246,60,51572,1,6,0:0:0:0:
122,99,51807,1,0,0:0:0:0:
243,144,52041,2,0,L|329:126,1,65,6|0,0:0|0:0,0:0:0:0:
309,46,52275,2,0,L|245:59,1,65
177,19,52510,2,0,L|141:73,1,65,6|0,0:0|0:0,0:0:0:0:
63,79,52744,2,0,L|76:142,1,65
94,272,52979,5,6,0:0:0:0:
188,183,53213,1,0,0:0:0:0:
188,313,53447,1,6,0:0:0:0:
203,158,53682,1,0,0:0:0:0:
60,291,53916,1,6,0:0:0:0:
203,158,54150,1,0,0:0:0:0:
94,272,54385,1,6,0:0:0:0:
188,183,54619,1,0,0:0:0:0:
188,313,54854,5,6,0:0:0:0:
292,311,55088,1,0,0:0:0:0:
188,313,55322,1,6,0:0:0:0:
312,274,55557,1,0,0:0:0:0:
186,182,55791,2,0,B|159:159|159:159|141:127,1,65,6|0,0:0|0:0,0:0:0:0:
173,60,56025,2,0,B|199:82|199:82|217:114,1,65
287,85,56260,2,0,B|289:119|289:119|280:154,1,65,6|0,0:0|0:0,0:0:0:0:
345,192,56494,2,0,B|322:218|322:218|290:236,1,65
393,321,56729,5,6,0:0:0:0:
299,232,56963,1,0,0:0:0:0:
299,362,57197,1,6,0:0:0:0:
284,207,57432,1,0,0:0:0:0:
427,340,57666,1,6,0:0:0:0:
284,207,57900,1,0,0:0:0:0:
393,321,58135,1,6,0:0:0:0:
299,232,58369,1,0,0:0:0:0:
299,362,58603,5,6,0:0:0:0:
195,360,58838,1,0,0:0:0:0:
299,362,59072,1,6,0:0:0:0:
175,323,59307,1,0,0:0:0:0:
66,211,59541,2,0,L|126:273,1,65,6|0,0:0|0:0,0:0:0:0:
187,243,59775,2,0,L|273:244,1,65
326,219,60010,2,0,L|388:159,1,65,6|0,0:0|0:0,0:0:0:0:
381,96,60244,2,0,L|382:31,1,65
296,43,60479,6,0,P|241:104|156:127,1,143.000004364014,14|0,0:0|0:0,0:0:0:0:
114,132,60830,1,4,0:0:0:0:
56,79,60947,2,0,B|91:58|91:58|145:58,1,71.5000021820069,2|0,0:0|0:0,0:0:0:0:
114,132,61182,1,4,0:0:0:0:
214,232,61416,6,0,B|271:279|271:279|341:252,1,143.000004364014,8|0,0:0|0:0,0:0:0:0:
399,221,61768,1,4,0:0:0:0:
418,144,61885,2,0,P|380:145|340:169,1,71.5000021820069,2|0,0:0|0:0,0:0:0:0:
399,221,62119,1,4,0:0:0:0:
258,149,62354,6,0,B|180:132|180:132|115:132,1,143.000004364014,8|0,0:0|0:0,0:0:0:0:
49,154,62705,1,4,0:0:0:0:
17,225,62822,2,0,P|58:230|111:203,1,71.5000021820069
49,154,63057,1,4,0:0:0:0:
98,302,63291,6,0,B|111:342|111:342|165:356|219:342,1,143.000004364014,8|0,0:0|0:0,0:0:0:0:
281,331,63643,1,4,0:0:0:0:
358,317,63760,2,0,P|326:267|300:257,1,71.5000021820069,2|0,0:0|0:0,0:0:0:0:
281,331,63994,1,4,0:0:0:0:
359,194,64229,6,0,P|332:103|283:74,1,143.000004364014,8|0,0:0|0:0,0:0:0:0:
226,59,64580,1,4,0:0:0:0:
147,59,64697,2,0,P|156:95|184:128,1,71.5000021820069,2|0,0:0|0:0,0:0:0:0:
226,59,64932,1,4,0:0:0:0:
103,157,65166,6,0,B|70:186|70:186|90:234|143:260,1,143.000004364014,8|0,0:0|0:0,0:0:0:0:
205,276,65518,1,4,0:0:0:0:
276,243,65635,2,0,P|243:207|207:198,1,71.5000021820069,2|0,0:0|0:0,0:0:0:0:
205,276,65869,1,4,0:0:0:0:
298,148,66104,6,0,B|345:82|345:82|299:32,1,143.000004364014,8|0,0:0|0:0,0:0:0:0:
232,29,66455,1,4,0:0:0:0:
161,64,66572,2,0,P|193:95|237:110,1,71.5000021820069,2|0,0:0|0:0,0:0:0:0:
232,29,66807,1,4,0:0:0:0:
189,180,67041,6,0,B|170:251|170:251|188:337,1,143.000004364014,8|0,0:0|0:0,0:0:0:0:
241,363,67393,1,4,0:0:0:0:
312,331,67510,2,0,P|277:294|232:291,1,71.5000021820069,2|0,0:0|0:0,0:0:0:0:
241,363,67744,1,4,0:0:0:0:
382,301,67979,6,0,B|416:283|416:283|416:246,1,74.7500014257431,8|0,0:0|0:0,0:0:0:0:
312,257,68213,2,0,B|346:239|346:239|346:202,1,74.7500014257431,8|0,0:0|0:0,0:0:0:0:
391,61,68447,2,0,B|373:26|373:26|336:26,1,74.7500014257431,8|0,0:0|0:0,0:0:0:0:
347,131,68681,2,0,B|329:96|329:96|292:96,1,74.7500014257431,8|0,0:0|0:0,0:0:0:0:
146,61,68916,2,0,B|111:78|111:78|111:115,1,74.7500014257431,8|0,0:0|0:0,0:0:0:0:
216,105,69150,2,0,B|181:122|181:122|181:159,1,74.7500014257431,8|0,0:0|0:0,0:0:0:0:
137,301,69384,2,0,B|154:335|154:335|191:335,1,74.7500014257431,8|0,0:0|0:0,0:0:0:0:
181,231,69618,2,0,B|198:265|198:265|235:265,1,74.7500014257431,8|0,0:0|0:0,0:0:0:0:
382,301,69854,6,0,B|416:283|416:283|416:246,1,74.7500014257431,8|0,0:0|0:0,0:0:0:0:
391,61,70088,2,0,B|373:26|373:26|336:26,1,74.7500014257431,8|0,0:0|0:0,0:0:0:0:
146,61,70322,2,0,B|111:78|111:78|111:115,1,74.7500014257431,8|0,0:0|0:0,0:0:0:0:
137,301,70557,2,0,B|154:335|154:335|191:335,1,74.7500014257431,8|0,0:0|0:0,0:0:0:0:
312,257,70791,2,0,B|346:239|346:239|346:202,1,74.7500014257431,8|0,0:0|0:0,0:0:0:0:
347,131,71025,2,0,B|329:96|329:96|292:96,1,74.7500014257431,8|0,0:0|0:0,0:0:0:0:
216,105,71260,2,0,B|181:122|181:122|181:159,1,74.7500014257431,8|0,0:0|0:0,0:0:0:0:
181,231,71494,2,0,B|198:265|198:265|235:265,1,74.7500014257431,8|0,0:0|0:0,0:0:0:0:
355,192,71729,5,2,0:0:0:0:
348,153,71846,1,4,0:0:0:0:
326,121,71963,1,2,0:0:0:0:
294,99,72080,1,4,0:0:0:0:
256,92,72197,1,2,0:0:0:0:
217,99,72315,1,4,0:0:0:0:
185,121,72432,1,2,0:0:0:0:
163,153,72549,1,4,0:0:0:0:
156,191,72666,5,2,0:0:0:0:
163,230,72783,1,4,0:0:0:0:
185,262,72901,1,2,0:0:0:0:
217,284,73018,1,4,0:0:0:0:
256,291,73135,1,2,0:0:0:0:
294,284,73252,1,4,0:0:0:0:
326,262,73369,1,2,0:0:0:0:
348,230,73486,1,4,0:0:0:0:
355,192,73604,6,0,P|341:139|321:101,1,97.50000371933,0|8,0:0|0:0,0:0:0:0:
355,192,74072,1,0,0:0:0:0:
224,104,74307,1,4,0:0:0:0:
321,100,74541,1,8,0:0:0:0:
71,347,75010,1,14,0:0:0:0:
345,197,75479,6,0,B|280:262|168:227,1,155.999995239258,10|0,0:0|0:0,0:0:0:0:
148,88,75947,2,0,P|176:129|187:169,1,77.999997619629,10|0,0:0|0:0,0:0:0:0:
124,205,76182,2,0,P|96:164|85:124,1,77.999997619629,8|0,0:0|0:0,0:0:0:0:
72,60,76416,1,2,0:0:0:0:
69,262,76650,2,0,L|16:317,2,51.999998413086
124,206,76885,2,0,P|189:176|289:173,1,155.999995239258,10|0,0:0|0:0,0:0:0:0:
236,322,77354,6,0,P|201:306|169:273,1,77.999997619629,10|0,0:0|0:0,0:0:0:0:
242,243,77588,2,0,P|277:259|309:292,1,77.999997619629
168,220,77822,2,0,P|154:183|155:137,1,77.999997619629,10|0,0:0|0:0,0:0:0:0:
228,168,78056,2,0,P|241:204|240:250,1,77.999997619629
178,297,78291,2,0,P|105:265|211:157,1,233.999992858887,10|0,0:0|0:0,0:0:0:0:
228,169,78760,2,0,B|311:182|311:182|309:193|309:193|367:201|367:201|370:191|370:191|453:201,1,233.999992858887,10|0,0:0|0:0,0:0:0:0:
380,116,79229,6,0,L|211:91,1,155.999995239258,10|0,0:0|0:0,0:0:0:0:
69,94,79697,2,0,B|107:100|107:100|134:152,1,77.999997619629,10|0,0:0|0:0,0:0:0:0:
156,207,79932,2,0,B|174:242|174:242|212:248,1,77.999997619629
228,169,80166,1,10,0:0:0:0:
54,273,80400,2,0,L|4:304,2,51.999998413086
51,194,80635,2,0,B|68:94|68:94|156:58,1,155.999995239258,10|0,0:0|0:0,0:0:0:0:
270,36,81104,5,8,0:0:0:0:
268,191,81338,2,0,B|268:233|268:233|240:261,1,77.999997619629
287,321,81572,2,0,B|323:300|323:300|361:310,1,77.999997619629,10|0,0:0|0:0,0:0:0:0:
395,240,81807,2,0,B|358:219|358:219|348:180,1,77.999997619629
313,115,82041,2,0,B|305:99|305:99|259:99|259:99|254:110|254:110|203:110|203:110|199:99|199:99|141:99|141:99|133:108|133:108|108:108,1,233.999992858887,10|0,0:0|0:0,0:0:0:0:
51,52,82510,2,0,B|17:88|14:124|24:157|56:180|69:186|101:192|101:192|162:201,1,233.999992858887,10|0,0:0|0:0,0:0:0:0:
246,212,82979,6,0,B|294:220|294:220|313:114|313:114,1,155.999995239258,10|0,0:0|0:0,0:0:0:0:
157,117,83447,2,0,L|240:115,1,77.999997619629,10|0,0:0|0:0,0:0:0:0:
312,114,83682,2,0,L|395:112,1,77.999997619629
467,108,83916,1,10,0:0:0:0:
415,303,84150,2,0,L|403:362,2,51.999998413086
436,228,84385,2,0,P|378:234|318:307,1,155.999995239258,10|0,0:0|0:0,0:0:0:0:
373,159,84854,6,0,P|382:131|362:88,1,77.999997619629,10|0,0:0|0:0,0:0:0:0:
228,116,85088,2,0,P|265:109|297:130,1,77.999997619629
312,206,85322,2,0,P|298:241|264:258,1,77.999997619629,10|0,0:0|0:0,0:0:0:0:
188,239,85557,2,0,P|163:209|166:171,1,77.999997619629
226,116,85791,2,0,B|265:97|265:97|303:97|303:97|313:104|313:104|382:104|382:104|391:97|391:97|474:97,1,233.999992858887,10|0,0:0|0:0,0:0:0:0:
451,175,86260,2,0,B|433:293|433:293|331:351,1,233.999992858887,10|0,0:0|0:0,0:0:0:0:
246,295,86729,6,0,P|251:236|350:240,1,155.999995239258,10|0,0:0|0:0,0:0:0:0:
181,192,87197,2,0,L|78:170,1,77.999997619629,10|0,0:0|0:0,0:0:0:0:
101,97,87432,2,0,L|177:113,1,77.999997619629
253,130,87666,1,10,0:0:0:0:
106,269,87900,2,0,L|53:314,2,51.999998413086
142,338,88135,2,0,B|223:346|223:346|300:338,1,155.999995239258,10|0,0:0|0:0,0:0:0:0:
200,215,88604,5,8,0:0:0:0:
281,82,88838,2,0,L|236:156,1,77.999997619629
163,136,89072,2,0,P|125:171|114:225,1,77.999997619629
137,270,89307,2,0,P|180:297|235:294,1,77.999997619629
271,259,89541,2,0,B|281:240|290:207|270:168|270:168|280:126|241:104|241:104|276:113|295:96|295:96|282:126|318:161|358:168,1,311.999990478516,0|12,0:0|0:0,0:0:0:0:
46,38,90479,6,0,B|113:51|144:75|144:75|148:138,1,155.999995239258,10|0,0:0|0:0,0:0:0:0:
69,122,90830,1,4,0:0:0:0:
224,123,90947,2,0,P|205:170|153:201,1,77.999997619629,2|0,0:0|0:0,0:0:0:0:
69,122,91182,1,4,0:0:0:0:
204,46,91416,6,0,P|286:74|309:134,1,155.999995239258,10|0,0:0|0:0,0:0:0:0:
274,207,91768,1,4,0:0:0:0:
359,77,91885,2,0,B|338:87|338:87|308:135,1,77.999997619629,2|0,0:0|0:0,0:0:0:0:
274,207,92119,1,4,0:0:0:0:
134,277,92354,6,0,B|124:189|124:189|148:122,1,155.999995239258,10|0,0:0|0:0,0:0:0:0:
181,55,92705,1,4,0:0:0:0:
33,106,92822,2,0,B|61:82|61:82|107:68,1,77.999997619629,2|0,0:0|0:0,0:0:0:0:
181,55,93057,1,4,0:0:0:0:
270,182,93291,6,0,P|321:235|406:214,1,155.999995239258,10|0,0:0|0:0,0:0:0:0:
348,160,93643,1,4,0:0:0:0:
456,48,93760,2,0,B|394:72|394:72|387:83,1,77.999997619629,2|0,0:0|0:0,0:0:0:0:
348,160,93994,1,4,0:0:0:0:
191,162,94229,6,0,B|174:132|182:58|182:58|247:25,1,155.999995239258,10|0,0:0|0:0,0:0:0:0:
256,107,94580,1,4,0:0:0:0:
100,92,94697,2,0,B|108:23|108:23|164:43,1,77.999997619629,2|0,0:0|0:0,0:0:0:0:
256,107,94932,1,4,0:0:0:0:
353,228,95166,6,0,B|400:283|400:283|398:293|398:293|433:335|433:335|440:337|440:337|453:351|453:351,1,155.999995239258,10|0,0:0|0:0,0:0:0:0:
475,273,95518,1,4,0:0:0:0:
378,150,95635,2,0,B|399:155|399:155|435:205,1,77.999997619629,2|0,0:0|0:0,0:0:0:0:
475,273,95869,1,4,0:0:0:0:
321,302,96104,6,0,B|248:318|248:318|187:257,1,155.999995239258,10|0,0:0|0:0,0:0:0:0:
143,199,96455,1,4,0:0:0:0:
218,62,96572,2,0,B|178:95|178:95|166:127,1,77.999997619629,2|0,0:0|0:0,0:0:0:0:
143,199,96807,1,4,0:0:0:0:
283,132,97041,6,0,B|378:91|378:91|398:28,1,155.999995239258,10|0,0:0|0:0,0:0:0:0:
315,33,97393,1,4,0:0:0:0:
206,145,97510,2,0,P|218:86|244:65,1,77.999997619629,10|0,0:0|0:0,0:0:0:0:
315,33,97744,1,4,0:0:0:0:
299,188,97979,6,0,P|270:98|207:53,1,155.999995239258,10|0,0:0|0:0,0:0:0:0:
150,35,98330,1,4,0:0:0:0:
27,131,98447,2,0,B|70:122|70:122|107:84,1,77.999997619629,2|0,0:0|0:0,0:0:0:0:
150,35,98682,1,4,0:0:0:0:
113,186,98916,6,0,P|164:273|211:296,1,155.999995239258,10|0,0:0|0:0,0:0:0:0:
288,301,99268,1,4,0:0:0:0:
278,145,99385,2,0,B|271:182|271:182|278:229,1,77.999997619629,2|0,0:0|0:0,0:0:0:0:
288,301,99619,1,4,0:0:0:0:
357,161,99854,6,0,P|313:74|251:70,1,155.999995239258,10|0,0:0|0:0,0:0:0:0:
199,112,100205,1,4,0:0:0:0:
62,36,100322,2,0,P|112:39|139:65,1,77.999997619629,2|0,0:0|0:0,0:0:0:0:
199,112,100557,1,4,0:0:0:0:
217,266,100791,6,0,B|246:258|273:231|273:231|295:191|278:145,1,155.999995239258,10|0,0:0|0:0,0:0:0:0:
212,187,101143,1,4,0:0:0:0:
181,34,101260,2,0,B|155:49|136:67|136:67|120:100,1,77.999997619629,2|0,0:0|0:0,0:0:0:0:
212,187,101494,1,4,0:0:0:0:
98,294,101729,6,0,B|218:266|218:266|261:266,1,155.999995239258,10|0,0:0|0:0,0:0:0:0:
328,266,102080,1,4,0:0:0:0:
276,119,102197,2,0,B|285:70|285:70|305:38,1,77.999997619629,6|0,0:0|0:0,0:0:0:0:
356,100,102432,2,0,B|405:109|405:109|437:129,1,77.999997619629,6|0,0:0|0:0,0:0:0:0:
376,181,102666,6,0,B|367:230|367:230|347:262,1,77.999997619629,6|0,0:0|0:0,0:0:0:0:
292,203,102900,2,0,B|243:194|243:194|211:174,1,77.999997619629,6|0,0:0|0:0,0:0:0:0:
203,95,103135,2,0,B|252:104|252:104|284:124,1,77.999997619629,6|0,0:0|0:0,0:0:0:0:
119,117,103369,2,0,B|128:68|128:68|148:36,1,77.999997619629,6|0,0:0|0:0,0:0:0:0:
158,225,103604,6,8,L|246:281,1,97.50000371933,10|0,0:0|0:0,0:0:0:0:
454,141,103955,2,0,P|373:73|265:82,1,195.00000743866,6|0,0:0|0:0,0:0:0:0:
158,225,104307,2,0,L|246:281,1,97.50000371933,10|0,0:0|0:0,0:0:0:0:
454,141,104658,2,0,P|373:73|265:82,1,195.00000743866,6|0,0:0|0:0,0:0:0:0:
111,298,105010,2,0,P|227:268|146:142,1,227.500002169609,10|0,0:0|0:0,0:0:0:0:
129,88,105479,5,6,0:0:0:0:
157,214,105713,1,0,0:0:0:0:
230,106,105947,1,6,0:0:0:0:
156,243,106182,1,0,0:0:0:0:
112,53,106416,1,6,0:0:0:0:
156,243,106650,1,0,0:0:0:0:
129,88,106885,1,6,0:0:0:0:
157,214,107119,1,0,0:0:0:0:
230,106,107353,5,6,0:0:0:0:
315,166,107583,1,0,0:0:0:0:
230,106,107814,1,6,0:0:0:0:
311,208,108045,1,0,0:0:0:0:
188,304,108276,2,0,L|121:308,1,65,6|0,0:0|0:0,0:0:0:0:
147,234,108506,2,0,L|80:238,1,65
111,165,108737,2,0,L|44:169,1,65,6|0,0:0|0:0,0:0:0:0:
75,96,108968,2,0,L|8:100,1,65
141,53,109199,5,6,0:0:0:0:
267,81,109426,1,0,0:0:0:0:
159,154,109653,1,6,0:0:0:0:
296,80,109880,1,0,0:0:0:0:
106,36,110108,1,6,0:0:0:0:
296,80,110335,1,0,0:0:0:0:
141,53,110562,1,6,0:0:0:0:
267,81,110789,1,0,0:0:0:0:
159,154,111017,5,6,0:0:0:0:
219,239,111240,1,0,0:0:0:0:
159,154,111464,1,6,0:0:0:0:
261,235,111688,1,0,0:0:0:0:
254,79,111912,2,0,L|288:14,1,65,6|0,0:0|0:0,0:0:0:0:
358,47,112136,2,0,L|327:104,1,65
293,175,112360,2,0,L|262:232,1,65,6|0,0:0|0:0,0:0:0:0:
226,302,112584,2,0,L|195:359,1,65
262,232,112808,5,6,0:0:0:0:
226,302,113028,1,0,0:0:0:0:
269,221,113249,1,6,0:0:0:0:
226,302,113469,1,0,0:0:0:0:
275,209,113690,1,6,0:0:0:0:
226,302,113910,1,0,0:0:0:0:
281,197,114131,1,6,0:0:0:0:
226,302,114352,1,0,0:0:0:0:
288,185,114572,5,6,0:0:0:0:
226,302,114789,1,0,0:0:0:0:
293,175,115006,1,6,0:0:0:0:
226,302,115224,1,0,0:0:0:0:
300,162,115441,1,6,0:0:0:0:
226,302,115658,1,0,0:0:0:0:
306,150,115876,1,6,0:0:0:0:
226,302,116093,1,0,0:0:0:0:
336,92,116311,5,6,0:0:0:0:
195,359,116525,1,6,0:0:0:0:
336,92,116739,1,6,0:0:0:0:
195,359,116953,1,6,0:0:0:0:
336,92,117168,5,6,0:0:0:0:
195,359,117382,1,6,0:0:0:0:
336,92,117596,1,6,0:0:0:0:
195,359,117811,1,6,0:0:0:0:
336,92,118025,6,0,L|359:51,2,24.3750009298325
337,184,118239,2,0,B|306:233,1,48.750001859665
209,281,118453,2,0,B|235:239,1,48.750001859665
195,359,118668,2,0,B|168:389,2,24.3750009298325
291,313,118882,2,0,P|358:304|436:339,1,146.250005578995
355,192,119311,1,0,0:0:0:0:
9,83,119739,6,0,B|97:110|97:110|59:130|51:184,1,155.999995239258,8|0,0:0|0:0,0:0:0:0:
182,64,120168,2,0,P|261:50|350:76,1,155.999995239258,8|0,0:0|0:0,0:0:0:0:
471,141,120596,1,6,0:0:0:0:
471,297,120811,2,0,L|470:361,2,51.999998413086
450,221,121025,2,0,P|378:184|276:174,1,155.999995239258
85,253,121453,6,0,P|109:288|145:305,1,77.999997619629
135,185,121668,2,0,B|96:170|96:170|43:177,1,77.999997619629
8,279,121882,2,0,B|24:317|24:317|53:339,1,77.999997619629
161,295,122096,2,0,B|199:278|199:278|221:249,1,77.999997619629
263,182,122311,2,0,P|312:112|506:154,1,311.999990478516
233,306,123168,6,0,B|161:345|161:345|76:309,1,155.999995239258,8|0,0:0|0:0,0:0:0:0:
223,230,123596,2,0,P|288:252|301:341,1,155.999995239258,8|0,0:0|0:0,0:0:0:0:
350,180,124025,1,6,0:0:0:0:
429,45,124239,2,0,P|446:17|476:-10,2,51.999998413086
364,89,124453,2,0,B|299:108|299:108|200:109,1,155.999995239258
54,110,124882,5,0,0:0:0:0:
154,228,125096,2,0,B|178:254|178:254|178:302,1,77.999997619629
113,342,125311,2,0,B|78:349|78:349|36:325,1,77.999997619629
23,252,125525,2,0,B|33:218|33:218|75:194,1,77.999997619629
179,153,125739,2,0,B|265:144|336:239|336:239|396:313|508:328,1,311.999990478516
128,257,126596,6,0,P|72:190|120:119,1,155.999995239258
251,145,127025,2,0,B|202:142|202:142|161:38,1,155.999995239258
312,85,127453,1,6,0:0:0:0:
235,221,127668,2,0,P|226:257|228:304,2,51.999998413086
304,256,127882,2,0,P|280:329|163:311,1,155.999995239258
121,128,128311,6,0,L|153:203,1,77.999997619629
62,275,128525,2,0,L|62:195,1,77.999997619629
58,80,128739,2,0,B|91:54|91:54|160:45,1,77.999997619629
230,103,128953,2,0,L|320:148,1,77.999997619629
383,221,129168,2,0,P|306:334|101:342,1,311.999990478516
223,58,130025,6,0,P|221:156|164:234,1,155.999995239258
94,325,130453,2,0,P|96:227|153:149,1,155.999995239258
263,246,130882,1,0,0:0:0:0:
123,177,131096,2,0,L|76:155,2,51.999998413086
193,205,131311,2,0,P|268:163|338:247,1,155.999995239258
265,338,131739,1,6,0:0:0:0:
323,193,131953,6,0,L|361:118,1,77.999997619629,6|6,0:0|0:0,0:0:0:0:
287,88,132168,2,0,L|249:163,1,77.999997619629,6|6,0:0|0:0,0:0:0:0:
218,309,132382,2,0,L|256:234,1,77.999997619629,6|6,0:0|0:0,0:0:0:0:
177,223,132596,2,0,L|139:298,4,77.999997619629,2|2|2|2|2,0:0|0:0|0:0|0:0|0:0,0:0:0:0:
48,312,133239,2,0,L|17:348,2,38.9999988098145,6|6|6,0:0|0:0|0:0,0:0:0:0:
41,228,133453,6,0,L|108:188,3,77.999997619629,8|0|0|0,0:0|0:0|0:0|0:0,0:0:0:0:
176,149,133882,2,0,L|243:109,1,77.999997619629,8|0,0:0|0:0,0:0:0:0:
358,126,134096,2,0,L|290:165,1,77.999997619629,8|0,0:0|0:0,0:0:0:0:
310,65,134311,2,0,L|377:25,1,77.999997619629,10|0,0:0|0:0,0:0:0:0:
462,79,134525,1,4,0:0:0:0:
441,178,134632,1,4,0:0:0:0:
346,213,134739,2,0,P|300:214|213:180,3,77.999997619629,8|0|0|0,0:0|0:0|0:0|0:0,0:0:0:0:
184,137,135168,6,0,P|150:98|136:56,1,77.999997619629,8|0,0:0|0:0,0:0:0:0:
217,65,135382,2,0,P|251:104|265:146,1,77.999997619629,8|0,0:0|0:0,0:0:0:0:
268,207,135596,2,0,P|284:241|312:269,1,77.999997619629,8|0,0:0|0:0,0:0:0:0:
390,264,135811,2,0,P|373:229|345:201,1,77.999997619629,8|0,0:0|0:0,0:0:0:0:
268,207,136025,2,0,L|204:258,3,77.999997619629,10|0|0|0,0:0|0:0|0:0|0:0,0:0:0:0:
152,199,136453,2,0,L|113:228,6,38.9999988098145,10|2|2|2|2|2|2,0:0|0:0|0:0|0:0|0:0|0:0|0:0,0:0:0:0:
235,126,136882,6,0,P|273:97|313:78,3,77.999997619629,8|0|0|0,0:0|0:0|0:0|0:0,0:0:0:0:
415,60,137311,2,0,L|444:143,1,77.999997619629,8|0,0:0|0:0,0:0:0:0:
397,242,137525,2,0,L|371:168,1,77.999997619629,8|0,0:0|0:0,0:0:0:0:
465,205,137739,2,0,L|494:288,1,77.999997619629,10|0,0:0|0:0,0:0:0:0:
407,336,137953,1,4,0:0:0:0:
316,288,138061,1,4,0:0:0:0:
228,237,138168,2,0,P|187:231|136:245,3,77.999997619629,10|0|0|0,0:0|0:0|0:0|0:0,0:0:0:0:
210,155,138596,6,0,L|127:166,1,77.999997619629,8|0,0:0|0:0,0:0:0:0:
52,101,138811,2,0,L|129:90,1,77.999997619629,8|0,0:0|0:0,0:0:0:0:
206,77,139025,2,0,L|283:66,1,77.999997619629,8|0,0:0|0:0,0:0:0:0:
360,54,139239,2,0,L|437:43,1,77.999997619629,8|0,0:0|0:0,0:0:0:0:
508,116,139453,2,0,L|430:126,3,77.999997619629,10|0|0|0,0:0|0:0|0:0|0:0,0:0:0:0:
329,137,139882,1,14,0:0:0:0:
329,137,140311,6,0,L|291:209,3,77.999997619629,8|0|0|0,0:0|0:0|0:0|0:0,0:0:0:0:
244,294,140739,2,0,L|206:366,1,77.999997619629,8|0,0:0|0:0,0:0:0:0:
172,251,140953,2,0,L|208:182,1,77.999997619629,8|0,0:0|0:0,0:0:0:0:
107,198,141168,2,0,L|69:270,1,77.999997619629,10|0,0:0|0:0,0:0:0:0:
35,171,141382,1,4,0:0:0:0:
126,127,141489,1,4,0:0:0:0:
208,182,141596,2,0,P|285:204|291:204,3,77.999997619629,10|0|0|0,0:0|0:0|0:0|0:0,0:0:0:0:
368,258,142025,6,0,P|416:280|451:280,1,77.999997619629,8|0,0:0|0:0,0:0:0:0:
430,204,142239,2,0,P|452:156|452:121,1,77.999997619629,8|0,0:0|0:0,0:0:0:0:
376,143,142453,2,0,P|328:121|293:121,1,77.999997619629,8|0,0:0|0:0,0:0:0:0:
311,197,142668,2,0,P|289:245|289:280,1,77.999997619629,8|0,0:0|0:0,0:0:0:0:
368,258,142882,6,0,P|416:280|451:280,3,77.999997619629,10|0|0|0,0:0|0:0|0:0|0:0,0:0:0:0:
376,142,143311,2,0,P|352:132|334:132,6,38.9999988098145,10|2|2|2|2|2|2,0:0|0:0|0:0|0:0|0:0|0:0|0:0,0:0:0:0:
304,214,143739,6,0,B|271:243|271:243|224:249,3,77.999997619629,10|0|0|0,0:0|0:0|0:0|0:0,0:0:0:0:
139,218,144168,2,0,L|59:189,1,77.999997619629,8|0,0:0|0:0,0:0:0:0:
64,74,144382,2,0,L|137:100,1,77.999997619629,8|0,0:0|0:0,0:0:0:0:
238,110,144596,2,0,L|311:136,1,77.999997619629,10|0,0:0|0:0,0:0:0:0:
413,127,144811,1,4,0:0:0:0:
507,162,144918,1,4,0:0:0:0:
424,220,145025,2,0,L|356:263,3,77.999997619629,8|0|0|0,0:0|0:0|0:0|0:0,0:0:0:0:
265,220,145453,6,0,L|225:204,2,38.9999988098145,10|2|2,0:0|0:0|0:0,0:0:0:0:
302,125,145668,2,0,L|318:85,2,38.9999988098145,10|2|2,0:0|0:0|0:0,0:0:0:0:
355,191,145882,2,0,L|388:164,2,38.9999988098145,14|6|6,0:0|0:0|0:0,0:0:0:0:
342,275,146096,2,0,L|384:268,2,38.9999988098145,14|6|6,0:0|0:0|0:0,0:0:0:0:
285,340,146311,2,0,P|197:334|76:164,1,311.999990478516,14|6,0:0|0:0,0:0:0:0:
212,88,146953,2,0,L|248:62,4,38.9999988098145,14|6|6|6|14,0:0|0:0|0:0|0:0|0:0,0:0:0:0:
346,233,150596,5,8,0:0:0:0:
346,233,151025,1,8,0:0:0:0:
439,203,151239,1,4,0:0:0:0:
439,106,151453,1,2,0:0:0:0:
439,203,151668,1,4,0:0:0:0:
346,233,151882,1,8,0:0:0:0:
289,155,152311,5,0,0:0:0:0:
346,233,152525,1,8,0:0:0:0:
289,155,152739,1,0,0:0:0:0:
439,203,152953,1,4,0:0:0:0:
346,233,153168,1,8,0:0:0:0:
346,233,154025,5,8,0:0:0:0:
346,233,154448,1,8,0:0:0:0:
439,203,154661,1,4,0:0:0:0:
439,106,154874,1,2,0:0:0:0:
439,203,155086,1,4,0:0:0:0:
346,233,155299,1,8,0:0:0:0:
289,155,155725,5,0,0:0:0:0:
346,233,155937,1,8,0:0:0:0:
289,155,156150,1,0,0:0:0:0:
439,203,156363,1,4,0:0:0:0:
346,233,156576,1,8,0:0:0:0:
346,233,157427,5,8,0:0:0:0:
346,233,157849,1,8,0:0:0:0:
439,203,158060,1,4,0:0:0:0:
439,106,158272,1,2,0:0:0:0:
439,203,158483,1,4,0:0:0:0:
346,233,158694,1,8,0:0:0:0:
289,155,159117,5,0,0:0:0:0:
346,233,159328,1,8,0:0:0:0:
289,155,159539,1,0,0:0:0:0:
439,203,159750,1,4,0:0:0:0:
346,233,159962,2,0,B|288:260|237:233|237:233|167:233|167:233|85:288,1,195.00000743866,8|0,0:0|0:0,0:0:0:0:
106,318,160807,5,8,0:0:0:0:
106,318,161226,1,8,0:0:0:0:
218,282,161436,1,4,0:0:0:0:
218,165,161646,1,2,0:0:0:0:
218,282,161855,1,4,0:0:0:0:
106,318,162065,1,8,0:0:0:0:
38,224,162485,5,0,0:0:0:0:
106,318,162695,1,8,0:0:0:0:
38,224,162904,1,0,0:0:0:0:
218,282,163114,1,4,0:0:0:0:
106,318,163324,2,0,B|115:268|115:268|126:243|126:243|128:220|128:220|122:193|122:193|131:120,1,195.00000743866,8|0,0:0|0:0,0:0:0:0:
390,103,164163,5,6,0:0:0:0:
296,192,164371,1,0,0:0:0:0:
296,62,164579,1,6,0:0:0:0:
281,217,164788,1,0,0:0:0:0:
424,84,164996,1,6,0:0:0:0:
281,217,165204,1,0,0:0:0:0:
390,103,165413,1,6,0:0:0:0:
296,192,165621,1,0,0:0:0:0:
296,62,165829,5,6,0:0:0:0:
192,64,166038,1,0,0:0:0:0:
296,62,166246,1,6,0:0:0:0:
172,101,166454,1,0,0:0:0:0:
297,138,166663,2,0,P|337:127|371:93,1,65,6|0,0:0|0:0,0:0:0:0:
296,62,166871,2,0,P|256:73|222:107,1,65
222,163,167079,2,0,P|247:196|290:217,1,65,6|0,0:0|0:0,0:0:0:0:
341,184,167288,2,0,P|317:150|274:129,1,65
172,101,167491,5,6,0:0:0:0:
266,190,167697,1,0,0:0:0:0:
266,60,167904,1,6,0:0:0:0:
281,215,168111,1,0,0:0:0:0:
138,82,168318,1,6,0:0:0:0:
281,215,168525,1,0,0:0:0:0:
172,101,168732,1,6,0:0:0:0:
266,190,168939,1,0,0:0:0:0:
266,60,169146,5,6,0:0:0:0:
370,62,169353,1,0,0:0:0:0:
266,60,169559,1,6,0:0:0:0:
390,99,169766,1,0,0:0:0:0:
269,144,169973,2,0,L|183:126,1,65,6|0,0:0|0:0,0:0:0:0:
203,46,170180,2,0,L|267:59,1,65
335,19,170387,2,0,L|371:73,1,65,6|0,0:0|0:0,0:0:0:0:
449,79,170594,2,0,L|436:142,1,65
418,272,170801,5,6,0:0:0:0:
324,183,171026,1,0,0:0:0:0:
324,313,171231,1,6,0:0:0:0:
309,158,171437,1,0,0:0:0:0:
452,291,171642,1,6,0:0:0:0:
309,158,171848,1,0,0:0:0:0:
418,272,172053,1,6,0:0:0:0:
324,183,172259,1,0,0:0:0:0:
324,313,172464,5,6,0:0:0:0:
220,311,172670,1,0,0:0:0:0:
324,313,172875,1,6,0:0:0:0:
200,274,173081,1,0,0:0:0:0:
326,182,173286,2,0,B|353:159|353:159|371:127,1,65,6|0,0:0|0:0,0:0:0:0:
339,60,173492,2,0,B|313:82|313:82|295:114,1,65
225,85,173697,2,0,B|223:119|223:119|232:154,1,65,6|0,0:0|0:0,0:0:0:0:
167,192,173903,2,0,B|190:218|190:218|222:236,1,65
119,321,174108,5,6,0:0:0:0:
213,232,174313,1,0,0:0:0:0:
213,362,174518,1,6,0:0:0:0:
228,207,174724,1,0,0:0:0:0:
85,340,174929,1,6,0:0:0:0:
228,207,175135,1,0,0:0:0:0:
119,321,175340,1,6,0:0:0:0:
213,232,175546,1,0,0:0:0:0:
213,362,175751,5,6,0:0:0:0:
317,360,175957,1,0,0:0:0:0:
213,362,176162,1,6,0:0:0:0:
337,323,176368,1,0,0:0:0:0:
446,211,176573,2,0,L|386:273,1,65,6|0,0:0|0:0,0:0:0:0:
325,243,176779,2,0,L|239:244,1,65
186,219,176984,2,0,L|124:159,1,65,6|0,0:0|0:0,0:0:0:0:
131,96,177190,2,0,L|130:31,1,65
216,43,177380,6,0,P|271:104|356:127,1,143.000004364014,14|0,0:0|0:0,0:0:0:0:
398,132,177686,1,4,0:0:0:0:
456,79,177788,2,0,B|421:58|421:58|367:58,1,71.5000021820069,2|0,0:0|0:0,0:0:0:0:
398,132,177992,1,4,0:0:0:0:
298,232,178196,6,0,B|241:279|241:279|171:252,1,143.000004364014,8|0,0:0|0:0,0:0:0:0:
113,221,178502,1,4,0:0:0:0:
94,144,178604,2,0,P|132:145|172:169,1,71.5000021820069,2|0,0:0|0:0,0:0:0:0:
113,221,178808,1,4,0:0:0:0:
254,149,179012,6,0,B|332:132|332:132|397:132,1,143.000004364014,8|0,0:0|0:0,0:0:0:0:
463,154,179318,1,4,0:0:0:0:
495,225,179420,2,0,P|454:230|401:203,1,71.5000021820069
463,154,179624,1,4,0:0:0:0:
414,302,179828,6,0,B|401:342|401:342|347:356|293:342,1,143.000004364014,8|0,0:0|0:0,0:0:0:0:
231,331,180135,1,4,0:0:0:0:
154,317,180237,2,0,P|186:267|212:257,1,71.5000021820069,2|0,0:0|0:0,0:0:0:0:
231,331,180441,1,4,0:0:0:0:
153,194,180645,6,0,P|180:103|229:74,1,143.000004364014,8|0,0:0|0:0,0:0:0:0:
286,59,180949,1,4,0:0:0:0:
365,59,181050,2,0,P|356:95|328:128,1,71.5000021820069,2|0,0:0|0:0,0:0:0:0:
286,59,181253,1,4,0:0:0:0:
409,157,181455,6,0,B|442:186|442:186|422:234|369:260,1,143.000004364014,8|0,0:0|0:0,0:0:0:0:
307,276,181759,1,4,0:0:0:0:
236,243,181861,2,0,P|269:207|305:198,1,71.5000021820069,2|0,0:0|0:0,0:0:0:0:
307,276,182063,1,4,0:0:0:0:
214,148,182266,6,0,B|167:82|167:82|213:32,1,143.000004364014,8|0,0:0|0:0,0:0:0:0:
280,29,182570,1,4,0:0:0:0:
351,64,182672,2,0,P|319:95|275:110,1,71.5000021820069,2|0,0:0|0:0,0:0:0:0:
280,29,182874,1,4,0:0:0:0:
323,180,183077,6,0,B|342:251|342:251|324:337,1,143.000004364014,8|0,0:0|0:0,0:0:0:0:
271,363,183381,1,4,0:0:0:0:
200,331,183483,2,0,P|235:294|280:291,1,71.5000021820069,2|0,0:0|0:0,0:0:0:0:
271,363,183685,1,4,0:0:0:0:
130,301,183884,6,0,B|96:283|96:283|96:246,1,74.7500014257431,8|0,0:0|0:0,0:0:0:0:
200,257,184085,2,0,B|166:239|166:239|166:202,1,74.7500014257431,8|0,0:0|0:0,0:0:0:0:
121,61,184286,2,0,B|139:26|139:26|176:26,1,74.7500014257431,8|0,0:0|0:0,0:0:0:0:
165,131,184488,2,0,B|183:96|183:96|220:96,1,74.7500014257431,8|0,0:0|0:0,0:0:0:0:
366,61,184689,2,0,B|401:78|401:78|401:115,1,74.7500014257431,8|0,0:0|0:0,0:0:0:0:
296,105,184890,2,0,B|331:122|331:122|331:159,1,74.7500014257431,8|0,0:0|0:0,0:0:0:0:
375,301,185092,2,0,B|358:335|358:335|321:335,1,74.7500014257431,8|0,0:0|0:0,0:0:0:0:
331,231,185293,2,0,B|314:265|314:265|277:265,1,74.7500014257431,8|0,0:0|0:0,0:0:0:0:
130,301,185494,6,0,B|96:283|96:283|96:246,1,74.7500014257431,8|0,0:0|0:0,0:0:0:0:
121,61,185696,2,0,B|139:26|139:26|176:26,1,74.7500014257431,8|0,0:0|0:0,0:0:0:0:
366,61,185897,2,0,B|401:78|401:78|401:115,1,74.7500014257431,8|0,0:0|0:0,0:0:0:0:
375,301,186098,2,0,B|358:335|358:335|321:335,1,74.7500014257431,8|0,0:0|0:0,0:0:0:0:
200,257,186300,2,0,B|166:239|166:239|166:202,1,74.7500014257431,8|0,0:0|0:0,0:0:0:0:
165,131,186501,2,0,B|183:96|183:96|220:96,1,74.7500014257431,8|0,0:0|0:0,0:0:0:0:
296,105,186702,2,0,B|331:122|331:122|331:159,1,74.7500014257431,8|0,0:0|0:0,0:0:0:0:
331,231,186904,2,0,B|314:265|314:265|277:265,1,74.7500014257431,8|0,0:0|0:0,0:0:0:0:
157,192,187099,5,2,0:0:0:0:
164,153,187205,1,4,0:0:0:0:
186,121,187305,1,2,0:0:0:0:
218,99,187405,1,4,0:0:0:0:
256,92,187505,1,2,0:0:0:0:
295,99,187605,1,4,0:0:0:0:
327,121,187705,1,2,0:0:0:0:
349,153,187805,1,4,0:0:0:0:
356,191,187905,5,2,0:0:0:0:
349,230,188005,1,4,0:0:0:0:
327,262,188105,5,2,0:0:0:0:
295,284,188205,1,4,0:0:0:0:
256,291,188305,1,2,0:0:0:0:
218,284,188405,1,4,0:0:0:0:
186,262,188505,1,2,0:0:0:0:
164,230,188605,1,4,0:0:0:0:
157,192,188705,6,0,P|171:139|191:101,1,97.50000371933,0|8,0:0|0:0,0:0:0:0:
157,192,189105,1,0,0:0:0:0:
288,104,189305,1,4,0:0:0:0:
190,101,189505,2,0,P|168:144|157:192,1,97.50000371933,0|8,0:0|0:0,0:0:0:0:
441,347,189905,1,14,0:0:0:0:
169,99,190305,6,0,B|210:137|239:175|239:175|207:173|167:153,1,155.999995239258,12|0,0:0|0:0,0:0:0:0:
41,110,190705,2,0,B|94:129|94:129|110:157,1,77.999997619629,12|0,0:0|0:0,0:0:0:0:
138,218,190905,2,0,P|174:245|256:258,1,77.999997619629
254,200,191105,1,12,0:0:0:0:
80,42,191305,2,0,P|46:31|10:40,2,51.999998413086
146,85,191505,2,0,P|219:113|305:96,1,155.999995239258,12|0,0:0|0:0,0:0:0:0:
165,189,191905,6,0,B|143:209|143:209|128:263,1,77.999997619629,12|0,0:0|0:0,0:0:0:0:
207,262,192105,2,0,L|286:269,1,77.999997619629
319,198,192305,2,0,L|240:191,1,77.999997619629,12|0,0:0|0:0,0:0:0:0:
361,263,192505,2,0,B|383:243|383:243|398:189,1,77.999997619629
360,127,192705,2,0,B|267:115|204:120|204:120|175:152|165:189|165:189|130:174|98:146,1,311.999990478516,12|12,0:0|0:0,0:0:0:0:
473,314,193505,6,0,B|362:263|362:263|248:258,1,233.999992858887,12|0,0:0|0:0,0:0:0:0:
176,234,193905,2,0,B|194:202|194:202|235:171,1,77.999997619629,12|0,0:0|0:0,0:0:0:0:
299,147,194105,2,0,P|382:134|446:141,1,77.999997619629
453,142,194305,1,12,0:0:0:0:
313,72,194505,2,0,L|250:45,2,51.999998413086
299,147,194705,2,0,B|307:227|248:248|248:248|245:304,1,155.999995239258,12|0,0:0|0:0,0:0:0:0:
212,127,195105,5,12,0:0:0:0:
442,169,195305,2,0,B|387:159|387:159|362:197,1,77.999997619629
328,285,195505,2,0,P|307:328|260:361,1,77.999997619629,12|0,0:0|0:0,0:0:0:0:
175,307,195705,2,0,P|148:267|143:210,1,77.999997619629
232,164,195905,2,0,P|279:160|503:282,1,311.999990478516,12|8,0:0|0:0,0:0:0:0:
190,262,196705,6,0,B|139:210|139:210|117:129,1,155.999995239258,12|0,0:0|0:0,0:0:0:0:
260,66,197105,2,0,B|222:83|222:83|177:86,1,77.999997619629,12|0,0:0|0:0,0:0:0:0:
212,158,197305,2,0,L|272:215,1,77.999997619629
310,146,197505,1,12,0:0:0:0:
454,88,197705,2,0,L|503:68,2,51.999998413086
381,118,197905,2,0,B|391:154|391:154|458:161|480:222,1,155.999995239258,12|0,0:0|0:0,0:0:0:0:
268,211,198305,6,0,P|241:234|227:291,1,77.999997619629,12|0,0:0|0:0,0:0:0:0:
132,299,198505,2,0,P|155:326|212:340,1,77.999997619629
272,335,198705,2,0,P|304:319|332:268,1,77.999997619629,12|0,0:0|0:0,0:0:0:0:
226,273,198905,2,0,P|210:240|159:212,1,77.999997619629
61,192,199105,2,0,B|101:194|101:194|111:135|150:38|150:38|174:101|143:143,1,311.999990478516,12|12,0:0|0:0,0:0:0:0:
436,33,199905,6,0,B|455:18|455:18|470:84|438:164,1,155.999995239258,12|0,0:0|0:0,0:0:0:0:
318,241,200305,2,0,P|235:282|184:285,1,77.999997619629,12|0,0:0|0:0,0:0:0:0:
250,199,200505,2,0,P|333:158|384:155,1,77.999997619629
387,198,200705,1,12,0:0:0:0:
468,331,200905,2,0,L|429:266,2,51.999998413086
391,350,201105,2,0,B|302:352|302:352|295:346|295:346|232:346,1,155.999995239258,12|0,0:0|0:0,0:0:0:0:
173,213,201505,5,4,0:0:0:0:
230,68,201705,1,0,0:0:0:0:
258,195,201905,1,4,0:0:0:0:
167,296,202105,1,0,0:0:0:0:
95,183,202305,1,4,0:0:0:0:
325,241,202705,2,0,B|335:222|344:189|324:150|324:150|334:108|295:86|295:86|330:95|349:78|349:78|336:108|372:143|412:150,1,292.50001115799,6|0,0:0|0:0,0:0:0:0:
334,327,203105,5,14,0:0:0:0:
178,327,203371,1,4,0:0:0:0:
334,327,203505,1,14,0:0:0:0:
100,191,203771,1,4,0:0:0:0:
178,327,203905,1,14,0:0:0:0:
178,56,204171,1,4,0:0:0:0:
100,191,204305,1,14,0:0:0:0:
334,56,204571,1,4,0:0:0:0:
178,56,204705,5,14,0:0:0:0:
412,192,204971,1,4,0:0:0:0:
334,56,205105,1,14,0:0:0:0:
334,327,205371,1,4,0:0:0:0:
412,192,205505,1,14,0:0:0:0:
178,327,205771,1,4,0:0:0:0:
334,327,205904,1,14,0:0:0:0:
178,327,206171,1,4,0:0:0:0:
100,191,206305,6,0,B|128:140|128:140|177:103,1,103.999996826172,14|0,0:0|0:0,0:0:0:0:
257,36,206571,1,4,0:0:0:0:
257,36,206705,2,0,B|308:64|308:64|345:113,1,103.999996826172,14|0,0:0|0:0,0:0:0:0:
412,193,206971,1,4,0:0:0:0:
412,193,207105,2,0,B|384:244|384:244|335:281,1,103.999996826172,14|0,0:0|0:0,0:0:0:0:
255,348,207371,1,4,0:0:0:0:
255,348,207505,2,0,B|204:320|204:320|167:271,1,103.999996826172,14|0,0:0|0:0,0:0:0:0:
100,191,207771,1,4,0:0:0:0:
164,112,207905,6,0,B|128:140|128:140|100:191,1,103.999996826172,14|0,0:0|0:0,0:0:0:0:
176,283,208171,1,4,0:0:0:0:
176,283,208305,2,0,B|204:320|204:320|255:348,1,103.999996826172,14|0,0:0|0:0,0:0:0:0:
347,272,208571,1,4,0:0:0:0:
347,271,208705,2,0,B|384:244|384:244|412:193,1,103.999996826172,14|0,0:0|0:0,0:0:0:0:
336,101,208971,1,4,0:0:0:0:
335,100,209105,2,0,B|308:64|308:64|257:36,1,103.999996826172,14|0,0:0|0:0,0:0:0:0:
165,112,209371,1,4,0:0:0:0:
78,53,209505,6,0,P|50:56|86:74,1,103.999996826172,14|0,0:0|0:0,0:0:0:0:
165,112,209771,1,4,0:0:0:0:
72,179,209905,2,0,P|61:204|94:182,1,103.999996826172,14|0,0:0|0:0,0:0:0:0:
165,112,210171,1,4,0:0:0:0:
177,236,210305,2,0,P|194:258|191:218,1,103.999996826172,14|0,0:0|0:0,0:0:0:0:
165,112,210571,1,4,0:0:0:0:
281,181,210705,2,0,P|308:177|273:159,1,103.999996826172,14|0,0:0|0:0,0:0:0:0:
165,112,210971,1,4,0:0:0:0:
281,181,211105,6,0,P|308:177|273:159,1,103.999996826172,14|0,0:0|0:0,0:0:0:0:
177,236,211371,1,4,0:0:0:0:
186,114,211505,2,0,P|196:88|163:110,1,103.999996826172,14|0,0:0|0:0,0:0:0:0:
177,236,211771,1,4,0:0:0:0:
78,142,211905,2,0,P|60:119|63:159,1,103.999996826172,14|0,0:0|0:0,0:0:0:0:
177,236,212171,1,4,0:0:0:0:
32,255,212305,2,0,P|4:258|40:276,1,103.999996826172,14|0,0:0|0:0,0:0:0:0:
177,236,212571,1,4,0:0:0:0:
333,247,212705,5,14,0:0:0:0:
179,107,212971,1,4,0:0:0:0:
332,139,213105,1,14,0:0:0:0:
333,346,213371,1,4,0:0:0:0:
180,307,213505,1,14,0:0:0:0:
258,114,213771,1,4,0:0:0:0:
402,173,213905,1,14,0:0:0:0:
259,324,214171,1,4,0:0:0:0:
172,193,214305,5,14,0:0:0:0:
352,90,214571,1,4,0:0:0:0:
325,244,214705,1,14,0:0:0:0:
121,283,214971,1,4,0:0:0:0:
92,128,215105,2,0,B|126:115|126:115|127:101|127:101|180:82|180:82|193:88|193:88|253:64|253:64|258:49|258:49|321:24|321:24|333:32|333:32|364:21,1,311.999990478516,14|0,0:0|0:0,0:0:0:0:
383,88,215905,5,6,0:0:0:0:
355,214,216105,1,0,0:0:0:0:
282,106,216305,1,6,0:0:0:0:
356,243,216505,1,0,0:0:0:0:
400,53,216705,1,6,0:0:0:0:
356,243,216905,1,0,0:0:0:0:
383,88,217105,1,6,0:0:0:0:
355,214,217305,1,0,0:0:0:0:
282,106,217506,5,6,0:0:0:0:
197,166,217700,1,0,0:0:0:0:
282,106,217895,1,6,0:0:0:0:
201,208,218090,1,0,0:0:0:0:
324,304,218285,2,0,L|391:308,1,65,6|0,0:0|0:0,0:0:0:0:
365,234,218480,2,0,L|432:238,1,65
401,165,218674,2,0,L|468:169,1,65,6|0,0:0|0:0,0:0:0:0:
437,96,218869,2,0,L|504:100,1,65
371,53,219064,5,6,0:0:0:0:
245,81,219253,1,0,0:0:0:0:
353,154,219443,1,6,0:0:0:0:
216,80,219633,1,0,0:0:0:0:
406,36,219823,1,6,0:0:0:0:
216,80,220013,1,0,0:0:0:0:
371,53,220203,1,6,0:0:0:0:
245,81,220393,1,0,0:0:0:0:
353,154,220582,5,6,0:0:0:0:
293,239,220767,1,0,0:0:0:0:
353,154,220952,1,6,0:0:0:0:
251,235,221137,1,0,0:0:0:0:
258,79,221322,2,0,L|224:14,1,65,6|0,0:0|0:0,0:0:0:0:
154,47,221507,2,0,L|185:104,1,65
219,175,221693,2,0,L|250:232,1,65,6|0,0:0|0:0,0:0:0:0:
286,302,221878,2,0,L|317:359,1,65
250,232,222063,5,6,0:0:0:0:
157,192,226298,6,0,P|171:139|191:101,1,97.50000371933,4|4,0:0|0:0,0:0:0:0:
157,192,226643,1,8,0:0:0:0:
288,104,226815,1,4,0:0:0:0:
191,100,226987,1,8,0:0:0:0:
191,100,227677,6,0,L|117:251,1,155.999995239258,8|8,0:0|0:0,0:0:0:0:
357,244,228022,1,6,0:0:0:0:
177,169,228194,1,4,0:0:0:0:
137,121,228281,1,4,0:0:0:0:
152,61,228367,1,6,0:0:0:0:
213,49,228453,1,4,0:0:0:0:
258,94,228539,1,12,0:0:0:0:
244,155,228625,1,4,0:0:0:0:
227,215,228712,2,0,P|226:272|320:337,1,155.999995239258,6|0,0:0|0:0,0:0:0:0:
386,138,229056,6,0,P|343:177|328:219,1,77.999997619629,8|0,0:0|0:0,0:0:0:0:
362,267,229229,2,0,P|405:228|420:186,1,77.999997619629,8|0,0:0|0:0,0:0:0:0:
300,107,229400,1,6,0:0:0:0:
257,153,229487,1,4,0:0:0:0:
260,220,229573,1,4,0:0:0:0:
299,270,229660,1,4,0:0:0:0:
361,267,229746,2,0,P|393:243|413:210,1,77.999997619629,6|0,0:0|0:0,0:0:0:0:
386,138,229919,2,0,P|343:177|328:219,1,77.999997619629,8|0,0:0|0:0,0:0:0:0:
286,272,230091,2,0,P|309:339|395:352,1,155.999995239258,6|0,0:0|0:0,0:0:0:0:
246,135,230436,6,0,P|216:70|129:64,1,155.999995239258,8|0,0:0|0:0,0:0:0:0:
19,161,230781,1,6,0:0:0:0:
147,161,230953,1,4,0:0:0:0:
112,212,231040,1,4,0:0:0:0:
119,274,231126,1,6,0:0:0:0:
165,318,231213,1,4,0:0:0:0:
228,323,231299,1,8,0:0:0:0:
281,291,231385,1,4,0:0:0:0:
297,230,231471,2,0,P|259:165|186:143,1,155.999995239258,6|0,0:0|0:0,0:0:0:0:
91,250,231815,6,0,P|133:318|211:335,1,155.999995239258,8|8,0:0|0:0,0:0:0:0:
141,193,232160,1,6,0:0:0:0:
15,237,232246,1,4,0:0:0:0:
29,298,232332,1,4,0:0:0:0:
86,325,232419,1,4,0:0:0:0:
144,304,232505,1,6,0:0:0:0:
158,247,232591,1,0,0:0:0:0:
151,185,232677,2,0,P|147:146|121:117,1,77.999997619629,8|0,0:0|0:0,0:0:0:0:
81,43,232850,2,0,P|39:106|62:178,1,155.999995239258,12|0,0:0|0:0,0:0:0:0:
196,98,233194,6,0,B|267:57|267:57|358:80,1,155.999995239258,8|0,0:0|0:0,0:0:0:0:
266,256,233539,1,4,0:0:0:0:
202,173,233712,1,4,0:0:0:0:
258,145,233798,1,4,0:0:0:0:
320,153,233884,1,2,0:0:0:0:
364,198,233970,1,4,0:0:0:0:
380,259,234056,1,8,0:0:0:0:
357,318,234143,1,4,0:0:0:0:
305,351,234229,2,0,P|229:362|164:322,1,155.999995239258,6|0,0:0|0:0,0:0:0:0:
283,220,234574,6,0,B|262:276|262:276|244:288,1,77.999997619629,8|0,0:0|0:0,0:0:0:0:
179,247,234746,2,0,L|212:169,1,77.999997619629,8|0,0:0|0:0,0:0:0:0:
278,96,234919,1,6,0:0:0:0:
335,71,235005,1,4,0:0:0:0:
389,103,235091,1,4,0:0:0:0:
400,165,235177,1,4,0:0:0:0:
394,226,235263,2,0,P|373:260|343:284,1,77.999997619629,4|0,0:0|0:0,0:0:0:0:
266,268,235436,2,0,P|327:205|379:196,1,77.999997619629,8|0,0:0|0:0,0:0:0:0:
285,347,235608,2,0,P|207:319|181:244,1,155.999995239258,6|0,0:0|0:0,0:0:0:0:
297,152,235953,6,0,B|266:269|266:269|251:257|251:232,1,155.999995239258,8|0,0:0|0:0,0:0:0:0:
312,56,236298,1,6,0:0:0:0:
394,194,236470,1,4,0:0:0:0:
371,252,236556,1,4,0:0:0:0:
326,296,236643,1,6,0:0:0:0:
265,309,236729,1,4,0:0:0:0:
213,275,236815,1,8,0:0:0:0:
173,228,236901,1,4,0:0:0:0:
166,167,236987,2,0,B|168:122|187:92|187:92|223:145|223:160,1,155.999995239258,6|2,0:0|0:0,0:0:0:0:
265,309,237332,6,0,B|263:354|244:384|244:384|208:331|184:247,1,155.999995239258,8|8,0:0|0:0,0:0:0:0:
285,135,237677,1,6,0:0:0:0:
336,99,237763,1,4,0:0:0:0:
399,98,237850,1,4,0:0:0:0:
451,133,237936,1,4,0:0:0:0:
476,191,238022,1,6,0:0:0:0:
466,253,238108,1,4,0:0:0:0:
427,301,238194,2,0,B|392:338|392:338|364:339,1,77.999997619629,8|0,0:0|0:0,0:0:0:0:
312,280,238367,2,0,B|338:195|363:171|363:171|382:204|354:232,1,155.999995239258,6|0,0:0|0:0,0:0:0:0:
260,170,238712,6,0,B|200:135|200:135|160:88,1,104,8|0,0:0|0:0,0:0:0:0:
111,29,239056,1,8,0:0:0:0:
120,164,239229,1,8,0:0:0:0:
249,78,239401,1,10,0:0:0:0:
111,29,239574,2,0,L|154:46,1,34.6666666666667,4|4,0:0|0:0,0:0:0:0:
249,78,239746,2,0,L|370:126,1,104,12|0,0:0|0:0,0:0:0:0:
442,156,240091,6,0,B|420:145|420:145|430:112|413:85,1,52,8|0,0:0|0:0,0:0:0:0:
388,54,240263,1,4,0:0:0:0:
374,209,240436,1,8,0:0:0:0:
465,82,240608,1,4,0:0:0:0:
323,149,240781,2,0,P|297:208|401:288,1,208,10|4,0:0|0:0,0:0:0:0:
365,83,241470,6,0,P|310:67|261:101,1,104,8|0,0:0|0:0,0:0:0:0:
236,185,241815,1,12,0:0:0:0:
195,56,241987,1,8,0:0:0:0:
323,149,242160,1,10,0:0:0:0:
178,132,242332,2,0,L|125:126,1,34.6666666666667,4|4,0:0|0:0,0:0:0:0:
46,119,242505,2,0,B|71:126|71:126|67:192|142:202,1,104,10|0,0:0|0:0,0:0:0:0:
192,246,242850,5,8,0:0:0:0:
323,149,243022,1,4,0:0:0:0:
256,345,243194,1,8,0:0:0:0:
254,129,243367,1,0,0:0:0:0:
333,320,243539,2,0,B|362:364|362:364|374:283|427:198,1,208,6|0,0:0|0:0,0:0:0:0:
281,57,244229,6,0,P|230:55|188:93,1,104,8|0,0:0|0:0,0:0:0:0:
165,187,244574,1,8,0:0:0:0:
254,129,244746,1,8,0:0:0:0:
118,116,244919,1,6,0:0:0:0:
238,214,245091,2,0,L|285:229,1,34.6666666666667,4|4,0:0|0:0,0:0:0:0:
370,256,245263,2,0,B|339:244|339:244|350:205|321:173,1,104,8|0,0:0|0:0,0:0:0:0:
165,187,245608,6,0,P|163:239|181:264,1,52,8|0,0:0|0:0,0:0:0:0:
239,308,245781,1,0,0:0:0:0:
324,177,245953,1,8,0:0:0:0:
236,48,246125,1,0,0:0:0:0:
165,187,246298,2,0,B|141:247|156:285|156:285|174:332|142:388,1,208,6|0,0:0|0:0,0:0:0:0:
77,189,246987,6,0,B|108:132|108:132|132:113|173:98,1,104,8|0,0:0|0:0,0:0:0:0:
239,76,247332,1,8,0:0:0:0:
169,192,247505,1,8,0:0:0:0:
137,39,247677,1,6,0:0:0:0:
241,155,247850,2,0,L|284:196,1,34.6666666666667,4|4,0:0|0:0,0:0:0:0:
340,251,248022,2,0,B|318:231|318:231|350:192|331:144,1,104,8|0,0:0|0:0,0:0:0:0:
194,96,248367,6,0,P|164:147|169:173,1,52,8|0,0:0|0:0,0:0:0:0:
164,215,248539,1,0,0:0:0:0:
275,105,248712,1,8,0:0:0:0:
340,251,248884,1,0,0:0:0:0:
257,383,249056,2,0,B|288:326|288:326|223:273|247:196,1,208,6|10,0:0|0:0,0:0:0:0:
453,40,249746,5,2,0:0:0:0:
298,164,250016,2,0,L|357:118,1,65,4|2,0:0|0:0,0:0:0:0:
226,221,250281,1,4,0:0:0:0:
316,48,250457,1,2,0:0:0:0:
312,243,250634,1,4,0:0:0:0:
220,117,250810,2,0,B|200:90|200:90|118:148,1,130,2|4,0:0|0:0,0:0:0:0:
121,274,251180,6,0,P|176:271|230:200,1,130,2|4,0:0|0:0,0:0:0:0:
57,202,251555,1,2,0:0:0:0:
182,350,251742,1,4,0:0:0:0:
143,158,251930,1,2,0:0:0:0:
38,290,252117,1,4,0:0:0:0:
165,263,252305,2,0,P|228:268|269:316,1,130,2|4,0:0|0:0,0:0:0:0:
270,191,252685,5,2,0:0:0:0:
430,80,252985,2,0,B|388:113|388:113|362:115,1,65,4|2,0:0|0:0,0:0:0:0:
220,121,253285,1,4,0:0:0:0:
397,202,253485,1,2,0:0:0:0:
300,79,253685,1,4,0:0:0:0:
271,205,253885,2,0,B|245:243|245:243|151:223,1,130,2|4,0:0|0:0,0:0:0:0:
25,286,254306,6,0,B|51:197|51:197|105:210,1,130,2|4,0:0|0:0,0:0:0:0:
206,305,254734,1,2,0:0:0:0:
157,116,254948,1,4,0:0:0:0:
129,270,255163,1,2,0:0:0:0:
218,175,255377,1,4,0:0:0:0:
223,45,255591,2,0,B|164:23|164:23|100:42,1,130,2|4,0:0|0:0,0:0:0:0:
223,45,256015,5,2,0:0:0:0:
99,42,256245,1,4,0:0:0:0:
255,48,256476,1,2,0:0:0:0:
99,42,256707,1,4,0:0:0:0:
280,51,256938,1,2,0:0:0:0:
99,42,257168,1,4,0:0:0:0:
306,54,257399,1,2,0:0:0:0:
99,42,257630,1,4,0:0:0:0:
339,56,257823,5,2,0:0:0:0:
99,42,258073,1,4,0:0:0:0:
371,60,258323,1,2,0:0:0:0:
99,42,258573,1,4,0:0:0:0:
396,67,258823,1,2,0:0:0:0:
99,42,259073,1,4,0:0:0:0:
422,73,259323,1,2,0:0:0:0:
99,42,259573,1,4,0:0:0:0:
460,82,259856,5,2,0:0:0:0:
99,42,260128,1,2,0:0:0:0:
460,82,260401,1,2,0:0:0:0:
99,42,260674,1,2,0:0:0:0:
460,82,260946,1,2,0:0:0:0:
99,42,261219,1,2,0:0:0:0:
460,82,261492,1,2,0:0:0:0:
99,42,261765,1,2,0:0:0:0:
460,82,262037,5,4,0:0:0:0:
460,82,262322,2,0,L|444:127,1,48.750001859665,2|4,0:0|0:0,0:0:0:0:
460,82,262751,2,0,L|444:127,1,48.750001859665,2|4,0:0|0:0,0:0:0:0:
460,82,263179,2,0,L|412:82,1,48.750001859665,2|2,0:0|0:0,0:0:0:0:
460,82,263608,2,0,L|444:37,1,48.750001859665,2|4,0:0|0:0,0:0:0:0:
235,268,264322,6,0,B|253:236|253:236|262:236|262:236|288:187|288:187|283:178|283:178|306:124,1,155.999995239258,10|4,0:0|0:0,0:0:0:0:
162,211,264894,1,10,0:0:0:0:
341,261,265179,1,4,0:0:0:0:
272,36,265465,1,10,0:0:0:0:
236,267,265751,2,0,L|226:323,2,51.999998413086,4|0|0,0:0|0:0|0:0,0:0:0:0:
251,190,266037,2,0,B|269:114|269:114|313:118|339:78,1,155.999995239258,10|4,0:0|0:0,0:0:0:0:
148,75,266608,5,10,0:0:0:0:
138,262,266894,1,4,0:0:0:0:
285,80,267179,1,10,0:0:0:0:
75,184,267465,1,4,0:0:0:0:
261,196,267751,2,0,P|347:247|383:326,1,155.999995239258,10|4,0:0|0:0,0:0:0:0:
220,268,268322,2,0,P|182:181|227:117,1,155.999995239258,10|4,0:0|0:0,0:0:0:0:
302,256,268894,6,0,P|270:337|176:342,1,155.999995239258,10|4,0:0|0:0,0:0:0:0:
155,206,269465,1,10,0:0:0:0:
336,158,269751,1,4,0:0:0:0:
145,294,270037,1,10,0:0:0:0:
259,90,270322,2,0,L|294:35,2,51.999998413086,4|0|0,0:0|0:0|0:0,0:0:0:0:
213,154,270608,2,0,P|150:201|69:197,1,155.999995239258,10|4,0:0|0:0,0:0:0:0:
221,255,271179,5,10,0:0:0:0:
357,126,271465,1,4,0:0:0:0:
264,341,271751,1,10,0:0:0:0:
266,153,272037,1,4,0:0:0:0:
171,314,272322,2,0,P|91:351|29:293,1,155.999995239258,10|4,0:0|0:0,0:0:0:0:
195,212,272894,2,0,B|244:165|295:254|372:187,1,155.999995239258,10|4,0:0|0:0,0:0:0:0:
215,117,273465,6,0,P|106:161|95:237,1,155.999995239258,10|4,0:0|0:0,0:0:0:0:
201,303,274037,1,10,0:0:0:0:
215,117,274322,1,4,0:0:0:0:
81,309,274608,1,10,0:0:0:0:
282,190,274894,2,0,B|311:173|311:173|346:173,2,51.999998413086,4|0|0,0:0|0:0|0:0,0:0:0:0:
241,256,275179,2,0,P|327:274|395:203,1,155.999995239258,10|4,0:0|0:0,0:0:0:0:
404,83,275751,5,10,0:0:0:0:
302,201,276037,1,4,0:0:0:0:
461,297,276322,1,10,0:0:0:0:
329,103,276608,1,4,0:0:0:0:
269,280,276894,2,0,P|374:247|381:161,1,155.999995239258,10|4,0:0|0:0,0:0:0:0:
232,197,277465,2,0,B|198:194|198:194|186:199|186:199|143:195|143:195|136:186|136:186|105:182|105:182|97:187|97:187|65:184,1,155.999995239258,10|4,0:0|0:0,0:0:0:0:
231,113,278037,6,0,P|311:157|309:245,1,155.999995239258,10|4,0:0|0:0,0:0:0:0:
224,338,278582,1,10,0:0:0:0:
117,183,278855,1,4,0:0:0:0:
314,307,279127,1,10,0:0:0:0:
172,120,279400,2,0,B|161:101|161:101|161:66,2,51.999998413086,4|0|0,0:0|0:0|0:0,0:0:0:0:
226,176,279673,2,0,P|271:195|366:139,1,155.999995239258,10|4,0:0|0:0,0:0:0:0:
237,39,280218,5,10,0:0:0:0:
175,180,280475,1,4,0:0:0:0:
360,149,280733,1,10,0:0:0:0:
131,101,280990,2,0,P|85:180|110:243,1,155.999995239258,4|10,0:0|0:0,0:0:0:0:
338,231,281505,2,0,P|382:231|436:198,2,77.999997619629,4|0|10,0:0|0:0|0:0,0:0:0:0:
175,180,282020,1,4,0:0:0:0:
219,84,282236,6,0,P|145:79|270:133,1,585.00002231598,14|0,0:0|0:0,0:0:0:0:
195,148,284111,6,0,P|145:157|210:166,1,195.00000743866,14|0,0:0|0:0,0:0:0:0:
225,280,285048,2,0,P|234:330|243:265,1,195.00000743866,14|0,0:0|0:0,0:0:0:0:
163,252,285986,6,0,B|110:242|110:242|141:214|141:154|141:154|183:172|235:155|235:155|335:195|372:277|372:277|371:74|464:74|464:74|484:123|455:182,1,780.00002975464,14|14,0:0|0:0,0:0:0:0:
420,260,288329,2,0,B|382:308|308:278|308:278|227:317|146:256|146:256|91:270|50:246,1,390.00001487732,0|14,0:0|0:0,0:0:0:0:
96,160,289736,6,0,P|188:47|188:280,1,585.00002231598,14|0,0:0|0:0,0:0:0:0:
99,247,291611,2,0,B|49:167|49:167|102:76,1,195.00000743866,14|0,0:0|0:0,0:0:0:0:
150,163,292548,2,0,B|200:243|200:243|147:334,1,195.00000743866,14|0,0:0|0:0,0:0:0:0:
246,320,293486,6,0,B|333:300|370:184|370:184|287:238|287:238|313:199|325:149|325:149|291:195|245:211|245:211|281:171|281:124|281:124|258:169|193:222|111:233,1,780.00002975464,14|14,0:0|0:0,0:0:0:0:
89,140,295829,2,0,P|175:62|368:193,1,390.00001487732,0|14,0:0|0:0,0:0:0:0:
296,259,297236,6,0,B|220:302|16:218|16:218|184:243|295:158,1,585.00002231598,14|0,0:0|0:0,0:0:0:0:
203,124,299111,2,0,P|123:139|154:232,1,195.00000743866,14|0,0:0|0:0,0:0:0:0:
240,208,300048,2,0,P|285:275|198:319,1,195.00000743866,14|0,0:0|0:0,0:0:0:0:
160,236,300986,6,0,B|141:159|218:99|218:99|261:173|247:313|156:355|156:355|27:258|79:134|127:49,1,780.00002975464,14|14,0:0|0:0,0:0:0:0:
218,63,303329,2,0,B|318:84|393:136|393:136|378:204|251:283,1,390.00001487732,0|14,0:0|0:0,0:0:0:0:
256,192,304794,12,0,312236,0:0:0:0:
