osu file format v14

[General]
AudioFilename: audio.mp3
AudioLeadIn: 0
PreviewTime: 67237
Countdown: 0
SampleSet: Soft
StackLeniency: 0.7
Mode: 0
LetterboxInBreaks: 0
WidescreenStoryboard: 1

[Editor]
DistanceSpacing: 1.6
BeatDivisor: 4
GridSize: 32
TimelineZoom: 2.399999

[Metadata]
Title:Jounetsu Utopia
TitleUnicode:蒸熱♨ユートピア
Artist:Karen, Koharu Meu, Harukawa Akari
ArtistUnicode:華憐、小春めう、春河あかり
Creator:Lasse
Version:Insane
Source:恋と恋するユートピア
Tags:Koi to Suru Utopia visual novel eroge opening Denki 電気 LoveMatic Koipia
BeatmapID:1475945
BeatmapSetID:695632

[Difficulty]
HPDrainRate:6
CircleSize:4
OverallDifficulty:7.5
ApproachRate:8.5
SliderMultiplier:1.6
SliderTickRate:1

[Events]
//Background and Video events
0,0,"bg_edit.jpg",0,0
//Break Periods
//Storyboard Layer 0 (Background)
//Storyboard Layer 1 (Fail)
//Storyboard Layer 2 (Pass)
//Storyboard Layer 3 (Foreground)
//Storyboard Sound Samples

[TimingPoints]
394,375,4,2,1,60,1,0
581,-100,4,2,1,42,0,0
674,-100,4,2,1,54,0,0
768,-100,4,2,1,60,0,0
1425,-100,4,2,1,42,0,0
1519,-100,4,2,1,60,0,0
1612,-100,4,2,1,42,0,0
1706,-100,4,2,1,48,0,0
1800,-100,4,2,1,54,0,0
1894,-100,4,2,1,60,0,0
2269,-100,4,2,1,42,0,0
2362,-100,4,2,1,54,0,0
2456,-100,4,2,1,60,0,0
2550,-100,4,2,1,42,0,0
2644,-100,4,2,1,60,0,0
3581,-100,4,2,1,42,0,0
3674,-100,4,2,1,54,0,0
3768,-100,4,2,1,60,0,0
4425,-100,4,2,1,42,0,0
4519,-100,4,2,1,60,0,0
4612,-100,4,2,1,42,0,0
4706,-100,4,2,1,48,0,0
4800,-100,4,2,1,54,0,0
4894,-100,4,2,1,60,0,0
5269,-100,4,2,1,42,0,0
5362,-100,4,2,1,54,0,0
5456,-100,4,2,1,60,0,0
5550,-100,4,2,1,42,0,0
5644,-100,4,2,1,60,0,0
6019,-250,4,2,1,60,0,0
6300,-500,4,2,99,5,0,0
6394,-90.9090909090909,4,2,1,63,0,0
8362,-90.9090909090909,4,2,1,52,0,0
8644,-90.9090909090909,4,2,1,63,0,0
9112,-90.9090909090909,4,2,1,52,0,0
9394,-90.9090909090909,4,2,1,63,0,0
10612,-90.9090909090909,4,2,1,52,0,0
10894,-90.9090909090909,4,2,1,63,0,0
14362,-90.9090909090909,4,2,1,52,0,0
14644,-90.9090909090909,4,2,1,63,0,0
15112,-90.9090909090909,4,2,1,52,0,0
15394,-90.9090909090909,4,2,1,63,0,0
16612,-90.9090909090909,4,2,1,52,0,0
16894,-90.9090909090909,4,2,1,63,0,0
18394,-90.9090909090909,4,2,1,66,0,0
22894,-90.9090909090909,4,2,1,68,0,0
23644,-90.9090909090909,4,2,1,70,0,0
24019,-250,4,2,1,72,0,0
24394,-200,4,2,43,55,0,0
25519,-200,4,2,43,30,0,0
25894,-200,4,2,43,40,0,0
26831,-200,4,2,43,30,0,0
27769,-200,4,2,43,11,0,0
28144,-200,4,2,43,30,0,0
28894,-200,4,2,43,40,0,0
29269,-200,4,2,43,11,0,0
30394,-200,4,2,43,40,0,0
31519,-200,4,2,43,30,0,0
31894,-200,4,2,43,40,0,0
32831,-200,4,2,43,30,0,0
33394,-200,4,2,43,40,0,0
33769,-200,4,2,43,11,0,0
34519,-200,4,2,43,30,0,0
34894,-166.666666666667,4,2,43,40,0,0
35269,-166.666666666667,4,2,43,11,0,0
36019,-166.666666666667,4,2,43,30,0,0
36394,-133.333333333333,4,2,1,52,0,0
37800,-133.333333333333,4,2,99,5,0,0
37894,-133.333333333333,4,2,1,52,0,0
42206,-133.333333333333,4,2,1,44,0,0
42394,-133.333333333333,4,2,1,52,0,0
43800,-133.333333333333,4,2,99,5,0,0
43894,-133.333333333333,4,2,1,52,0,0
48019,-80,4,2,1,52,0,0
48300,-80,4,2,1,20,0,0
48394,-111.111111111111,4,2,1,60,0,0
57394,-100,4,2,1,62,0,0
58894,-100,4,2,1,64,0,0
60394,-100,4,2,1,66,0,0
61894,-100,4,2,1,68,0,0
63394,-100,4,2,1,70,0,0
66394,-100,4,2,1,60,0,0
67331,-100,4,2,1,46,0,0
67519,-100,4,2,1,48,0,0
67706,-100,4,2,1,50,0,0
67894,-83.3333333333333,4,2,1,70,0,1
68081,-83.3333333333333,4,2,1,30,0,1
68175,-83.3333333333333,4,2,1,70,0,1
71081,-83.3333333333333,4,2,1,30,0,1
71175,-83.3333333333333,4,2,1,70,0,1
73144,-83.3333333333333,4,2,1,60,0,1
73331,-83.3333333333333,4,2,1,46,0,0
73519,-83.3333333333333,4,2,1,48,0,0
73706,-83.3333333333333,4,2,1,50,0,0
73894,-76.9230769230769,4,2,1,70,0,1
74081,-76.9230769230769,4,2,1,30,0,1
74175,-76.9230769230769,4,2,1,70,0,1
77081,-76.9230769230769,4,2,1,30,0,1
77175,-76.9230769230769,4,2,1,70,0,1
79144,-83.3333333333333,4,2,1,60,0,1
79519,-76.9230769230769,4,2,1,50,0,0
79894,-71.4285714285714,4,2,1,70,0,1
82800,-71.4285714285714,4,2,1,70,0,0
82894,-71.4285714285714,4,2,1,70,0,1
85800,-71.4285714285714,4,2,1,70,0,0
85894,-71.4285714285714,4,2,1,70,0,1
87394,-100,4,2,1,60,0,0
88894,-100,4,2,1,60,0,0

[Colours]
Combo1 : 255,150,150
Combo2 : 130,190,230
Combo3 : 255,165,120
Combo4 : 170,240,150

[HitObjects]
59,228,394,6,0,L|61:149,1,80,14|0,0:3|0:0,0:0:0:0:
61,149,675,1,2,0:0:0:0:
61,149,769,2,0,P|103:147|153:128,1,80,2|0,0:0|0:0,0:0:0:0:
138,135,1331,5,2,0:0:0:0:
207,68,1519,1,2,0:0:0:0:
239,168,1706,1,2,0:0:0:0:
239,168,1800,1,2,0:0:0:0:
239,168,1894,1,10,0:3:0:0:
318,170,2081,6,0,L|228:167,1,80,2|0,0:0|0:0,0:0:0:0:
207,68,2456,1,2,0:0:0:0:
318,170,2644,6,0,L|384:171,2,53.3333333333333,8|0|0,1:3|1:0|1:0,0:0:0:0:
284,242,3019,5,2,1:2:0:0:
282,273,3144,1,2,1:2:0:0:
280,304,3269,1,2,1:2:0:0:
223,357,3394,6,0,L|142:352,1,80,14|0,0:3|0:0,0:0:0:0:
143,352,3675,1,2,0:0:0:0:
143,352,3769,2,0,L|135:266,1,80,2|0,0:0|0:0,0:0:0:0:
135,272,4331,5,2,0:0:0:0:
51,320,4519,1,2,0:0:0:0:
57,226,4706,1,2,0:0:0:0:
57,226,4800,1,2,0:0:0:0:
57,226,4894,1,10,0:3:0:0:
48,146,5081,6,0,L|57:231,1,80,2|0,0:0|0:0,0:0:0:0:
51,320,5456,1,2,0:0:0:0:
134,183,5644,5,10,0:3:0:0:
164,176,5769,1,10,0:3:0:0:
194,170,5894,1,10,0:3:0:0:
260,212,6019,6,2,L|310:214,1,48,8|0,0:1|0:0,0:1:0:0:
346,231,6394,6,0,B|378:234|378:234|399:227|399:227|440:235,1,88.000002685547,14|0,0:3|0:0,0:0:0:0:
502,284,6675,1,2,0:0:0:0:
507,262,6769,2,0,B|513:161,1,88.000002685547,10|0,0:2|0:0,0:0:0:0:
475,52,7144,6,0,B|443:49|443:49|422:56|422:56|381:48,1,88.000002685547,10|0,0:3|0:0,0:0:0:0:
317,38,7425,1,2,0:0:0:0:
295,35,7519,1,10,0:0:0:0:
247,149,7706,1,2,0:0:0:0:
108,103,7894,6,0,L|100:13,1,88.000002685547,10|2,0:3|0:0,0:0:0:0:
6,144,8269,1,8,0:0:0:0:
25,153,8362,1,2,0:0:0:0:
41,169,8456,1,2,0:0:0:0:
51,188,8550,1,2,0:0:0:0:
52,210,8644,6,0,L|41:255,1,44.0000013427735,10|0,0:3|0:0,0:0:0:0:
117,306,8831,2,0,L|128:261,1,44.0000013427735,2|0,0:0|0:0,0:0:0:0:
204,209,9019,1,10,0:0:0:0:
225,204,9112,1,2,0:0:0:0:
247,204,9206,1,2,0:0:0:0:
268,210,9300,1,2,0:0:0:0:
286,219,9394,6,0,L|330:218,2,44.0000013427735,10|0|0,0:3|0:0|0:0,0:0:0:0:
127,263,9769,2,0,P|113:222|120:179,1,88.000002685547,10|0,0:2|0:0,0:0:0:0:
241,73,10144,6,0,L|336:61,1,88.000002685547,10|0,0:3|0:0,0:0:0:0:
474,23,10519,1,10,0:0:0:0:
463,42,10612,1,2,0:0:0:0:
456,62,10706,1,2,0:0:0:0:
453,84,10800,1,2,0:0:0:0:
455,106,10894,6,0,P|465:148|453:189,1,88.000002685547,10|0,0:3|0:0,0:0:0:0:
404,247,11175,1,2,0:0:0:0:
384,256,11269,1,10,0:0:0:0:
250,215,11456,1,2,0:0:0:0:
281,351,11644,5,10,0:3:0:0:
384,256,11831,1,0,0:0:0:0:
250,215,12019,1,10,0:0:0:0:
228,210,12112,1,2,0:0:0:0:
206,205,12206,1,2,0:0:0:0:
99,298,12394,6,0,B|57:313|57:313|9:286,1,88.000002685547,14|0,0:3|0:0,0:0:0:0:
0,214,12675,1,2,0:0:0:0:
0,191,12769,2,0,B|6:90,1,88.000002685547,10|0,0:0|0:0,0:0:0:0:
119,32,13144,6,0,B|154:48|154:48|201:36,1,88.000002685547,10|0,0:3|0:0,0:0:0:0:
273,24,13425,1,2,0:0:0:0:
295,21,13519,1,10,0:0:0:0:
345,143,13706,1,2,0:0:0:0:
476,96,13894,6,0,L|478:5,1,88.000002685547,10|0,0:3|0:0,0:0:0:0:
345,143,14269,1,10,0:0:0:0:
367,142,14362,1,2,0:0:0:0:
388,151,14456,1,2,0:0:0:0:
404,164,14550,1,2,0:0:0:0:
414,184,14644,6,0,L|422:229,1,44.0000013427735,10|0,0:3|0:0,0:0:0:0:
452,300,14831,2,0,L|441:345,1,44.0000013427735,2|0,0:0|0:0,0:0:0:0:
363,360,15019,1,10,0:2:0:0:
344,349,15112,1,2,0:0:0:0:
322,344,15206,1,2,0:0:0:0:
300,344,15300,1,2,0:0:0:0:
281,348,15394,6,0,L|231:344,2,44.0000013427735,10|0|0,0:3|0:0|0:0,0:0:0:0:
422,226,15769,2,0,P|465:222|504:240,1,88.000002685547,10|0,0:2|0:0,0:0:0:0:
347,121,16144,6,0,P|313:92|270:86,1,88.000002685547,10|0,0:3|0:0,0:0:0:0:
167,209,16519,1,10,0:0:0:0:
178,190,16612,1,2,0:0:0:0:
185,170,16706,1,2,0:0:0:0:
188,148,16800,1,2,0:0:0:0:
186,126,16894,6,0,P|176:84|188:43,1,88.000002685547,10|0,0:3|0:0,0:0:0:0:
256,9,17175,1,2,0:0:0:0:
278,9,17269,1,10,0:0:0:0:
347,121,17456,1,2,0:0:0:0:
410,6,17644,5,10,0:3:0:0:
278,9,17831,1,2,0:0:0:0:
347,121,18019,1,10,0:0:0:0:
352,143,18112,1,2,0:0:0:0:
357,165,18206,1,2,0:0:0:0:
512,98,18394,6,0,P|465:84|419:98,1,88.000002685547,14|8,0:0|0:3,0:0:0:0:
313,235,18769,2,0,P|360:249|406:235,1,88.000002685547,10|8,0:0|0:3,0:0:0:0:
264,86,19144,5,8,0:0:0:0:
214,185,19331,1,8,0:3:0:0:
115,135,19519,1,8,0:0:0:0:
165,36,19706,1,8,0:3:0:0:
264,86,19894,5,10,0:0:0:0:
268,90,20081,1,8,0:3:0:0:
214,185,20269,5,10,0:0:0:0:
210,189,20456,1,8,0:3:0:0:
115,135,20644,5,10,0:0:0:0:
111,131,20831,1,8,0:3:0:0:
165,36,21019,5,10,0:0:0:0:
210,189,21206,1,8,0:3:0:0:
268,90,21394,6,0,P|328:77|389:86,1,88.000002685547,10|0,3:3|3:3,0:0:0:0:
428,103,21675,1,0,3:0:0:0:
444,118,21769,2,0,L|452:220,1,88.000002685547,2|0,3:3|3:3,0:0:0:0:
394,333,22144,5,10,3:2:0:0:
375,323,22237,1,0,3:0:0:0:
355,315,22331,1,0,3:0:0:0:
333,310,22425,1,0,3:0:0:0:
311,310,22519,2,0,L|255:307,3,44.0000013427735,8|0|0|0,3:2|3:0|3:0|3:0,0:0:0:0:
186,334,22894,5,10,3:2:0:0:
184,312,22987,1,0,3:0:0:0:
183,290,23081,1,0,3:0:0:0:
182,268,23175,1,0,3:0:0:0:
182,244,23269,2,0,P|168:221|149:206,3,44.0000013427735,8|0|0|0,3:2|3:0|3:0|3:0,0:0:0:0:
81,161,23644,6,0,L|75:96,2,58.6666684570313,10|10|10,3:3|3:3|3:3,0:0:0:0:
155,209,24019,6,0,L|223:202,1,64,8|6,0:1|0:0,0:0:0:0:
459,282,25519,5,2,0:0:0:0:
459,282,25706,1,2,0:0:0:0:
459,282,25894,2,0,L|461:185,1,80,2|0,0:0|0:0,0:0:0:0:
423,134,26456,6,0,P|393:120|336:122,1,80,2|0,0:0|0:0,0:0:0:0:
275,141,27019,1,2,0:0:0:0:
275,141,27206,1,2,0:0:0:0:
273,221,27394,6,0,B|305:206|338:208|338:208|363:171|346:117,1,160,2|0,0:0|0:0,0:0:0:0:
300,58,28331,1,2,0:0:0:0:
300,58,28519,1,2,0:0:0:0:
300,58,28706,1,2,0:0:0:0:
222,109,28894,6,0,B|180:113|145:93|145:93|104:67|43:67|-2:114|-2:114|43:94|83:104,1,320,2|2,0:0|0:0,0:0:0:0:
53,284,31519,5,2,0:0:0:0:
53,284,31706,1,2,0:0:0:0:
53,284,31894,2,0,L|54:188,1,80,2|0,0:0|0:0,0:0:0:0:
116,158,32456,6,0,P|155:160|194:147,1,80,2|0,0:0|0:0,0:0:0:0:
255,99,33019,1,2,0:0:0:0:
255,99,33206,1,2,0:0:0:0:
320,142,33394,6,0,B|359:153|397:128|397:128|418:165|484:188|507:96|449:92|428:115,1,240,2|0,0:0|0:0,0:0:0:0:
415,189,34706,1,2,0:0:0:0:
386,262,34894,6,0,B|338:275|291:249|291:249|240:244|201:273|201:273|144:282|108:231,1,287.999991210938,2|2,0:0|0:0,0:0:0:0:
116,242,36394,6,0,L|111:111,1,120.000004577637,14|8,0:3|0:3,0:0:0:0:
161,40,36956,1,0,0:0:0:0:
249,91,37144,1,8,1:3:0:0:
249,91,37331,1,0,1:3:0:0:
328,36,37519,2,0,P|373:28|430:44,1,90.0000034332277,10|0,0:3|0:0,0:0:0:0:
426,48,37894,6,0,L|431:178,1,120.000004577637,10|8,0:3|0:3,0:0:0:0:
511,280,38456,2,0,P|486:266|456:259,1,60.0000022888184,2|8,0:0|0:3,0:0:0:0:
371,299,38831,1,2,0:0:0:0:
449,354,39019,1,10,0:3:0:0:
457,259,39206,1,2,0:0:0:0:
371,299,39394,6,0,B|240:287,2,120.000004577637,10|8|8,0:3|0:3|1:3,0:0:0:0:
449,354,40331,1,2,1:2:0:0:
457,259,40519,1,10,0:3:0:0:
465,164,40706,1,2,0:0:0:0:
387,109,40894,6,0,B|256:97,3,120.000004577637,10|8|8|8,0:3|0:3|0:3|0:3,0:0:0:0:
271,102,42206,1,2,0:0:0:0:
279,221,42394,6,0,L|270:98,1,120.000004577637,14|8,0:3|0:3,0:0:0:0:
200,35,42956,1,0,0:0:0:0:
110,62,43144,1,8,1:3:0:0:
110,62,43331,1,0,1:3:0:0:
83,155,43519,2,0,L|79:256,1,90.0000034332277,10|0,0:3|0:0,0:0:0:0:
79,260,43894,6,0,P|135:242|190:263,1,120.000004577637,10|8,0:3|0:3,0:0:0:0:
325,332,44456,2,0,P|295:330|268:319,1,60.0000022888184,2|8,0:0|0:3,0:0:0:0:
191,264,44831,1,2,0:0:0:0:
200,168,45019,1,10,0:3:0:0:
287,129,45206,1,2,0:0:0:0:
364,184,45394,6,0,P|422:194|475:169,1,120.000004577637,10|8,0:3|0:3,0:0:0:0:
502,79,45956,1,0,0:0:0:0:
410,100,46144,1,8,1:3:0:0:
410,100,46331,1,0,1:3:0:0:
475,168,46519,1,8,0:3:0:0:
502,79,46706,1,2,0:0:0:0:
410,100,46894,6,0,B|279:86,1,120.000004577637,10|8,0:3|0:3,0:0:0:0:
195,75,47456,1,0,0:0:0:0:
99,63,47644,1,8,0:3:0:0:
99,63,47831,1,0,0:0:0:0:
93,209,48019,6,2,B|88:175|99:153|99:153|91:127|91:127|103:108|98:62,1,150,10|0,0:3|0:0,1:2:0:0:
13,83,48394,6,0,P|62:99|98:63,1,107.999996704102,14|0,0:3|0:0,0:0:0:0:
164,26,48769,2,0,L|243:24,1,71.9999978027344,10|0,0:3|0:0,0:0:0:0:
310,41,49050,1,2,0:0:0:0:
327,47,49144,2,0,L|406:45,1,71.9999978027344,10|0,0:3|0:0,0:0:0:0:
491,113,49519,1,10,0:0:0:0:
415,199,49706,6,0,L|336:197,1,71.9999978027344,2|0,0:0|0:3,0:0:0:0:
267,200,49987,1,2,0:0:0:0:
249,202,50081,2,0,P|230:248|237:292,1,71.9999978027344,2|8,0:0|0:3,0:0:0:0:
289,368,50456,1,2,0:0:0:0:
394,319,50644,6,0,L|429:315,1,35.9999989013672,10|0,0:3|0:0,0:0:0:0:
459,310,50831,1,2,0:1:0:0:
480,208,51019,6,0,L|445:204,1,35.9999989013672,10|0,0:0|0:0,0:0:0:0:
415,199,51206,1,2,0:1:0:0:
308,244,51394,6,0,P|251:253|204:227,1,107.999996704102,14|0,0:3|0:0,0:0:0:0:
163,170,51769,2,0,L|158:97,1,71.9999978027344,2|0,0:3|0:0,0:0:0:0:
106,43,52050,1,2,0:0:0:0:
91,32,52144,2,0,P|49:27|11:39,1,71.9999978027344,10|0,0:3|0:0,0:0:0:0:
3,148,52519,1,8,0:0:0:0:
158,98,52706,6,0,P|200:93|238:105,1,71.9999978027344,2|8,0:0|0:3,0:0:0:0:
279,157,52987,1,2,0:0:0:0:
286,173,53081,1,2,0:0:0:0:
390,221,53269,1,10,0:3:0:0:
379,107,53456,1,2,0:0:0:0:
286,173,53644,6,0,L|251:169,1,35.9999989013672,10|0,0:3|0:0,0:0:0:0:
221,164,53831,1,2,0:1:0:0:
132,238,54019,6,0,L|97:234,1,35.9999989013672,10|0,0:0|0:0,0:0:0:0:
67,229,54206,1,2,0:1:0:0:
130,336,54394,6,0,P|150:286|132:237,1,107.999996704102,14|0,0:3|0:0,0:0:0:0:
73,191,54769,2,0,L|68:115,1,71.9999978027344,10|0,0:3|0:0,0:0:0:0:
101,51,55050,1,2,0:0:0:0:
114,39,55144,2,0,P|140:32|189:36,1,71.9999978027344,10|0,0:3|0:0,0:0:0:0:
252,127,55519,1,10,0:0:0:0:
363,99,55706,6,0,L|369:18,1,71.9999978027344,2|8,0:0|0:3,0:0:0:0:
445,14,55987,1,2,0:0:0:0:
450,30,56081,2,0,L|455:101,1,71.9999978027344,2|8,0:0|0:3,0:0:0:0:
505,205,56456,1,2,0:0:0:0:
417,280,56644,6,0,L|382:276,1,35.9999989013672,10|0,0:3|0:0,0:0:0:0:
352,271,56831,1,2,0:1:0:0:
254,332,57019,6,0,L|219:328,1,35.9999989013672,10|0,0:2|0:0,0:0:0:0:
189,323,57206,1,2,0:1:0:0:
36,367,57394,6,0,L|31:256,1,80,14|10,0:3|0:3,0:0:0:0:
0,215,57675,1,2,0:3:0:0:
4,203,57769,2,0,L|-1:92,1,80,8|8,0:2|0:3,0:0:0:0:
93,33,58144,1,8,0:3:0:0:
93,33,58331,1,8,0:3:0:0:
186,121,58519,1,8,0:2:0:0:
274,28,58706,1,10,0:3:0:0:
402,129,58894,6,0,L|481:122,1,80,10|8,0:3|0:3,0:0:0:0:
313,221,59269,2,0,L|233:227,1,80,8|8,0:2|0:3,0:0:0:0:
139,315,59644,1,8,0:3:0:0:
50,221,59831,1,10,0:3:0:0:
50,208,59925,1,2,0:3:0:0:
50,195,60019,1,8,0:2:0:0:
144,106,60206,1,10,0:3:0:0:
233,227,60394,6,0,L|313:221,1,80,14|10,0:3|0:3,0:0:0:0:
390,241,60675,1,2,0:3:0:0:
398,232,60769,1,8,0:2:0:0:
444,113,60956,1,8,0:3:0:0:
346,33,61144,1,8,0:3:0:0:
239,101,61331,1,8,0:3:0:0:
270,223,61519,1,8,0:2:0:0:
398,232,61706,1,10,0:3:0:0:
239,101,61894,6,0,P|175:89|136:88,1,80,10|8,0:3|0:3,0:0:0:0:
346,33,62269,2,0,P|410:21|449:20,1,80,8|8,0:2|0:3,0:0:0:0:
512,181,62644,5,8,0:3:0:0:
405,111,62831,1,8,0:3:0:0:
335,218,63019,1,8,0:2:0:0:
442,288,63206,1,8,0:3:0:0:
305,359,63394,6,0,L|243:352,3,40,10|0|0|0,3:3|3:0|3:0|3:0,0:0:0:0:
217,360,63769,2,0,L|155:353,3,40,8|0|0|0,3:2|3:0|3:0|3:0,0:0:0:0:
129,365,64144,5,10,3:0:0:0:
121,346,64237,1,0,3:0:0:0:
119,326,64331,1,0,3:0:0:0:
122,307,64425,1,0,3:0:0:0:
131,289,64519,1,8,3:2:0:0:
139,271,64612,1,0,3:0:0:0:
143,251,64706,1,0,3:0:0:0:
141,231,64800,1,0,3:0:0:0:
133,213,64894,6,0,L|77:205,3,40,10|0|0|0,3:0|3:0|3:0|3:0,0:0:0:0:
60,171,65269,2,0,L|68:115,3,40,10|0|0|0,3:2|3:0|3:0|3:0,0:0:0:0:
97,94,65644,5,2,3:0:0:0:
120,83,65737,1,0,3:0:0:0:
147,80,65831,1,0,3:0:0:0:
173,86,65925,1,0,3:0:0:0:
196,97,66019,1,8,3:2:0:0:
223,100,66112,1,0,3:0:0:0:
249,94,66206,1,2,3:0:0:0:
336,9,66394,5,14,1:3:0:0:
442,330,67331,5,2,0:0:0:0:
443,339,67519,5,2,0:0:0:0:
444,348,67706,5,2,0:0:0:0:
383,207,67894,6,0,P|345:186|288:189,1,95.9999970703126,14|0,0:3|0:0,0:0:0:0:
226,229,68175,2,0,L|166:220,1,47.9999985351563,10|8,0:3|0:0,0:0:0:0:
34,168,68456,2,0,P|30:120|52:78,1,95.9999970703126,2|8,0:3|0:3,0:0:0:0:
199,36,68831,5,2,0:0:0:0:
295,29,69019,1,10,0:0:0:0:
390,22,69206,1,2,0:0:0:0:
199,36,69394,5,10,0:3:0:0:
203,40,69487,1,8,0:3:0:0:
295,29,69675,1,10,0:3:0:0:
299,33,69769,1,8,0:0:0:0:
390,22,69956,2,0,L|492:10,1,95.9999970703126,2|8,0:0|0:3,0:0:0:0:
206,132,70331,5,2,0:0:0:0:
299,33,70519,1,10,0:0:0:0:
398,118,70706,1,2,0:0:0:0:
206,132,70894,6,0,B|102:121,1,95.9999970703126,14|0,0:3|0:0,0:0:0:0:
43,159,71175,2,0,P|33:189|36:222,1,47.9999985351563,10|8,0:3|0:0,0:0:0:0:
75,353,71456,2,0,B|177:345,1,95.9999970703126,2|8,0:3|0:3,0:0:0:0:
361,365,71831,5,2,0:0:0:0:
413,230,72019,1,10,0:0:0:0:
503,342,72206,1,2,0:0:0:0:
361,365,72394,6,0,B|161:344,1,191.999994140625,10|8,0:3|0:0,0:0:0:0:
13,158,72956,1,2,0:0:0:0:
91,251,73144,1,10,0:3:0:0:
106,80,73331,5,2,0:0:0:0:
107,71,73519,5,2,0:0:0:0:
108,62,73706,5,2,0:0:0:0:
266,121,73894,6,0,P|319:131|375:104,1,103.999995239258,14|0,0:3|0:0,0:0:0:0:
438,75,74175,2,0,L|444:1,1,51.999997619629,10|8,0:3|0:0,0:0:0:0:
503,192,74456,2,0,L|495:307,1,103.999995239258,2|8,0:3|0:3,0:0:0:0:
355,345,74831,5,2,0:0:0:0:
257,308,75019,1,10,0:0:0:0:
157,336,75206,1,2,0:0:0:0:
355,345,75394,5,10,0:3:0:0:
359,349,75487,1,8,0:3:0:0:
257,308,75675,1,10,0:3:0:0:
261,312,75769,1,8,0:0:0:0:
157,336,75956,2,0,L|47:326,1,103.999995239258,2|8,0:0|0:3,0:0:0:0:
19,120,76331,5,2,0:0:0:0:
161,92,76519,1,10,0:0:0:0:
189,234,76706,1,2,0:0:0:0:
355,293,76894,6,0,B|366:243|366:243|330:205,1,103.999995239258,14|0,0:3|0:0,0:0:0:0:
252,179,77175,2,0,L|246:111,1,51.999997619629,10|8,0:3|0:0,0:0:0:0:
116,20,77456,2,0,L|13:14,1,103.999995239258,2|8,0:3|0:3,0:0:0:0:
248,127,77831,5,2,0:0:0:0:
372,19,78019,1,10,0:0:0:0:
252,131,78206,1,2,0:0:0:0:
468,126,78394,6,0,B|426:117|388:133|388:133|345:152|302:125|342:77|384:113,1,207.999990478516,10|8,0:3|0:0,0:0:0:0:
390,303,78956,1,2,0:0:0:0:
382,111,79144,6,0,L|391:332,1,191.999994140625,10|8,0:3|0:0,0:0:0:0:
390,303,79706,1,2,0:0:0:0:
208,376,79894,5,14,0:3:0:0:
132,240,80081,1,2,0:0:0:0:
131,330,80269,5,10,0:0:0:0:
210,196,80456,1,2,0:0:0:0:
132,240,80644,5,10,0:3:0:0:
287,242,80831,1,2,0:0:0:0:
210,196,81019,5,10,0:2:0:0:
285,331,81206,1,2,0:0:0:0:
287,242,81394,5,10,0:3:0:0:
208,376,81581,1,2,0:0:0:0:
132,240,81769,6,0,P|122:182|149:130,1,111.999996582031,10|2,0:0|0:0,0:0:0:0:
322,194,82144,2,0,L|210:196,1,111.999996582031,10|0,0:3|0:0,0:0:0:0:
388,254,82519,2,0,P|410:204|400:150,1,111.999996582031,10|0,0:0|0:0,0:0:0:0:
321,14,82894,5,14,0:3:0:0:
322,194,83081,1,2,0:0:0:0:
399,149,83269,5,10,0:0:0:0:
243,59,83456,1,2,0:0:0:0:
244,149,83644,5,10,0:3:0:0:
399,60,83831,1,2,0:0:0:0:
321,14,84019,5,10,0:2:0:0:
322,194,84206,1,2,0:0:0:0:
399,149,84394,5,10,0:3:0:0:
243,59,84581,1,2,0:0:0:0:
244,240,84769,6,0,L|230:367,1,111.999996582031,10|2,0:0|0:0,0:0:0:0:
57,271,85144,2,0,P|110:259|157:288,1,111.999996582031,10|0,0:3|0:0,0:0:0:0:
417,310,85519,2,0,P|368:286|316:303,1,111.999996582031,10|0,0:0|0:0,0:0:0:0:
99,335,85894,5,14,0:3:0:0:
108,178,86081,1,2,0:0:0:0:
25,253,86269,5,10,0:0:0:0:
34,96,86456,1,2,0:0:0:0:
182,260,86644,5,10,0:3:0:0:
191,103,86831,1,2,0:0:0:0:
108,178,87019,5,10,0:2:0:0:
117,21,87206,1,2,0:0:0:0:
265,185,87394,6,0,L|360:180,1,80,10|2,0:3|0:0,0:0:0:0:
368,186,87675,1,2,0:0:0:0:
391,188,87769,2,0,P|411:153|411:114,1,80,8|0,0:0|0:0,0:0:0:0:
295,25,88144,1,10,0:0:0:0:
256,320,88519,1,10,0:0:0:0:
20,138,88894,5,14,0:3:0:0:
52,244,89081,1,0,0:3:0:0:
158,212,89269,1,10,0:2:0:0:
126,106,89456,1,0,0:3:0:0:
52,244,89644,6,0,L|14:266,2,40,10|0|0,0:3|0:0|0:0,0:0:0:0:
158,212,90019,2,0,L|211:214,2,40,10|0|0,0:0|0:0|0:0,0:0:0:0:
20,138,90394,6,0,L|11:96,3,40,14|0|8|0,0:3|0:0|0:3|0:0,0:0:0:0:
45,65,90769,2,0,L|54:23,3,40,10|0|8|0,0:0|0:0|0:3|0:0,0:0:0:0:
104,38,91144,5,10,0:3:0:0:
123,36,91237,1,0,0:0:0:0:
143,34,91331,1,8,0:3:0:0:
163,33,91425,1,0,0:0:0:0:
183,31,91519,2,0,L|248:31,2,40,10|2|10,0:0|0:0|0:3,0:0:0:0:
