osu file format v14

[General]
AudioFilename: audio.mp3
AudioLeadIn: 0
PreviewTime: 67237
Countdown: 0
SampleSet: Soft
StackLeniency: 0.7
Mode: 0
LetterboxInBreaks: 0
WidescreenStoryboard: 1

[Editor]
DistanceSpacing: 1.5
BeatDivisor: 4
GridSize: 32
TimelineZoom: 1.7

[Metadata]
Title:Jounetsu Utopia
TitleUnicode:蒸熱♨ユートピア
Artist:Karen, Koharu Meu, Harukawa Akari
ArtistUnicode:華憐、小春めう、春河あかり
Creator:Lasse
Version:Hard
Source:恋と恋するユートピア
Tags:Koi to Suru Utopia visual novel eroge opening Denki 電気 LoveMatic Koipia
BeatmapID:1474717
BeatmapSetID:695632

[Difficulty]
HPDrainRate:5
CircleSize:3.8
OverallDifficulty:6.5
ApproachRate:7.5
SliderMultiplier:1.4
SliderTickRate:1

[Events]
//Background and Video events
0,0,"bg_edit.jpg",0,0
//Break Periods
//Storyboard Layer 0 (Background)
//Storyboard Layer 1 (Fail)
//Storyboard Layer 2 (Pass)
//Storyboard Layer 3 (Foreground)
//Storyboard Sound Samples

[TimingPoints]
394,375,4,2,1,60,1,0
394,-111.111111111111,4,2,1,60,0,0
581,-111.111111111111,4,2,1,42,0,0
674,-111.111111111111,4,2,1,54,0,0
768,-111.111111111111,4,2,1,60,0,0
1425,-111.111111111111,4,2,1,42,0,0
1519,-111.111111111111,4,2,1,60,0,0
1612,-111.111111111111,4,2,1,42,0,0
1706,-111.111111111111,4,2,1,48,0,0
1800,-111.111111111111,4,2,1,54,0,0
1894,-111.111111111111,4,2,1,60,0,0
2269,-111.111111111111,4,2,1,42,0,0
2362,-111.111111111111,4,2,1,54,0,0
2456,-111.111111111111,4,2,1,60,0,0
2550,-111.111111111111,4,2,1,42,0,0
2644,-111.111111111111,4,2,1,60,0,0
3581,-111.111111111111,4,2,1,42,0,0
3674,-111.111111111111,4,2,1,54,0,0
3768,-111.111111111111,4,2,1,60,0,0
4425,-111.111111111111,4,2,1,42,0,0
4519,-111.111111111111,4,2,1,60,0,0
4612,-111.111111111111,4,2,1,42,0,0
4706,-111.111111111111,4,2,1,48,0,0
4800,-111.111111111111,4,2,1,54,0,0
4894,-111.111111111111,4,2,1,60,0,0
5269,-111.111111111111,4,2,1,42,0,0
5362,-111.111111111111,4,2,1,54,0,0
5456,-111.111111111111,4,2,1,60,0,0
5550,-111.111111111111,4,2,1,42,0,0
5644,-111.111111111111,4,2,1,60,0,0
6300,-111.111111111111,4,2,99,5,0,0
6394,-100,4,2,1,63,0,0
8362,-100,4,2,1,52,0,0
8644,-100,4,2,1,63,0,0
9112,-100,4,2,1,52,0,0
9394,-100,4,2,1,63,0,0
10612,-100,4,2,1,52,0,0
10894,-100,4,2,1,63,0,0
14362,-100,4,2,1,52,0,0
14644,-100,4,2,1,63,0,0
15112,-100,4,2,1,52,0,0
15394,-100,4,2,1,63,0,0
16612,-100,4,2,1,52,0,0
16894,-100,4,2,1,63,0,0
18394,-100,4,2,1,66,0,0
22894,-100,4,2,1,68,0,0
23644,-100,4,2,1,70,0,0
24019,-125,4,2,1,72,0,0
24394,-166.666666666667,4,2,43,55,0,0
25519,-166.666666666667,4,2,43,30,0,0
25894,-166.666666666667,4,2,43,40,0,0
26831,-166.666666666667,4,2,43,30,0,0
27769,-166.666666666667,4,2,43,11,0,0
28144,-166.666666666667,4,2,43,30,0,0
28894,-166.666666666667,4,2,43,40,0,0
29269,-166.666666666667,4,2,43,11,0,0
30394,-166.666666666667,4,2,43,40,0,0
31519,-166.666666666667,4,2,43,30,0,0
31894,-166.666666666667,4,2,43,40,0,0
32831,-166.666666666667,4,2,43,30,0,0
33394,-166.666666666667,4,2,43,40,0,0
33769,-166.666666666667,4,2,43,11,0,0
34519,-166.666666666667,4,2,43,30,0,0
34894,-166.666666666667,4,2,43,40,0,0
35269,-166.666666666667,4,2,43,11,0,0
36019,-166.666666666667,4,2,43,30,0,0
36394,-125,4,2,1,52,0,0
37800,-125,4,2,99,5,0,0
37894,-125,4,2,1,52,0,0
42206,-125,4,2,1,44,0,0
42394,-125,4,2,1,52,0,0
43800,-125,4,2,99,5,0,0
43894,-125,4,2,1,52,0,0
48019,-80,4,2,1,52,0,0
48300,-80,4,2,1,20,0,0
48394,-111.111111111111,4,2,1,60,0,0
57394,-100,4,2,1,62,0,0
58894,-100,4,2,1,64,0,0
60394,-100,4,2,1,66,0,0
61894,-100,4,2,1,68,0,0
63394,-100,4,2,1,70,0,0
66394,-100,4,2,1,60,0,0
67331,-125,4,2,1,46,0,0
67519,-100,4,2,1,48,0,0
67706,-100,4,2,1,50,0,0
67894,-90.9090909090909,4,2,1,70,0,1
68081,-90.9090909090909,4,2,1,30,0,1
68175,-90.9090909090909,4,2,1,70,0,1
71081,-90.9090909090909,4,2,1,30,0,1
71175,-90.9090909090909,4,2,1,70,0,1
73144,-90.9090909090909,4,2,1,60,0,1
73331,-125,4,2,1,46,0,0
73519,-90.9090909090909,4,2,1,48,0,0
73706,-90.9090909090909,4,2,1,50,0,0
73894,-90.9090909090909,4,2,1,70,0,1
74081,-90.9090909090909,4,2,1,30,0,1
74175,-90.9090909090909,4,2,1,70,0,1
77081,-90.9090909090909,4,2,1,30,0,1
77175,-90.9090909090909,4,2,1,70,0,1
79144,-90.9090909090909,4,2,1,60,0,1
79519,-90.9090909090909,4,2,1,50,0,0
79706,-90.9090909090909,4,2,1,60,0,1
79894,-90.9090909090909,4,2,1,70,0,1
82800,-90.9090909090909,4,2,1,70,0,0
82894,-90.9090909090909,4,2,1,70,0,1
85800,-90.9090909090909,4,2,1,70,0,0
85894,-90.9090909090909,4,2,1,70,0,1
87394,-100,4,2,1,60,0,0
88894,-100,4,2,1,60,0,0

[Colours]
Combo1 : 255,150,150
Combo2 : 130,190,230
Combo3 : 255,165,120
Combo4 : 170,240,150

[HitObjects]
31,88,394,6,0,P|40:123|44:168,1,62.9999980773926,14|0,0:3|0:0,0:0:0:0:
107,201,769,2,0,L|177:191,1,62.9999980773926,2|0,0:0|0:0,0:0:0:0:
326,178,1331,2,0,L|396:168,1,62.9999980773926,2|2,0:0|0:0,0:0:0:0:
458,126,1706,2,0,L|495:122,2,31.4999990386963,2|2|10,0:0|0:0|0:3,0:0:0:0:
373,60,2081,6,0,P|345:52|296:50,1,62.9999980773926,2|0,0:0|0:0,0:0:0:0:
233,74,2456,1,2,0:0:0:0:
153,52,2644,2,0,P|128:44|93:44,2,41.9999987182618,8|0|0,1:3|1:0|1:0,0:0:0:0:
152,107,3019,2,0,P|132:113|111:117,2,41.9999987182618,2|2|2,1:2|1:2|1:2,0:0:0:0:
233,74,3394,6,0,P|271:72|322:74,1,62.9999980773926,14|0,0:3|0:0,0:0:0:0:
349,134,3769,2,0,L|357:216,1,62.9999980773926,2|0,0:0|0:0,0:0:0:0:
217,284,4331,2,0,L|145:281,1,62.9999980773926,2|2,0:0|0:0,0:0:0:0:
85,325,4706,2,0,L|79:356,2,31.4999990386963,2|2|10,0:0|0:0|0:3,0:0:0:0:
21,246,5081,6,0,L|15:161,1,62.9999980773926,2|0,0:0|0:0,0:0:0:0:
22,101,5456,1,2,0:0:0:0:
90,56,5644,2,0,P|98:31|98:-4,2,41.9999987182618,10|10|10,0:3|0:3|0:3,0:0:0:0:
123,102,6019,2,2,B|154:91|154:91|179:96|179:96|220:92,1,94.499997116089,8|0,0:1|0:0,0:1:0:0:
266,66,6394,6,0,P|297:54|362:61,1,70,14|0,0:3|0:0,0:0:0:0:
347,63,6675,1,2,0:0:0:0:
360,73,6769,2,0,L|372:151,1,70,10|0,0:2|0:0,0:0:0:0:
418,219,7144,2,0,L|406:297,1,70,10|0,0:3|0:0,0:0:0:0:
323,323,7519,2,0,P|279:310|245:311,1,70,10|2,0:0|0:0,0:0:0:0:
169,347,7894,5,10,0:3:0:0:
169,347,8081,1,2,0:0:0:0:
89,302,8269,2,0,L|42:297,2,35,8|2|2,0:0|0:0|0:0,0:0:0:0:
142,228,8644,2,0,P|148:193|146:158,1,70,10|2,0:3|0:0,0:0:0:0:
86,89,9019,2,0,L|39:84,2,35,10|2|2,0:0|0:0|0:0,0:0:0:0:
157,32,9394,6,0,P|191:26|226:28,1,70,10|0,0:3|0:0,0:0:0:0:
243,32,9675,1,2,0:0:0:0:
259,38,9769,2,0,P|293:40|328:34,1,70,10|0,0:2|0:0,0:0:0:0:
407,79,10144,2,0,L|419:169,1,70,10|0,0:3|0:0,0:0:0:0:
451,232,10519,2,0,L|439:322,1,70,10|2,0:0|0:0,0:0:0:0:
364,351,10894,6,0,P|330:342|295:342,1,70,10|0,0:3|0:0,0:0:0:0:
278,345,11175,1,2,0:0:0:0:
262,350,11269,2,0,P|227:349|193:341,1,70,10|2,0:0|0:0,0:0:0:0:
114,306,11644,1,10,0:3:0:0:
114,306,11831,1,0,0:0:0:0:
122,220,12019,2,0,L|113:182,2,35,10|2|2,0:0|0:0|0:0,0:0:0:0:
237,260,12394,6,0,L|332:249,1,70,14|0,0:3|0:0,0:0:0:0:
322,245,12675,1,2,0:0:0:0:
336,234,12769,2,0,P|345:196|335:155,1,70,10|0,0:0|0:0,0:0:0:0:
280,97,13144,2,0,L|189:88,1,70,10|0,0:3|0:0,0:0:0:0:
138,146,13519,2,0,P|129:184|139:225,1,70,10|2,0:0|0:0,0:0:0:0:
201,284,13894,5,10,0:3:0:0:
201,284,14081,1,0,0:0:0:0:
280,239,14269,2,0,L|285:205,2,35,10|2|2,0:0|0:0|0:0,0:0:0:0:
325,318,14644,2,0,P|360:324|395:322,1,70,10|2,0:3|0:0,0:0:0:0:
471,273,15019,2,0,L|514:264,2,35,10|2|2,0:2|0:0|0:0,0:0:0:0:
393,225,15394,6,0,P|387:191|389:156,1,70,10|0,0:3|0:0,0:0:0:0:
393,139,15675,1,2,0:0:0:0:
399,123,15769,2,0,P|401:89|395:54,1,70,10|0,0:2|0:0,0:0:0:0:
309,21,16144,2,0,L|222:18,1,70,10|0,0:3|0:0,0:0:0:0:
153,49,16519,2,0,L|66:46,1,70,10|2,0:0|0:0,0:0:0:0:
10,101,16894,6,0,P|4:135|8:170,1,70,10|0,0:3|0:0,0:0:0:0:
13,187,17175,1,2,0:0:0:0:
20,202,17269,2,0,L|103:199,1,70,10|2,0:0|0:0,0:0:0:0:
170,252,17644,1,10,0:3:0:0:
170,252,17831,1,2,0:0:0:0:
243,198,18019,2,0,L|248:153,2,35,10|2|2,0:0|0:0|0:0,0:0:0:0:
326,290,18394,6,0,P|373:294|407:274,1,70,14|8,0:0|0:3,0:0:0:0:
469,223,18769,1,10,0:0:0:0:
469,223,18956,1,8,0:3:0:0:
418,138,19144,2,0,P|388:119|354:116,1,70,8|8,0:0|0:3,0:0:0:0:
258,135,19519,1,8,0:0:0:0:
258,135,19706,1,8,0:3:0:0:
176,79,19894,6,0,L|77:71,1,70,10|8,0:0|0:3,0:0:0:0:
16,113,20269,1,10,0:0:0:0:
16,113,20456,1,8,0:3:0:0:
63,198,20644,2,0,P|69:232|70:267,1,70,10|8,0:0|0:3,0:0:0:0:
119,352,21019,1,10,0:0:0:0:
218,353,21206,1,8,0:3:0:0:
268,267,21394,6,0,P|302:256|364:259,1,70,10|0,3:3|3:3,0:0:0:0:
352,260,21675,1,0,3:0:0:0:
367,267,21769,2,0,P|401:274|436:272,1,70,2|0,3:3|3:3,0:0:0:0:
500,197,22144,2,0,L|504:95,1,70,10|0,3:2|3:0,0:0:0:0:
495,110,22425,1,0,3:0:0:0:
485,95,22519,2,0,P|450:87|415:90,1,70,8|0,3:2|3:0,0:0:0:0:
329,135,22894,6,0,L|285:126,3,35,10|0|0|0,3:2|3:0|3:0|3:0,0:0:0:0:
252,132,23269,2,0,L|208:123,3,35,8|0|0|0,3:2|3:0|3:0|3:0,0:0:0:0:
182,101,23644,2,0,L|176:30,2,46.6666666666667,10|10|10,3:3|3:3|3:3,0:0:0:0:
139,163,24019,6,0,B|120:188|121:223|121:223|102:247|69:242,1,112,8|6,0:1|0:0,0:0:0:0:
22,356,25519,6,0,L|14:312,2,41.9999987182618,2|2|2,0:0|0:0|0:0,0:0:0:0:
22,356,26456,2,0,P|59:336|111:347,1,83.9999974365235,2|0,0:0|0:0,0:0:0:0:
155,359,27019,2,0,L|206:351,1,41.9999987182618,2|2,0:0|0:0,0:0:0:0:
254,362,27394,6,0,B|206:338|206:338|185:293|221:228,1,167.999994873047,2|0,0:0|0:0,0:0:0:0:
264,190,28331,2,0,L|258:141,2,41.9999987182618,2|2|2,0:0|0:0|0:0,0:0:0:0:
320,206,28894,2,0,B|379:201|414:162|411:89|411:89|386:108|340:105|325:66|332:28|364:6|400:19,1,335.999989746094,2|2,0:0|0:0,0:0:0:0:
297,31,31519,6,0,L|247:27,2,41.9999987182618,2|2|2,0:0|0:0|0:0,0:0:0:0:
297,31,32456,2,0,P|320:66|312:106,1,83.9999974365235,2|0,0:0|0:0,0:0:0:0:
255,121,33019,2,0,L|205:115,1,41.9999987182618,2|2,0:0|0:0,0:0:0:0:
155,129,33394,2,0,B|128:168|85:172|85:172|42:225|55:297|121:318,1,251.999992309571,2|0,0:0|0:0,0:0:0:0:
172,308,34706,1,2,0:0:0:0:
172,308,34894,2,0,B|234:283|292:318|292:318|349:353|412:329,1,251.999992309571,2|2,0:0|0:0,0:0:0:0:
413,328,36394,6,0,P|417:252|425:194,2,112,14|8|8,0:3|0:3|1:3,0:0:0:0:
346,379,37331,1,0,1:3:0:0:
269,344,37519,2,0,P|240:335|212:335,1,56,10|0,0:3|0:0,0:0:0:0:
141,375,37894,2,0,L|20:364,1,112,10|8,0:3|0:3,0:0:0:0:
0,285,38456,2,0,P|13:231|8:176,1,112,2|2,0:0|0:0,0:0:0:0:
50,103,39019,1,10,0:3:0:0:
50,103,39206,1,2,0:0:0:0:
132,122,39394,6,0,B|175:125|175:125|203:113|203:113|241:115,2,112,10|8|8,0:3|0:3|1:3,0:0:0:0:
50,103,40331,1,2,1:2:0:0:
107,42,40519,1,10,0:3:0:0:
107,42,40706,1,2,0:0:0:0:
132,122,40894,2,0,L|127:242,1,112,10|8,0:3|0:3,0:0:0:0:
248,349,41644,2,0,P|303:340|364:347,1,112,8|8,0:3|0:3,0:0:0:0:
491,193,42394,6,0,L|503:58,2,112,14|8|8,0:3|0:3|1:3,0:0:0:0:
434,255,43331,1,0,1:3:0:0:
358,217,43519,2,0,P|330:207|301:208,1,56,10|0,0:3|0:0,0:0:0:0:
234,255,43894,2,0,P|173:269|116:246,1,112,10|8,0:3|0:3,0:0:0:0:
71,191,44456,2,0,L|67:75,1,112,2|2,0:0|0:0,0:0:0:0:
125,18,45019,1,10,0:3:0:0:
125,18,45206,1,2,0:0:0:0:
204,44,45394,6,0,B|241:42|241:42|275:53|275:53|317:46,1,112,10|8,0:3|0:3,0:0:0:0:
443,142,46144,2,0,L|454:70,2,56,8|0|8,1:3|1:3|0:3,0:0:0:0:
454,224,46706,1,2,0:0:0:0:
380,265,46894,2,0,B|341:258|341:258|307:269|307:269|270:267,1,112,10|8,0:3|0:3,0:0:0:0:
202,316,47456,1,0,0:0:0:0:
138,260,47644,2,0,B|134:130,1,112,8|10,0:3|0:3,0:0:0:0:
303,54,48394,6,0,P|267:53|234:39,1,62.9999980773926,14|0,0:3|0:0,0:0:0:0:
153,52,48769,2,0,P|123:41|91:41,1,62.9999980773926,10|0,0:3|0:0,0:0:0:0:
78,50,49050,1,2,0:0:0:0:
67,61,49144,2,0,L|58:147,1,62.9999980773926,10|0,0:3|0:0,0:0:0:0:
19,201,49519,1,10,0:0:0:0:
90,252,49706,6,0,P|118:243|174:247,1,62.9999980773926,2|0,0:0|0:3,0:0:0:0:
166,247,49987,1,2,0:0:0:0:
180,252,50081,2,0,P|211:251|241:241,1,62.9999980773926,2|8,0:0|0:3,0:0:0:0:
312,188,50456,1,2,0:0:0:0:
381,242,50644,2,0,L|390:313,1,62.9999980773926,10|2,0:3|0:1,0:0:0:0:
477,309,51019,2,0,L|483:247,1,62.9999980773926,10|2,0:0|0:1,0:0:0:0:
467,143,51394,6,0,P|433:144|399:134,1,62.9999980773926,14|0,0:3|0:0,0:0:0:0:
320,161,51769,2,0,P|289:153|258:154,1,62.9999980773926,2|0,0:3|0:0,0:0:0:0:
247,166,52050,1,2,0:0:0:0:
237,178,52144,2,0,L|231:265,1,62.9999980773926,10|0,0:3|0:0,0:0:0:0:
176,309,52519,1,8,0:0:0:0:
108,252,52706,6,0,L|98:188,1,62.9999980773926,2|8,0:0|0:3,0:0:0:0:
87,178,52987,1,2,0:0:0:0:
77,165,53081,2,0,L|67:101,1,62.9999980773926,2|10,0:0|0:3,0:0:0:0:
109,24,53456,1,2,0:0:0:0:
186,66,53644,2,0,P|216:70|266:61,1,62.9999980773926,10|2,0:3|0:1,0:0:0:0:
329,31,54019,2,0,P|360:26|391:30,1,62.9999980773926,10|2,0:0|0:1,0:0:0:0:
503,95,54394,6,0,L|501:172,1,62.9999980773926,14|0,0:3|0:0,0:0:0:0:
445,226,54769,2,0,P|415:215|383:215,1,62.9999980773926,10|0,0:3|0:0,0:0:0:0:
370,224,55050,1,2,0:0:0:0:
359,235,55144,2,0,L|350:321,1,62.9999980773926,10|0,0:3|0:0,0:0:0:0:
281,349,55519,1,10,0:0:0:0:
211,294,55706,6,0,L|207:231,1,62.9999980773926,2|8,0:0|0:3,0:0:0:0:
201,216,55987,1,2,0:0:0:0:
192,202,56081,2,0,P|148:193|107:201,1,62.9999980773926,2|8,0:0|0:3,0:0:0:0:
55,241,56456,1,2,0:0:0:0:
3,169,56644,2,0,L|-2:95,1,62.9999980773926,10|2,0:3|0:1,0:0:0:0:
78,66,57019,2,0,L|83:-8,1,62.9999980773926,10|2,0:2|0:1,0:0:0:0:
165,101,57394,6,0,L|234:91,1,70,14|10,0:3|0:3,0:0:0:0:
250,97,57675,1,2,0:3:0:0:
265,104,57769,2,0,L|334:94,1,70,8|8,0:2|0:3,0:0:0:0:
414,151,58144,2,0,P|422:190|411:242,1,70,8|8,0:3|0:3,0:0:0:0:
364,301,58519,1,8,0:2:0:0:
272,265,58706,1,10,0:3:0:0:
199,331,58894,6,0,L|111:324,1,70,10|8,0:3|0:3,0:0:0:0:
50,266,59269,2,0,P|42:232|45:197,1,70,8|8,0:2|0:3,0:0:0:0:
122,136,59644,2,0,L|191:130,1,70,8|10,0:3|0:3,0:0:0:0:
202,143,59925,1,2,0:3:0:0:
212,157,60019,1,8,0:2:0:0:
300,199,60206,1,10,0:3:0:0:
384,148,60394,6,0,P|392:114|389:79,1,70,14|10,0:3|0:3,0:0:0:0:
378,65,60675,1,2,0:3:0:0:
363,55,60769,2,0,L|284:48,1,70,8|8,0:2|0:3,0:0:0:0:
195,61,61144,2,0,L|116:54,1,70,8|8,0:3|0:3,0:0:0:0:
37,99,61519,1,8,0:2:0:0:
53,197,61706,1,10,0:3:0:0:
152,213,61894,6,0,L|236:208,1,70,10|8,0:3|0:3,0:0:0:0:
302,273,62269,1,8,0:2:0:0:
302,273,62456,1,8,0:3:0:0:
228,339,62644,2,0,L|144:334,1,70,8|8,0:3|0:3,0:0:0:0:
68,368,63019,1,8,0:2:0:0:
68,368,63206,1,8,0:3:0:0:
13,278,63394,6,0,L|6:203,1,70,10|0,3:3|3:0,0:0:0:0:
11,191,63675,1,0,3:0:0:0:
18,174,63769,2,0,L|25:99,1,70,8|0,3:2|3:0,0:0:0:0:
104,47,64144,2,0,P|137:36|172:40,1,70,10|0,3:0|3:0,0:0:0:0:
187,49,64425,1,0,3:0:0:0:
200,60,64519,2,0,P|232:70|267:66,1,70,8|0,3:2|3:0,0:0:0:0:
356,24,64894,6,0,L|399:19,3,35,10|0|0|0,3:0|3:0|3:0|3:0,0:0:0:0:
438,31,65269,2,0,L|481:26,3,35,10|0|0|0,3:2|3:0|3:0|3:0,0:0:0:0:
508,60,65644,2,0,P|510:77|509:97,3,35,2|0|0|0,3:0|3:0|3:0|3:0,0:0:0:0:
482,134,66019,2,0,P|471:167|473:206,1,70,8|2,3:2|3:0,0:0:0:0:
505,308,66394,5,14,1:3:0:0:
191,351,67331,6,0,L|124:344,2,56,2|2|2,0:0|0:0|0:0,0:0:0:0:
302,307,67894,6,0,P|315:270|313:232,1,77.0000023498536,14|0,0:3|0:0,0:0:0:0:
302,216,68175,1,10,0:3:0:0:
285,206,68269,1,8,0:0:0:0:
177,214,68456,2,0,L|98:206,1,77.0000023498536,2|8,0:3|0:3,0:0:0:0:
22,131,68831,1,2,0:0:0:0:
78,38,69019,1,10,0:0:0:0:
78,38,69206,1,2,0:0:0:0:
183,62,69394,6,0,P|216:61|263:54,1,77.0000023498536,10|0,0:3|0:0,0:0:0:0:
297,60,69675,2,0,P|321:56|353:54,1,38.5000011749268,10|8,0:3|0:0,0:0:0:0:
441,73,69956,2,0,B|462:104|462:104|457:145,1,77.0000023498536,2|8,0:0|0:3,0:0:0:0:
384,223,70331,1,2,0:0:0:0:
282,185,70519,2,0,P|243:179|205:177,1,77.0000023498536,10|2,0:0|0:0,0:0:0:0:
121,225,70894,6,0,L|122:302,1,77.0000023498536,14|0,0:3|0:0,0:0:0:0:
125,321,71175,1,10,0:3:0:0:
128,340,71269,1,8,0:0:0:0:
232,363,71456,2,0,P|270:357|308:355,1,77.0000023498536,2|8,0:3|0:3,0:0:0:0:
416,366,71831,1,2,0:0:0:0:
473,274,72019,1,10,0:0:0:0:
473,274,72206,1,2,0:0:0:0:
399,194,72394,6,0,P|334:170|241:193,1,154.000004699707,10|8,0:3|0:0,0:0:0:0:
167,252,72956,2,0,L|79:248,1,77.0000023498536,2|10,0:0|0:3,0:0:0:0:
13,156,73331,6,0,P|8:114|0:82,2,56,2|2|2,0:0|0:0|0:0,0:0:0:0:
90,248,73894,6,0,P|125:233|185:235,1,77.0000023498536,14|0,0:3|0:0,0:0:0:0:
180,240,74175,1,10,0:3:0:0:
193,253,74269,1,8,0:0:0:0:
270,327,74456,2,0,L|356:318,1,77.0000023498536,2|8,0:3|0:3,0:0:0:0:
450,348,74831,1,2,0:0:0:0:
511,260,75019,1,10,0:0:0:0:
511,260,75206,1,2,0:0:0:0:
446,173,75394,6,0,L|448:85,1,77.0000023498536,10|0,0:3|0:0,0:0:0:0:
441,58,75675,2,0,P|417:43|385:38,1,38.5000011749268,10|8,0:3|0:0,0:0:0:0:
291,41,75956,2,0,L|206:30,1,77.0000023498536,2|8,0:0|0:3,0:0:0:0:
116,92,76331,1,2,0:0:0:0:
217,148,76519,2,0,P|223:191|207:240,1,77.0000023498536,10|2,0:0|0:0,0:0:0:0:
162,326,76894,6,0,P|121:315|75:320,1,77.0000023498536,14|0,0:3|0:0,0:0:0:0:
68,324,77175,1,10,0:3:0:0:
55,338,77269,1,8,0:0:0:0:
3,235,77456,2,0,P|5:196|21:161,1,77.0000023498536,2|8,0:3|0:3,0:0:0:0:
105,83,77831,1,2,0:0:0:0:
170,185,78019,1,10,0:0:0:0:
170,185,78206,1,2,0:0:0:0:
270,127,78394,6,0,B|312:124|347:140|347:140|376:118|417:118,1,154.000004699707,10|8,0:3|0:0,0:0:0:0:
504,192,78956,2,0,L|498:268,1,77.0000023498536,2|10,0:0|0:3,0:0:0:0:
276,204,79519,2,0,L|270:119,1,77.0000023498536,8|2,0:0|0:0,0:0:0:0:
169,39,79894,6,0,P|130:40|95:25,1,77.0000023498536,14|2,0:3|0:0,0:0:0:0:
2,95,80269,1,10,0:0:0:0:
2,95,80456,1,2,0:0:0:0:
85,175,80644,2,0,P|120:159|158:160,1,77.0000023498536,10|2,0:3|0:0,0:0:0:0:
255,236,81019,1,10,0:2:0:0:
255,236,81206,1,2,0:0:0:0:
341,157,81394,6,0,L|350:72,1,77.0000023498536,10|2,0:3|0:0,0:0:0:0:
464,76,81769,2,0,L|480:159,1,77.0000023498536,10|2,0:0|0:0,0:0:0:0:
413,246,82144,1,10,0:3:0:0:
249,89,82519,1,10,0:0:0:0:
109,273,82894,6,0,P|70:274|35:259,1,77.0000023498536,14|2,0:3|0:0,0:0:0:0:
1,148,83269,1,10,0:0:0:0:
1,148,83456,1,2,0:0:0:0:
77,60,83644,2,0,P|115:58|150:73,1,77.0000023498536,10|2,0:3|0:0,0:0:0:0:
185,185,84019,1,10,0:2:0:0:
185,185,84206,1,2,0:0:0:0:
292,141,84394,6,0,L|306:49,1,77.0000023498536,10|2,0:3|0:0,0:0:0:0:
418,48,84769,2,0,L|465:128,1,77.0000023498536,10|2,0:0|0:0,0:0:0:0:
386,206,85144,1,10,0:3:0:0:
198,85,85519,1,10,0:0:0:0:
51,263,85894,6,0,P|83:250|130:254,1,77.0000023498536,14|2,0:3|0:0,0:0:0:0:
194,351,86269,1,10,0:0:0:0:
194,351,86456,1,2,0:0:0:0:
300,304,86644,2,0,P|313:272|309:225,1,77.0000023498536,10|2,0:3|0:0,0:0:0:0:
240,145,87019,1,10,0:2:0:0:
240,145,87206,1,2,0:0:0:0:
142,185,87394,6,0,L|47:180,1,70,10|2,0:3|0:0,0:0:0:0:
54,177,87675,1,2,0:0:0:0:
37,170,87769,2,0,P|31:117|41:89,1,70,8|0,0:0|0:0,0:0:0:0:
80,9,88144,1,10,0:0:0:0:
240,145,88519,1,10,0:0:0:0:
419,32,88894,6,0,P|382:20|349:22,1,70,14|0,0:3|0:3,0:0:0:0:
341,119,89269,2,0,P|377:130|410:128,1,70,10|0,0:2|0:3,0:0:0:0:
501,94,89644,2,0,L|507:51,2,35,10|0|0,0:3|0:0|0:0,0:0:0:0:
484,190,90019,2,0,L|475:267,1,70,10|0,0:0|0:0,0:0:0:0:
403,326,90394,6,0,L|356:317,3,35,14|0|8|0,0:3|0:0|0:3|0:0,0:0:0:0:
329,334,90769,2,0,L|282:325,3,35,10|0|8|0,0:0|0:0|0:3|0:0,0:0:0:0:
255,342,91144,2,0,L|208:333,3,35,10|0|8|0,0:3|0:0|0:3|0:0,0:0:0:0:
181,350,91519,2,0,L|134:341,2,35,10|2|10,0:0|0:0|0:3,0:0:0:0:
