osu file format v14

[General]
AudioFilename: audio.mp3
AudioLeadIn: 0
PreviewTime: 67237
Countdown: 0
SampleSet: Soft
StackLeniency: 0.7
Mode: 0
LetterboxInBreaks: 0
WidescreenStoryboard: 1

[Editor]
DistanceSpacing: 1
BeatDivisor: 4
GridSize: 4
TimelineZoom: 1

[Metadata]
Title:Jounetsu Utopia
TitleUnicode:蒸熱♨ユートピア
Artist:Karen, Koharu Meu, Harukawa Akari
ArtistUnicode:華憐、小春めう、春河あかり
Creator:Asuka_-
Version:Normal
Source:恋と恋するユートピア
Tags:eroge opening Denki 電気 LoveMatic Koipia Koi to Suru
BeatmapID:1212738
BeatmapSetID:572329

[Difficulty]
HPDrainRate:4
CircleSize:3.5
OverallDifficulty:4
ApproachRate:5
SliderMultiplier:1.2
SliderTickRate:1

[Events]
//Background and Video events
0,0,"BG.jpg",0,0
//Break Periods
//Storyboard Layer 0 (Background)
//Storyboard Layer 1 (Fail)
//Storyboard Layer 2 (Pass)
//Storyboard Layer 3 (Foreground)
//Storyboard Sound Samples

[TimingPoints]
394,375,4,2,1,55,1,0
6394,-100,4,2,2,55,0,0
25519,-100,4,2,1,45,0,0
36769,-100,4,2,1,50,0,0
48394,-100,4,2,2,50,0,0
67281,-100,4,2,2,45,0,0
67894,-100,4,2,2,65,0,1
79894,-100,4,2,1,55,0,0

[Colours]
Combo1 : 137,217,243
Combo2 : 255,149,98
Combo3 : 255,128,128
Combo4 : 128,255,128

[HitObjects]
71,51,394,6,0,B|57:88|57:88|70:177,1,120,6|0,0:0|0:0,0:0:0:0:
213,358,1519,1,2,0:0:0:0:
324,314,1894,2,0,P|339:240|347:191,1,120,2|2,0:0|0:0,0:0:0:0:
349,136,2456,1,0,0:0:0:0:
334,77,2644,2,0,P|285:57|206:77,1,120,0|2,0:0|0:0,0:0:0:0:
121,135,3394,6,0,B|111:187|111:187|132:275,1,120,6|2,0:0|0:0,0:0:0:0:
365,271,4519,1,2,0:0:0:0:
438,365,4894,2,0,P|449:284|456:229,1,120,2|2,0:0|0:0,0:0:0:0:
463,186,5456,1,0,0:0:0:0:
467,126,5644,2,0,B|418:145|339:132,1,120,0|2,0:0|0:0,0:0:0:0:
250,62,6394,6,0,B|196:53|196:53|77:82,1,120,6|8,0:0|0:0,0:0:0:0:
77,92,6956,1,0,0:0:0:0:
16,89,7144,2,0,L|34:219,1,120,2|8,0:0|0:0,0:0:0:0:
103,304,7894,1,2,0:0:0:0:
205,240,8269,1,8,0:0:0:0:
277,331,8644,2,0,P|343:332|405:320,1,120,2|8,0:0|0:0,0:0:0:0:
444,287,9206,1,0,0:0:0:0:
483,241,9394,6,0,B|497:160|497:160|483:102,1,120,2|8,0:0|0:0,0:0:0:0:
439,88,9956,1,0,0:0:0:0:
383,110,10144,2,0,P|333:125|220:121,1,120,2|8,0:0|0:0,0:0:0:0:
170,56,10894,1,2,0:0:0:0:
68,118,11269,1,8,0:0:0:0:
95,234,11644,2,0,B|154:246|154:246|231:231,1,120,2|8,0:0|0:0,0:0:0:0:
272,226,12206,1,0,0:0:0:0:
328,247,12394,6,0,B|352:159|352:159|353:102,1,120,6|8,0:0|0:0,0:0:0:0:
326,76,12956,1,0,0:0:0:0:
357,24,13144,2,0,P|424:27|479:47,1,120,2|8,0:0|0:0,0:0:0:0:
505,159,13894,1,2,0:0:0:0:
461,270,14269,1,8,0:0:0:0:
374,352,14644,2,0,P|310:355|237:347,1,120,2|8,0:0|0:0,0:0:0:0:
196,335,15206,1,0,0:0:0:0:
138,353,15394,6,0,B|115:262|115:262|124:213,1,120,2|8,0:0|0:0,0:0:0:0:
131,177,15956,1,0,0:0:0:0:
104,122,16144,2,0,B|164:132|164:132|229:121,1,120,2|8,0:0|0:0,0:0:0:0:
337,87,16894,1,2,0:0:0:0:
440,147,17269,1,8,0:0:0:0:
379,250,17644,2,0,P|329:264|259:275,1,120,2|8,0:0|0:0,0:0:0:0:
161,340,18394,6,0,B|150:273|150:273|162:205,1,120,10|8,0:0|0:0,0:0:0:0:
169,162,18956,1,0,0:0:0:0:
150,104,19144,2,0,P|213:106|272:119,1,120,10|8,0:0|0:0,0:0:0:0:
377,168,19894,1,10,0:0:0:0:
442,268,20269,1,8,0:0:0:0:
358,354,20644,1,10,0:0:0:0:
259,285,21019,2,0,L|186:299,1,60,8|2,0:0|0:0,0:0:0:0:
151,331,21394,6,0,B|163:255|163:255|177:193,1,120,14|8,0:0|0:0,0:0:0:0:
217,173,21956,1,0,0:0:0:0:
271,197,22144,2,0,B|320:207|320:207|415:189,1,120,10|8,0:0|0:0,0:0:0:0:
484,120,22894,1,10,0:0:0:0:
387,48,23269,1,10,0:0:0:0:
272,82,23644,2,0,P|218:91|136:80,1,120,2|14,0:0|0:0,0:0:0:0:
73,174,24394,5,6,0:0:0:0:
384,353,25519,2,0,L|395:292,1,60,0|0,0:0|0:0,0:0:0:0:
420,239,25894,2,0,P|366:268|294:257,1,120,0|0,0:0|0:0,0:0:0:0:
277,212,26456,2,0,P|210:201|154:231,1,120,0|0,0:0|0:0,0:0:0:0:
133,273,27019,2,0,B|100:284|58:285,1,60,0|0,0:0|0:0,0:0:0:0:
20,257,27394,6,0,P|3:191|14:130,1,120,0|0,0:0|0:0,0:0:0:0:
95,55,28144,1,0,0:0:0:0:
155,55,28332,2,0,P|187:59|275:120,1,120,0|0,0:0|0:0,0:0:0:0:
289,156,28894,1,0,0:0:0:0:
274,275,29269,1,0,0:0:0:0:
344,372,29644,2,0,L|495:357,1,120,0|0,0:0|0:0,0:0:0:0:
504,247,30394,5,0,0:0:0:0:
411,170,30769,1,0,0:0:0:0:
496,86,31144,1,0,0:0:0:0:
391,26,31519,2,0,P|357:31|295:42,1,60,0|0,0:0|0:0,0:0:0:0:
287,76,31894,2,0,P|221:76|143:61,1,120,0|0,0:0|0:0,0:0:0:0:
114,40,32456,2,0,L|129:175,1,120,0|0,0:0|0:0,0:0:0:0:
93,209,33019,2,0,L|100:288,1,60,0|0,0:0|0:0,0:0:0:0:
68,320,33394,6,0,P|123:331|196:332,1,120,0|0,0:0|0:0,0:0:0:0:
298,289,34144,2,0,P|321:207|324:145,1,120,0|0,0:0|0:0,0:0:0:0:
305,115,34706,1,0,0:0:0:0:
274,63,34894,2,0,P|333:86|405:83,1,120,0|0,0:0|0:0,0:0:0:0:
500,40,35644,2,0,P|486:92|477:165,1,120,0|0,0:0|0:0,0:0:0:0:
477,277,36394,5,6,0:0:0:0:
393,362,36769,1,8,0:0:0:0:
302,284,37144,1,2,0:0:0:0:
193,335,37519,2,0,L|106:323,1,60,8|0,0:0|0:0,0:0:0:0:
83,360,37894,2,0,P|92:288|103:228,1,120,2|8,0:0|0:0,0:0:0:0:
134,191,38456,2,0,P|192:178|288:178,1,120,0|0,0:0|0:0,0:0:0:0:
300,210,39019,2,0,P|349:217|408:218,1,60,8|0,0:0|0:0,0:0:0:0:
416,201,39394,5,2,0:0:0:0:
511,128,39769,1,8,0:0:0:0:
431,42,40144,2,0,P|377:32|298:31,1,120,2|8,0:0|0:0,0:0:0:0:
264,67,40706,1,0,0:0:0:0:
219,107,40894,2,0,P|156:106|78:82,1,120,2|8,0:0|0:0,0:0:0:0:
7,16,41644,2,0,P|14:78|23:148,1,120,2|8,0:0|0:0,0:0:0:0:
58,249,42394,5,6,0:0:0:0:
144,331,42769,1,8,0:0:0:0:
260,300,43144,1,2,0:0:0:0:
371,344,43519,2,0,L|396:266,1,60,8|0,0:0|0:0,0:0:0:0:
441,256,43894,2,0,P|461:188|460:112,1,120,2|8,0:0|0:0,0:0:0:0:
438,84,44456,2,0,P|406:62|326:43,1,120,0|0,0:0|0:0,0:0:0:0:
273,68,45019,2,0,P|252:71|196:74,1,60,8|0,0:0|0:0,0:0:0:0:
159,47,45394,6,0,L|175:181,1,120,2|8,0:0|0:0,0:0:0:0:
64,115,46144,2,0,L|81:248,1,120,2|8,0:0|0:0,0:0:0:0:
91,292,46706,1,0,0:0:0:0:
109,348,46894,2,0,P|174:363|250:351,1,120,2|8,0:0|0:0,0:0:0:0:
312,274,47644,2,0,P|377:268|444:300,1,120,2|8,0:0|0:0,0:0:0:0:
506,197,48394,5,6,0:0:0:0:
415,118,48769,1,8,0:0:0:0:
316,185,49144,1,2,0:0:0:0:
227,104,49519,1,8,0:0:0:0:
179,140,49706,2,0,P|141:154|108:156,1,60,0|0,0:0|0:0,0:0:0:0:
69,127,50081,2,0,P|59:186|48:254,1,120,0|0,0:0|0:0,0:0:0:0:
60,304,50644,1,2,0:0:0:0:
173,266,51019,1,8,0:0:0:0:
266,343,51394,6,0,L|289:224,1,120,6|8,0:0|0:0,0:0:0:0:
249,111,52144,2,0,P|181:117|119:133,1,120,2|8,0:0|0:0,0:0:0:0:
80,161,52706,1,0,0:0:0:0:
18,264,53081,2,0,P|55:269|85:274,1,60,0|8,0:0|0:0,0:0:0:0:
126,307,53456,1,0,0:0:0:0:
176,339,53644,2,0,P|246:336|302:314,1,120,2|8,0:0|0:0,0:0:0:0:
402,366,54394,6,0,L|429:243,1,120,6|8,0:0|0:0,0:0:0:0:
488,145,55144,2,0,P|452:100|380:57,1,120,2|8,0:0|0:0,0:0:0:0:
340,61,55706,1,0,0:0:0:0:
292,171,56081,2,0,P|232:163|134:143,1,120,0|0,0:0|0:0,0:0:0:0:
121,182,56644,2,0,L|95:25,1,120,2|8,0:0|0:0,0:0:0:0:
15,147,57394,6,0,L|40:284,1,120,10|8,0:0|0:0,0:0:0:0:
109,360,58144,2,0,L|15:383,2,60,10|0|8,0:0|0:0|0:0,0:0:0:0:
148,314,58706,1,0,0:0:0:0:
190,270,58894,2,0,P|240:276|326:300,1,120,10|8,0:0|0:0,0:0:0:0:
418,339,59644,2,0,L|486:376,2,60,10|0|8,0:0|0:0|0:0,0:0:0:0:
398,282,60206,1,0,0:0:0:0:
424,227,60394,6,0,P|414:148|396:97,1,120,10|8,0:0|0:0,0:0:0:0:
293,55,61144,2,0,L|276:151,2,60,10|0|8,0:0|0:0|0:0,0:0:0:0:
238,30,61706,1,0,0:0:0:0:
183,55,61894,2,0,P|127:71|39:80,1,120,10|8,0:0|0:0,0:0:0:0:
12,186,62644,2,0,P|67:210|149:225,1,120,10|8,0:0|0:0,0:0:0:0:
256,192,63394,12,2,66394,0:0:0:0:
252,343,67331,6,0,L|177:357,2,60,0|0|0,0:0|0:0|0:0,0:0:0:0:
310,356,67894,6,0,P|328:298|341:223,1,120,6|8,0:0|0:0,0:0:0:0:
387,204,68456,2,0,P|393:148|390:71,1,120,0|0,0:0|0:0,0:0:0:0:
351,39,69019,1,8,0:0:0:0:
274,131,69394,6,0,P|220:147|145:157,1,120,2|8,0:0|0:0,0:0:0:0:
105,125,69956,2,0,P|90:192|81:251,1,120,0|0,0:0|0:0,0:0:0:0:
71,302,70519,1,8,0:0:0:0:
187,271,70894,6,0,P|252:266|313:286,1,120,2|8,0:0|0:0,0:0:0:0:
336,331,71456,2,0,P|404:340|476:315,1,120,0|0,0:0|0:0,0:0:0:0:
502,293,72019,1,8,0:0:0:0:
391,247,72394,6,0,P|373:159|433:84,1,180,2|0,0:0|0:0,0:0:0:0:
479,69,73144,1,2,0:0:0:0:
368,22,73519,1,8,0:0:0:0:
265,84,73894,6,0,P|200:99|123:104,1,120,2|8,0:0|0:0,0:0:0:0:
94,76,74456,2,0,P|102:126|109:215,1,120,0|0,0:0|0:0,0:0:0:0:
69,241,75019,1,8,0:0:0:0:
145,333,75394,6,0,P|203:338|264:330,1,120,2|8,0:0|0:0,0:0:0:0:
314,297,75956,2,0,P|337:224|347:158,1,120,0|0,0:0|0:0,0:0:0:0:
330,122,76519,1,8,0:0:0:0:
418,41,76894,6,0,P|444:95|450:163,1,120,6|8,0:0|0:0,0:0:0:0:
479,206,77456,2,0,P|474:270|448:353,1,120,0|0,0:0|0:0,0:0:0:0:
419,369,78019,1,8,0:0:0:0:
320,300,78394,6,0,P|251:280|190:301,1,120,2|8,0:0|0:0,0:0:0:0:
161,331,78956,2,0,P|72:336|10:262,1,180,0|8,0:0|0:0,0:0:0:0:
16,153,79894,6,0,P|57:132|88:124,1,60,6|0,0:0|0:0,0:0:0:0:
113,85,80269,2,0,P|145:90|186:112,1,60,8|0,0:0|0:0,0:0:0:0:
227,84,80644,2,0,P|248:140|258:220,1,120,2|8,0:0|0:0,0:0:0:0:
184,294,81394,6,0,P|210:323|242:341,1,60,2|0,0:0|0:0,0:0:0:0:
280,363,81769,2,0,P|315:355|359:339,1,60,8|0,0:0|0:0,0:0:0:0:
397,354,82144,2,0,P|424:293|435:242,1,120,2|8,0:0|0:0,0:0:0:0:
468,125,82894,6,0,P|445:108|416:93,1,60,6|0,0:0|0:0,0:0:0:0:
375,50,83269,2,0,P|342:51|304:59,1,60,8|0,0:0|0:0,0:0:0:0:
264,24,83644,2,0,P|203:40|157:75,1,120,2|8,0:0|0:0,0:0:0:0:
110,183,84394,6,0,P|130:217|153:239,1,60,2|0,0:0|0:0,0:0:0:0:
155,290,84769,2,0,P|186:305|226:315,1,60,8|0,0:0|0:0,0:0:0:0:
252,355,85144,2,0,P|307:349|372:324,1,120,2|8,0:0|0:0,0:0:0:0:
450,240,85894,6,0,P|412:205|384:193,1,60,6|0,0:0|0:0,0:0:0:0:
372,150,86269,2,0,P|341:152|302:157,1,60,8|0,0:0|0:0,0:0:0:0:
262,121,86644,2,0,P|234:125|136:185,1,120,2|8,0:0|0:0,0:0:0:0:
120,217,87206,1,0,0:0:0:0:
99,273,87394,1,8,0:0:0:0:
190,350,87769,5,2,0:0:0:0:
285,277,88144,1,2,0:0:0:0:
395,323,88519,1,8,0:0:0:0:
486,245,88894,6,0,P|490:170|474:100,1,120,6|8,0:0|0:0,0:0:0:0:
432,92,89456,1,0,0:0:0:0:
373,106,89644,2,0,P|313:98|255:82,1,120,8|8,0:0|0:0,0:0:0:0:
144,37,90394,6,0,P|152:89|169:183,1,120,8|8,0:0|0:0,0:0:0:0:
188,210,90956,1,0,0:0:0:0:
171,267,91144,2,0,P|107:281|49:276,1,120,8|8,0:0|0:0,0:0:0:0:
8,237,91706,1,8,0:0:0:0:
