osu file format v14

[General]
AudioFilename: audio.mp3
AudioLeadIn: 0
PreviewTime: 67284
Countdown: 0
SampleSet: Normal
StackLeniency: 0.7
Mode: 1
LetterboxInBreaks: 0
WidescreenStoryboard: 0

[Editor]
DistanceSpacing: 0.3
BeatDivisor: 4
GridSize: 4
TimelineZoom: 1.9

[Metadata]
Title:Jounetsu Utopia
TitleUnicode:蒸熱♨ユートピア
Artist:Karen, Harukawa Akari, Koharu Meu
ArtistUnicode:華憐、春河あかり、小春めう
Creator:Charlotte
Version:Muzukashii
Source:恋と恋するユートピア
Tags:eroge opening denki 電気 lovematic koipia koi to suru 404 AccNotFound
BeatmapID:1427759
BeatmapSetID:674144

[Difficulty]
HPDrainRate:6
CircleSize:6
OverallDifficulty:5
ApproachRate:7
SliderMultiplier:1.4
SliderTickRate:1

[Events]
//Background and Video events
0,0,"BG4.jpg",0,80
//Break Periods
//Storyboard Layer 0 (Background)
//Storyboard Layer 1 (Fail)
//Storyboard Layer 2 (Pass)
//Storyboard Layer 3 (Foreground)
//Storyboard Sound Samples

[TimingPoints]
394,375,4,1,0,90,1,0
24394,-125,4,1,0,60,0,0
36394,-111.111111111111,4,1,0,70,0,0
48394,-100,4,1,0,80,0,0
67331,-100,4,1,0,90,0,0
67894,-100,4,1,0,90,0,1
79894,-100,4,1,0,90,0,0

[HitObjects]
256,192,394,5,0,0:0:0:0:
256,192,581,1,8,0:0:0:0:
256,192,675,1,8,0:0:0:0:
256,192,769,1,8,0:0:0:0:
256,192,1331,1,8,0:0:0:0:
256,192,1519,1,8,0:0:0:0:
256,192,1706,1,0,0:0:0:0:
256,192,1894,1,0,0:0:0:0:
256,192,2081,1,8,0:0:0:0:
256,192,2456,1,0,0:0:0:0:
256,192,2644,1,0,0:0:0:0:
256,192,3019,1,8,0:0:0:0:
256,192,3394,1,0,0:0:0:0:
256,192,3581,1,8,0:0:0:0:
256,192,3675,1,8,0:0:0:0:
256,192,3769,1,8,0:0:0:0:
256,192,4331,1,8,0:0:0:0:
256,192,4519,1,8,0:0:0:0:
256,192,4706,1,0,0:0:0:0:
256,192,4894,1,0,0:0:0:0:
260,192,5081,1,8,0:0:0:0:
256,192,5456,1,0,0:0:0:0:
256,192,5644,1,0,0:0:0:0:
256,192,6019,1,8,0:0:0:0:
252,192,6394,1,0,0:0:0:0:
256,192,6581,1,8,0:0:0:0:
256,192,6675,1,8,0:0:0:0:
256,192,6769,1,8,0:0:0:0:
256,192,7144,1,0,0:0:0:0:
256,188,7331,1,8,0:0:0:0:
256,188,7425,1,8,0:0:0:0:
256,188,7519,1,8,0:0:0:0:
256,184,7894,1,8,0:0:0:0:
256,184,8081,1,0,0:0:0:0:
256,188,8269,1,8,0:0:0:0:
256,188,8456,1,8,0:0:0:0:
256,184,8644,1,0,0:0:0:0:
256,184,9019,1,0,0:0:0:0:
256,184,9206,1,8,0:0:0:0:
256,184,9394,1,0,0:0:0:0:
256,184,9581,1,0,0:0:0:0:
256,184,9769,1,8,0:0:0:0:
256,184,10144,1,0,0:0:0:0:
256,184,10331,1,0,0:0:0:0:
256,184,10519,1,8,0:0:0:0:
256,184,10706,1,0,0:0:0:0:
256,188,10894,1,8,0:0:0:0:
256,184,11269,1,8,0:0:0:0:
256,184,11456,1,0,0:0:0:0:
256,184,11644,1,8,0:0:0:0:
256,184,12394,1,0,0:0:0:0:
256,184,12581,1,8,0:0:0:0:
256,184,12675,1,8,0:0:0:0:
256,184,12769,1,8,0:0:0:0:
256,184,13144,1,0,0:0:0:0:
256,184,13331,1,8,0:0:0:0:
256,184,13425,1,8,0:0:0:0:
256,184,13519,1,8,0:0:0:0:
256,184,13894,1,8,0:0:0:0:
256,184,14081,1,0,0:0:0:0:
256,188,14269,1,8,0:0:0:0:
256,188,14456,1,8,0:0:0:0:
256,184,14644,1,0,0:0:0:0:
256,184,15019,1,0,0:0:0:0:
256,184,15206,1,8,0:0:0:0:
256,184,15394,1,0,0:0:0:0:
256,184,15581,1,0,0:0:0:0:
256,184,15769,1,8,0:0:0:0:
256,184,16144,1,0,0:0:0:0:
256,188,16331,1,0,0:0:0:0:
256,184,16519,1,8,0:0:0:0:
256,184,16706,1,0,0:0:0:0:
256,184,16894,1,8,0:0:0:0:
256,184,17269,1,8,0:0:0:0:
256,184,17456,1,0,0:0:0:0:
256,184,17644,1,8,0:0:0:0:
256,184,18394,1,0,0:0:0:0:
256,184,18581,1,8,0:0:0:0:
256,184,18675,1,8,0:0:0:0:
256,184,18769,1,8,0:0:0:0:
256,184,19144,1,0,0:0:0:0:
256,184,19331,1,8,0:0:0:0:
256,184,19519,1,8,0:0:0:0:
256,184,19706,1,0,0:0:0:0:
256,184,20081,1,8,0:0:0:0:
256,184,20269,1,0,0:0:0:0:
256,184,20456,1,8,0:0:0:0:
256,184,20831,1,8,0:0:0:0:
256,184,21019,1,0,0:0:0:0:
256,184,21394,1,0,0:0:0:0:
256,184,21581,1,8,0:0:0:0:
256,184,21675,1,8,0:0:0:0:
256,184,21769,1,8,0:0:0:0:
256,184,22144,1,0,0:0:0:0:
256,184,22331,1,8,0:0:0:0:
256,184,22519,1,8,0:0:0:0:
256,184,22706,1,0,0:0:0:0:
256,184,23081,1,8,0:0:0:0:
256,184,23269,1,8,0:0:0:0:
256,184,23456,1,0,0:0:0:0:
260,184,23644,1,0,0:0:0:0:
256,184,24019,1,12,0:0:0:0:
256,184,24394,1,0,0:0:0:0:
256,184,25144,1,0,0:0:0:0:
256,184,25519,1,0,0:0:0:0:
256,184,25894,1,8,0:0:0:0:
256,184,26644,1,0,0:0:0:0:
256,184,27394,1,8,0:0:0:0:
256,184,27769,1,8,0:0:0:0:
256,184,27956,1,0,0:0:0:0:
256,184,28331,1,0,0:0:0:0:
256,184,28519,1,8,0:0:0:0:
256,184,28894,1,0,0:0:0:0:
256,184,29644,1,8,0:0:0:0:
256,184,30019,1,8,0:0:0:0:
256,184,30206,1,8,0:0:0:0:
256,184,30394,1,0,0:0:0:0:
256,184,30769,1,8,0:0:0:0:
256,184,31144,1,0,0:0:0:0:
256,184,31894,1,8,0:0:0:0:
256,184,32456,1,0,0:0:0:0:
256,184,33019,1,8,0:0:0:0:
256,184,33206,1,8,0:0:0:0:
256,192,33394,12,0,34519,0:0:0:0:
256,196,34894,5,8,0:0:0:0:
256,196,35269,1,8,0:0:0:0:
256,196,35644,1,0,0:0:0:0:
256,196,36019,1,8,0:0:0:0:
256,196,36207,1,0,0:0:0:0:
256,196,36394,1,12,0:0:0:0:
256,196,36769,1,4,0:0:0:0:
256,196,37144,1,8,0:0:0:0:
256,196,37519,1,0,0:0:0:0:
256,196,37706,1,0,0:0:0:0:
256,196,37894,1,8,0:0:0:0:
256,196,38644,1,8,0:0:0:0:
256,192,39019,1,0,0:0:0:0:
256,196,39206,1,0,0:0:0:0:
256,192,39394,1,8,0:0:0:0:
264,192,39769,1,0,0:0:0:0:
264,192,40144,1,8,0:0:0:0:
264,192,40519,1,0,0:0:0:0:
264,192,40706,1,0,0:0:0:0:
264,192,40894,1,8,0:0:0:0:
264,192,41269,1,0,0:0:0:0:
264,192,41644,1,8,0:0:0:0:
264,192,41831,1,0,0:0:0:0:
264,192,42019,1,8,0:0:0:0:
264,192,42206,1,8,0:0:0:0:
264,192,42394,1,0,0:0:0:0:
264,192,42769,1,8,0:0:0:0:
264,192,43144,1,0,0:0:0:0:
264,192,43519,1,8,0:0:0:0:
264,192,43706,1,0,0:0:0:0:
264,192,43894,1,8,0:0:0:0:
264,192,44644,1,8,0:0:0:0:
264,192,45019,1,0,0:0:0:0:
264,192,45206,1,8,0:0:0:0:
264,192,45394,1,8,0:0:0:0:
264,192,45769,1,0,0:0:0:0:
264,192,46144,1,8,0:0:0:0:
264,192,46519,1,0,0:0:0:0:
264,192,46706,1,0,0:0:0:0:
264,192,46894,1,8,0:0:0:0:
264,192,47269,1,0,0:0:0:0:
268,196,47644,1,8,0:0:0:0:
268,196,48394,1,4,0:0:0:0:
264,192,48769,1,0,0:0:0:0:
264,192,48956,1,0,0:0:0:0:
264,192,49144,1,8,0:0:0:0:
256,192,49519,1,0,0:0:0:0:
256,192,49706,1,8,0:0:0:0:
256,192,50081,1,0,0:0:0:0:
260,192,50269,1,8,0:0:0:0:
252,192,50456,1,8,0:0:0:0:
256,192,50644,1,0,0:0:0:0:
252,192,51019,1,8,0:0:0:0:
252,192,51394,1,0,0:0:0:0:
252,192,51769,1,8,0:0:0:0:
256,192,51956,1,0,0:0:0:0:
248,192,52144,1,8,0:0:0:0:
252,192,52519,1,0,0:0:0:0:
252,192,52706,1,8,0:0:0:0:
248,192,52894,1,0,0:0:0:0:
248,192,53081,1,0,0:0:0:0:
252,192,53269,1,8,0:0:0:0:
252,192,53456,1,8,0:0:0:0:
252,192,53644,1,0,0:0:0:0:
252,192,54394,1,0,0:0:0:0:
256,192,54769,1,0,0:0:0:0:
256,192,54956,1,0,0:0:0:0:
256,192,55144,1,8,0:0:0:0:
256,192,55519,1,0,0:0:0:0:
256,192,55706,1,8,0:0:0:0:
256,192,56081,1,0,0:0:0:0:
260,188,56269,1,8,0:0:0:0:
256,192,56456,1,0,0:0:0:0:
256,192,56644,1,8,0:0:0:0:
256,192,57019,1,0,0:0:0:0:
256,192,57394,1,8,0:0:0:0:
268,192,58144,1,8,0:0:0:0:
268,192,58519,1,8,0:0:0:0:
268,192,58894,1,0,0:0:0:0:
268,192,59269,1,0,0:0:0:0:
268,192,59644,1,8,0:0:0:0:
268,188,60019,1,0,0:0:0:0:
268,192,60206,1,8,0:0:0:0:
264,192,60394,1,0,0:0:0:0:
268,192,60769,1,8,0:0:0:0:
268,188,60956,1,0,0:0:0:0:
268,192,61144,1,8,0:0:0:0:
264,188,61519,1,0,0:0:0:0:
268,192,61706,1,0,0:0:0:0:
268,188,61894,1,8,0:0:0:0:
260,188,62269,1,0,0:0:0:0:
260,188,62456,1,0,0:0:0:0:
260,184,62644,1,8,0:0:0:0:
260,184,62831,1,0,0:0:0:0:
256,184,63019,1,8,0:0:0:0:
260,188,63394,1,0,0:0:0:0:
264,188,63581,1,8,0:0:0:0:
260,184,63675,1,8,0:0:0:0:
260,184,63769,1,8,0:0:0:0:
264,188,63956,1,0,0:0:0:0:
260,188,64331,1,8,0:0:0:0:
264,188,64519,1,0,0:0:0:0:
264,192,64706,1,8,0:0:0:0:
264,188,64894,1,0,0:0:0:0:
264,188,64987,1,0,0:0:0:0:
264,188,65081,1,0,0:0:0:0:
268,192,65269,1,8,0:0:0:0:
264,188,65644,1,0,0:0:0:0:
264,188,65831,1,8,0:0:0:0:
264,188,65925,1,8,0:0:0:0:
264,188,66019,1,8,0:0:0:0:
264,188,66206,1,8,0:0:0:0:
260,188,66394,1,4,0:0:0:0:
256,188,67331,1,8,0:0:0:0:
260,188,67518,1,0,0:0:0:0:
260,192,67706,1,8,0:0:0:0:
256,188,67894,1,4,0:0:0:0:
256,188,68175,1,8,0:0:0:0:
260,188,68456,1,8,0:0:0:0:
260,188,68831,1,0,0:0:0:0:
256,188,69019,1,8,0:0:0:0:
256,188,69206,1,8,0:0:0:0:
260,188,69394,1,0,0:0:0:0:
260,184,69675,1,8,0:0:0:0:
260,188,69956,1,0,0:0:0:0:
260,188,70331,1,0,0:0:0:0:
260,188,70519,1,8,0:0:0:0:
264,188,70706,1,8,0:0:0:0:
260,188,70894,1,0,0:0:0:0:
264,188,71081,1,8,0:0:0:0:
264,184,71175,1,8,0:0:0:0:
264,184,71269,1,8,0:0:0:0:
260,188,71456,1,0,0:0:0:0:
260,188,71831,1,0,0:0:0:0:
264,188,72019,1,8,0:0:0:0:
260,188,72206,1,0,0:0:0:0:
260,188,72394,1,8,0:0:0:0:
264,188,72581,1,0,0:0:0:0:
264,188,72675,1,0,0:0:0:0:
260,188,72769,1,0,0:0:0:0:
260,188,72956,1,8,0:0:0:0:
260,180,73331,1,0,0:0:0:0:
260,184,73519,1,8,0:0:0:0:
260,184,73706,1,8,0:0:0:0:
260,188,73894,1,4,0:0:0:0:
260,188,74175,1,8,0:0:0:0:
260,188,74456,1,8,0:0:0:0:
260,188,74831,1,8,0:0:0:0:
260,184,75019,1,8,0:0:0:0:
260,184,75206,1,0,0:0:0:0:
260,188,75394,1,8,0:0:0:0:
256,184,75675,1,8,0:0:0:0:
264,188,75956,1,0,0:0:0:0:
260,188,76331,1,0,0:0:0:0:
260,188,76519,1,8,0:0:0:0:
264,188,76706,1,0,0:0:0:0:
264,188,76894,1,8,0:0:0:0:
264,188,77081,1,0,0:0:0:0:
264,188,77175,1,0,0:0:0:0:
260,188,77269,1,0,0:0:0:0:
260,188,77456,1,8,0:0:0:0:
264,188,77831,1,8,0:0:0:0:
264,188,78019,1,8,0:0:0:0:
264,188,78206,1,0,0:0:0:0:
260,188,78394,1,8,0:0:0:0:
264,188,78769,1,0,0:0:0:0:
264,188,78956,1,8,0:0:0:0:
264,188,79144,1,8,0:0:0:0:
264,188,79237,1,8,0:0:0:0:
264,188,79331,1,8,0:0:0:0:
264,188,79519,1,0,0:0:0:0:
272,188,79894,1,0,0:0:0:0:
272,188,80081,1,8,0:0:0:0:
268,192,80269,1,0,0:0:0:0:
272,188,80644,1,0,0:0:0:0:
272,188,80831,1,8,0:0:0:0:
272,188,81019,1,0,0:0:0:0:
280,188,81394,1,0,0:0:0:0:
276,188,81581,1,8,0:0:0:0:
280,184,81769,1,0,0:0:0:0:
272,188,81956,1,8,0:0:0:0:
272,188,82144,1,0,0:0:0:0:
276,184,82237,1,0,0:0:0:0:
280,188,82331,1,0,0:0:0:0:
276,188,82519,1,8,0:0:0:0:
280,184,82894,1,8,0:0:0:0:
280,184,83081,1,0,0:0:0:0:
280,184,83269,1,8,0:0:0:0:
280,184,83644,1,8,0:0:0:0:
280,184,83831,1,0,0:0:0:0:
280,184,84019,1,8,0:0:0:0:
284,184,84394,1,8,0:0:0:0:
280,184,84581,1,0,0:0:0:0:
280,184,84769,1,8,0:0:0:0:
280,184,84956,1,0,0:0:0:0:
280,184,85144,1,8,0:0:0:0:
280,184,85237,1,8,0:0:0:0:
284,184,85331,1,8,0:0:0:0:
280,184,85519,1,0,0:0:0:0:
280,184,85894,1,0,0:0:0:0:
280,184,86081,1,8,0:0:0:0:
260,188,86269,1,0,0:0:0:0:
268,188,86644,1,0,0:0:0:0:
264,188,86831,1,8,0:0:0:0:
264,188,87019,1,0,0:0:0:0:
264,188,87394,1,0,0:0:0:0:
268,188,87581,1,8,0:0:0:0:
268,188,87675,1,8,0:0:0:0:
264,188,87769,1,8,0:0:0:0:
264,188,87956,1,8,0:0:0:0:
264,188,88144,1,0,0:0:0:0:
264,188,88519,1,8,0:0:0:0:
256,184,88894,1,0,0:0:0:0:
256,184,89081,1,8,0:0:0:0:
256,184,89269,1,8,0:0:0:0:
256,184,89456,1,8,0:0:0:0:
256,184,89644,1,8,0:0:0:0:
256,184,89737,1,8,0:0:0:0:
256,184,89831,1,8,0:0:0:0:
256,184,90019,1,8,0:0:0:0:
256,184,90394,1,8,0:0:0:0:
256,184,90581,1,0,0:0:0:0:
256,184,90769,1,8,0:0:0:0:
256,184,90956,1,8,0:0:0:0:
256,184,91144,1,0,0:0:0:0:
256,184,91331,1,8,0:0:0:0:
260,188,91519,1,8,0:0:0:0:
256,184,91612,1,8,0:0:0:0:
260,188,91706,1,8,0:0:0:0:
