osu file format v14

[General]
AudioFilename: audio.mp3
AudioLeadIn: 0
PreviewTime: 67284
Countdown: 0
SampleSet: Normal
StackLeniency: 0.7
Mode: 1
LetterboxInBreaks: 0
WidescreenStoryboard: 0

[Editor]
Bookmarks: 394,6394,18394,23644,23769,23894,24019,24394,36394,48394,57394,63394,66394,67331,67519,67706,67894,73144,73894,79894,82894,85894,88894,91706,91894
DistanceSpacing: 0.3
BeatDivisor: 4
GridSize: 4
TimelineZoom: 1.3

[Metadata]
Title:Jounetsu Utopia
TitleUnicode:蒸熱♨ユートピア
Artist:Karen, Harukawa Akari, Koharu Meu
ArtistUnicode:華憐、春河あかり、小春めう
Creator:Charlotte
Version:404's Oni
Source:恋と恋するユートピア
Tags:eroge opening denki 電気 lovematic koipia koi to suru 404 AccNotFound
BeatmapID:1427592
BeatmapSetID:674144

[Difficulty]
HPDrainRate:6
CircleSize:6
OverallDifficulty:5.5
ApproachRate:7
SliderMultiplier:1.4
SliderTickRate:1

[Events]
//Background and Video events
0,0,"BG2.jpg",0,110
//Break Periods
//Storyboard Layer 0 (Background)
//Storyboard Layer 1 (Fail)
//Storyboard Layer 2 (Pass)
//Storyboard Layer 3 (Foreground)
//Storyboard Sound Samples

[TimingPoints]
394,375,4,1,0,90,1,0
24394,-100,4,1,0,60,0,0
36394,-100,4,1,0,70,0,0
48394,-100,4,1,0,80,0,0
67331,-100,4,1,0,90,0,0
67894,-100,4,1,0,90,0,1
79894,-100,4,1,0,90,0,0

[HitObjects]
344,208,394,5,4,0:0:0:0:
268,184,1519,1,0,0:0:0:0:
268,184,1706,1,8,0:0:0:0:
268,184,1800,1,8,0:0:0:0:
268,184,1894,1,0,0:0:0:0:
264,176,2644,1,0,0:0:0:0:
232,104,2769,1,0,0:0:0:0:
232,104,2894,1,0,0:0:0:0:
232,104,3019,1,8,0:0:0:0:
232,104,3144,1,8,0:0:0:0:
232,104,3269,1,8,0:0:0:0:
232,104,3394,1,4,0:0:0:0:
252,132,4519,1,0,0:0:0:0:
152,152,4706,1,8,0:0:0:0:
152,152,4800,1,8,0:0:0:0:
152,152,4894,1,0,0:0:0:0:
328,160,5644,1,0,0:0:0:0:
328,160,5769,1,0,0:0:0:0:
328,160,5894,1,0,0:0:0:0:
328,160,6019,1,8,0:0:0:0:
372,148,6394,1,4,0:0:0:0:
228,156,6769,1,0,0:0:0:0:
236,152,6956,1,0,0:0:0:0:
236,152,7144,1,8,0:0:0:0:
236,152,7331,1,8,0:0:0:0:
236,152,7425,1,8,0:0:0:0:
236,152,7519,1,0,0:0:0:0:
236,152,7706,1,8,0:0:0:0:
236,152,7894,1,8,0:0:0:0:
236,152,8081,1,0,0:0:0:0:
236,152,8269,1,8,0:0:0:0:
236,152,8362,1,8,0:0:0:0:
236,152,8456,1,0,0:0:0:0:
236,152,8550,1,0,0:0:0:0:
236,152,8644,1,8,0:0:0:0:
236,152,8831,1,0,0:0:0:0:
236,152,9019,1,8,0:0:0:0:
236,152,9112,1,8,0:0:0:0:
236,152,9206,1,0,0:0:0:0:
236,152,9394,1,8,0:0:0:0:
236,152,9769,1,0,0:0:0:0:
224,136,9956,1,0,0:0:0:0:
224,136,10144,1,8,0:0:0:0:
224,136,10331,1,8,0:0:0:0:
224,136,10425,1,8,0:0:0:0:
224,136,10519,1,8,0:0:0:0:
224,136,10706,1,0,0:0:0:0:
224,136,10800,1,0,0:0:0:0:
224,136,10894,1,8,0:0:0:0:
224,136,11175,1,0,0:0:0:0:
224,136,11269,1,8,0:0:0:0:
224,136,11456,1,0,0:0:0:0:
220,136,11550,1,0,0:0:0:0:
204,116,11644,1,8,0:0:0:0:
152,144,11737,1,8,0:0:0:0:
204,116,11831,1,8,0:0:0:0:
204,116,12019,1,0,0:0:0:0:
180,116,12112,1,0,0:0:0:0:
204,116,12206,1,0,0:0:0:0:
204,116,12394,1,8,0:0:0:0:
232,136,12769,1,0,0:0:0:0:
232,136,12956,1,0,0:0:0:0:
232,136,13144,1,8,0:0:0:0:
232,136,13331,1,8,0:0:0:0:
232,136,13425,1,8,0:0:0:0:
232,136,13519,1,0,0:0:0:0:
232,136,13706,1,8,0:0:0:0:
232,136,13894,1,8,0:0:0:0:
232,136,14081,1,0,0:0:0:0:
232,136,14269,1,8,0:0:0:0:
232,136,14362,1,8,0:0:0:0:
232,136,14456,1,0,0:0:0:0:
232,136,14550,1,0,0:0:0:0:
232,136,14644,1,8,0:0:0:0:
232,136,14831,1,0,0:0:0:0:
232,136,15019,1,8,0:0:0:0:
232,136,15112,1,8,0:0:0:0:
232,136,15206,1,0,0:0:0:0:
232,136,15394,1,8,0:0:0:0:
232,136,15769,1,0,0:0:0:0:
232,136,15956,1,0,0:0:0:0:
232,136,16144,1,8,0:0:0:0:
232,136,16331,1,0,0:0:0:0:
232,136,16425,1,0,0:0:0:0:
232,136,16519,1,8,0:0:0:0:
232,136,16706,1,0,0:0:0:0:
232,136,16800,1,8,0:0:0:0:
232,136,16894,1,8,0:0:0:0:
232,136,17081,1,0,0:0:0:0:
232,136,17175,1,0,0:0:0:0:
232,136,17269,1,8,0:0:0:0:
232,96,17362,1,0,0:0:0:0:
232,136,17456,1,8,0:0:0:0:
232,136,17644,1,0,0:0:0:0:
232,136,17831,1,8,0:0:0:0:
232,136,18019,1,0,0:0:0:0:
232,136,18112,1,0,0:0:0:0:
232,136,18206,1,0,0:0:0:0:
232,136,18394,1,12,0:0:0:0:
76,208,19894,1,0,0:0:0:0:
324,160,19987,1,0,0:0:0:0:
76,200,20081,1,0,0:0:0:0:
76,200,20269,1,8,0:0:0:0:
60,220,20456,1,0,0:0:0:0:
80,200,20644,1,8,0:0:0:0:
152,160,20737,1,8,0:0:0:0:
80,200,20831,1,8,0:0:0:0:
76,200,21019,1,0,0:0:0:0:
76,200,21112,1,0,0:0:0:0:
76,200,21206,1,0,0:0:0:0:
108,224,21300,1,0,0:0:0:0:
80,200,21394,1,8,0:0:0:0:
168,168,21581,1,0,0:0:0:0:
168,168,21675,1,0,0:0:0:0:
240,128,21769,1,8,0:0:0:0:
240,128,22144,1,8,0:0:0:0:
240,128,22331,1,0,0:0:0:0:
164,164,22425,1,8,0:0:0:0:
244,124,22519,1,0,0:0:0:0:
228,132,22706,1,8,0:0:0:0:
168,120,22800,1,8,0:0:0:0:
244,124,22894,1,0,0:0:0:0:
244,124,22987,1,0,0:0:0:0:
244,124,23081,1,8,0:0:0:0:
244,124,23269,1,0,0:0:0:0:
220,116,23456,1,0,0:0:0:0:
68,216,23644,5,0,0:0:0:0:
72,216,23769,1,0,0:0:0:0:
72,216,23894,1,0,0:0:0:0:
72,216,24019,1,8,0:0:0:0:
72,216,24394,1,0,0:0:0:0:
248,216,27394,1,8,0:0:0:0:
268,184,28894,1,0,0:0:0:0:
268,184,29644,1,8,0:0:0:0:
268,184,30394,1,0,0:0:0:0:
272,188,33394,1,8,0:0:0:0:
332,140,34894,1,8,0:0:0:0:
332,140,35269,1,8,0:0:0:0:
332,140,35456,1,0,0:0:0:0:
332,140,35644,1,8,0:0:0:0:
332,140,36019,1,8,0:0:0:0:
332,140,36206,1,8,0:0:0:0:
268,140,36394,1,4,0:0:0:0:
156,120,36769,1,8,0:0:0:0:
156,120,37144,1,0,0:0:0:0:
156,120,37519,1,0,0:0:0:0:
156,120,37706,1,0,0:0:0:0:
156,120,37894,1,8,0:0:0:0:
156,120,38269,1,0,0:0:0:0:
156,120,38456,1,8,0:0:0:0:
172,128,38644,1,0,0:0:0:0:
156,120,38831,1,0,0:0:0:0:
156,120,39019,1,8,0:0:0:0:
156,120,39206,1,0,0:0:0:0:
172,128,39300,1,0,0:0:0:0:
156,120,39394,1,8,0:0:0:0:
156,120,39769,1,8,0:0:0:0:
156,120,40144,1,0,0:0:0:0:
156,124,40331,1,8,0:0:0:0:
156,124,40519,1,0,0:0:0:0:
156,124,40706,1,8,0:0:0:0:
180,128,40800,1,8,0:0:0:0:
156,124,40894,1,0,0:0:0:0:
156,124,41269,1,0,0:0:0:0:
208,108,41456,1,0,0:0:0:0:
156,124,41644,1,8,0:0:0:0:
156,124,42019,1,8,0:0:0:0:
208,108,42206,1,8,0:0:0:0:
156,124,42394,1,4,0:0:0:0:
156,124,42769,1,8,0:0:0:0:
156,124,43144,1,0,0:0:0:0:
156,124,43519,1,0,0:0:0:0:
156,124,43706,1,0,0:0:0:0:
156,124,43894,1,8,0:0:0:0:
156,124,44269,1,0,0:0:0:0:
156,124,44456,1,8,0:0:0:0:
212,76,44644,1,0,0:0:0:0:
156,124,44831,1,8,0:0:0:0:
216,84,44925,1,0,0:0:0:0:
156,124,45019,1,8,0:0:0:0:
156,124,45206,1,8,0:0:0:0:
156,124,45394,1,0,0:0:0:0:
156,124,45769,1,8,0:0:0:0:
156,124,46144,1,0,0:0:0:0:
156,124,46519,1,8,0:0:0:0:
80,208,46706,1,8,0:0:0:0:
156,124,46894,1,0,0:0:0:0:
156,124,47269,1,0,0:0:0:0:
180,148,47456,1,8,0:0:0:0:
156,124,47644,1,0,0:0:0:0:
156,124,47831,1,8,0:0:0:0:
180,148,47925,1,8,0:0:0:0:
156,124,48019,1,8,0:0:0:0:
200,132,48394,1,4,0:0:0:0:
240,144,48769,1,0,0:0:0:0:
284,148,48956,1,0,0:0:0:0:
240,144,49144,1,8,0:0:0:0:
232,116,49331,1,0,0:0:0:0:
232,116,49425,1,8,0:0:0:0:
240,144,49519,1,0,0:0:0:0:
240,144,49706,1,8,0:0:0:0:
240,144,50081,1,8,0:0:0:0:
224,120,50269,1,0,0:0:0:0:
240,144,50456,1,8,0:0:0:0:
220,120,50550,1,0,0:0:0:0:
240,144,50644,1,8,0:0:0:0:
172,72,50831,1,0,0:0:0:0:
56,144,50925,1,0,0:0:0:0:
240,144,51019,1,8,0:0:0:0:
240,144,51394,1,8,0:0:0:0:
240,144,51769,1,0,0:0:0:0:
216,124,51956,1,0,0:0:0:0:
240,144,52144,1,8,0:0:0:0:
216,124,52331,1,0,0:0:0:0:
216,124,52425,1,0,0:0:0:0:
240,144,52519,1,8,0:0:0:0:
240,144,52706,1,8,0:0:0:0:
240,144,53081,1,8,0:0:0:0:
240,144,53269,1,0,0:0:0:0:
240,144,53456,1,8,0:0:0:0:
216,124,53550,1,8,0:0:0:0:
240,144,53644,1,0,0:0:0:0:
208,56,53737,1,0,0:0:0:0:
148,128,53831,1,8,0:0:0:0:
148,128,54019,1,0,0:0:0:0:
148,128,54112,1,0,0:0:0:0:
148,128,54206,1,8,0:0:0:0:
240,144,54394,1,0,0:0:0:0:
240,144,54769,1,8,0:0:0:0:
168,120,54956,1,8,0:0:0:0:
240,144,55144,1,0,0:0:0:0:
168,120,55331,1,0,0:0:0:0:
168,120,55425,1,8,0:0:0:0:
240,144,55519,1,0,0:0:0:0:
240,144,55706,1,8,0:0:0:0:
240,144,56081,1,0,0:0:0:0:
168,120,56269,1,8,0:0:0:0:
240,144,56456,1,0,0:0:0:0:
168,120,56550,1,0,0:0:0:0:
240,144,56644,1,8,0:0:0:0:
168,120,56737,1,8,0:0:0:0:
168,120,56831,1,8,0:0:0:0:
240,144,57019,1,0,0:0:0:0:
168,120,57112,1,0,0:0:0:0:
168,120,57206,1,0,0:0:0:0:
240,144,57394,1,8,0:0:0:0:
232,164,57768,1,0,0:0:0:0:
96,136,57956,1,8,0:0:0:0:
228,164,58143,1,0,0:0:0:0:
228,164,58331,1,8,0:0:0:0:
240,160,58518,1,0,0:0:0:0:
240,160,58706,1,8,0:0:0:0:
76,176,58800,1,8,0:0:0:0:
76,168,58894,1,0,0:0:0:0:
240,160,59269,1,8,0:0:0:0:
240,160,59456,1,8,0:0:0:0:
240,160,59644,1,0,0:0:0:0:
240,160,59831,1,8,0:0:0:0:
240,160,60019,1,0,0:0:0:0:
240,160,60206,1,8,0:0:0:0:
196,108,60300,1,8,0:0:0:0:
240,160,60394,1,8,0:0:0:0:
196,108,60769,1,0,0:0:0:0:
196,108,60956,1,8,0:0:0:0:
196,108,61144,1,0,0:0:0:0:
196,108,61331,1,8,0:0:0:0:
196,108,61519,1,0,0:0:0:0:
196,108,61706,1,8,0:0:0:0:
196,108,61800,1,8,0:0:0:0:
196,108,61894,1,0,0:0:0:0:
196,108,62081,1,8,0:0:0:0:
196,108,62175,1,8,0:0:0:0:
196,108,62269,1,8,0:0:0:0:
196,108,62456,1,0,0:0:0:0:
196,108,62550,1,8,0:0:0:0:
196,108,62644,1,0,0:0:0:0:
196,108,62737,1,0,0:0:0:0:
196,108,62831,1,8,0:0:0:0:
196,108,63019,1,0,0:0:0:0:
172,148,63394,1,8,0:0:0:0:
172,148,63487,1,8,0:0:0:0:
172,148,63581,1,8,0:0:0:0:
172,136,63769,1,0,0:0:0:0:
168,140,63956,1,0,0:0:0:0:
168,140,64050,1,0,0:0:0:0:
172,136,64144,1,8,0:0:0:0:
172,136,64331,1,8,0:0:0:0:
172,136,64519,1,0,0:0:0:0:
172,136,64894,1,8,0:0:0:0:
168,140,64987,1,8,0:0:0:0:
168,140,65081,1,8,0:0:0:0:
172,136,65175,1,8,0:0:0:0:
172,136,65269,1,0,0:0:0:0:
172,136,65456,1,8,0:0:0:0:
156,84,65550,1,0,0:0:0:0:
160,80,65644,1,8,0:0:0:0:
156,88,65831,1,0,0:0:0:0:
156,88,65925,1,0,0:0:0:0:
156,84,66019,1,8,0:0:0:0:
152,208,66112,1,8,0:0:0:0:
156,84,66206,1,8,0:0:0:0:
176,40,66394,1,0,0:0:0:0:
176,96,67331,1,0,0:0:0:0:
176,96,67519,1,8,0:0:0:0:
176,96,67706,1,8,0:0:0:0:
176,96,67894,1,4,0:0:0:0:
236,120,68175,1,8,0:0:0:0:
236,120,68269,1,0,0:0:0:0:
216,128,68456,1,8,0:0:0:0:
216,128,68644,1,0,0:0:0:0:
216,128,68831,1,0,0:0:0:0:
216,128,68925,1,0,0:0:0:0:
220,128,69019,1,8,0:0:0:0:
220,128,69206,1,0,0:0:0:0:
220,132,69394,1,8,0:0:0:0:
220,132,69675,1,8,0:0:0:0:
220,132,69769,1,0,0:0:0:0:
220,128,69956,1,8,0:0:0:0:
220,128,70050,1,8,0:0:0:0:
228,128,70144,1,0,0:0:0:0:
228,128,70237,1,8,0:0:0:0:
228,128,70331,1,0,0:0:0:0:
228,128,70519,1,8,0:0:0:0:
224,132,70706,1,0,0:0:0:0:
224,132,70800,1,0,0:0:0:0:
224,132,70894,1,8,0:0:0:0:
224,132,71175,1,8,0:0:0:0:
224,132,71269,1,0,0:0:0:0:
224,132,71456,1,8,0:0:0:0:
224,132,71644,1,0,0:0:0:0:
224,132,71831,1,8,0:0:0:0:
224,132,71925,1,0,0:0:0:0:
224,132,72019,1,8,0:0:0:0:
224,132,72206,1,8,0:0:0:0:
228,128,72394,1,8,0:0:0:0:
228,128,72488,1,8,0:0:0:0:
224,132,72581,1,8,0:0:0:0:
224,132,72675,1,8,0:0:0:0:
224,132,72769,1,8,0:0:0:0:
224,132,72956,1,0,0:0:0:0:
196,108,73144,1,12,0:0:0:0:
228,128,73894,1,4,0:0:0:0:
252,208,74175,1,8,0:0:0:0:
256,212,74269,1,0,0:0:0:0:
236,228,74456,1,8,0:0:0:0:
244,236,74644,1,0,0:0:0:0:
244,236,74831,1,0,0:0:0:0:
208,100,74925,1,0,0:0:0:0:
244,236,75019,1,8,0:0:0:0:
244,236,75206,1,0,0:0:0:0:
244,236,75394,1,8,0:0:0:0:
244,236,75675,1,8,0:0:0:0:
244,236,75769,1,0,0:0:0:0:
244,236,75956,1,8,0:0:0:0:
244,236,76144,1,0,0:0:0:0:
244,236,76331,1,0,0:0:0:0:
244,236,76425,1,0,0:0:0:0:
244,236,76519,1,8,0:0:0:0:
100,92,76612,1,8,0:0:0:0:
244,236,76706,1,0,0:0:0:0:
244,236,76894,1,8,0:0:0:0:
244,236,77175,1,8,0:0:0:0:
244,236,77269,1,0,0:0:0:0:
244,236,77456,1,8,0:0:0:0:
244,236,77644,1,0,0:0:0:0:
244,236,77831,1,8,0:0:0:0:
244,236,77925,1,0,0:0:0:0:
244,236,78019,1,8,0:0:0:0:
244,236,78206,1,8,0:0:0:0:
244,236,78394,1,8,0:0:0:0:
132,128,78581,1,0,0:0:0:0:
132,128,78675,1,0,0:0:0:0:
132,128,78769,1,0,0:0:0:0:
132,128,78956,1,8,0:0:0:0:
136,128,79050,1,8,0:0:0:0:
132,128,79144,1,0,0:0:0:0:
132,128,79237,1,8,0:0:0:0:
132,128,79331,1,0,0:0:0:0:
136,128,79519,1,8,0:0:0:0:
136,128,79894,1,0,0:0:0:0:
156,184,79987,1,0,0:0:0:0:
244,208,80081,1,0,0:0:0:0:
244,208,80269,1,8,0:0:0:0:
244,208,80456,1,0,0:0:0:0:
244,208,80644,1,8,0:0:0:0:
152,188,80737,1,8,0:0:0:0:
244,208,80831,1,0,0:0:0:0:
244,208,81019,1,8,0:0:0:0:
244,208,81206,1,0,0:0:0:0:
244,208,81394,1,8,0:0:0:0:
128,152,81487,1,8,0:0:0:0:
244,208,81581,1,8,0:0:0:0:
244,208,81769,1,0,0:0:0:0:
244,208,81956,1,8,0:0:0:0:
244,208,82050,1,0,0:0:0:0:
244,208,82144,1,8,0:0:0:0:
248,212,82519,1,8,0:0:0:0:
204,272,82894,1,0,0:0:0:0:
200,260,82987,1,0,0:0:0:0:
200,260,83081,1,0,0:0:0:0:
200,260,83269,1,8,0:0:0:0:
200,260,83456,1,0,0:0:0:0:
200,260,83644,1,8,0:0:0:0:
200,260,83737,1,8,0:0:0:0:
200,260,83831,1,0,0:0:0:0:
200,260,84019,1,8,0:0:0:0:
200,260,84206,1,0,0:0:0:0:
200,260,84394,1,8,0:0:0:0:
188,220,84487,1,8,0:0:0:0:
188,220,84581,1,0,0:0:0:0:
196,160,84769,1,8,0:0:0:0:
188,220,84956,1,8,0:0:0:0:
188,220,85050,1,8,0:0:0:0:
188,220,85144,1,8,0:0:0:0:
188,220,85519,1,8,0:0:0:0:
248,192,85894,1,0,0:0:0:0:
248,192,85987,1,0,0:0:0:0:
248,192,86081,1,0,0:0:0:0:
248,192,86269,1,8,0:0:0:0:
248,192,86456,1,0,0:0:0:0:
248,192,86644,1,8,0:0:0:0:
248,192,86737,1,8,0:0:0:0:
248,192,86831,1,0,0:0:0:0:
248,192,87019,1,8,0:0:0:0:
248,192,87206,1,0,0:0:0:0:
248,192,87394,1,8,0:0:0:0:
248,192,87487,1,8,0:0:0:0:
248,192,87581,1,0,0:0:0:0:
248,192,87675,1,0,0:0:0:0:
248,192,87769,1,8,0:0:0:0:
248,192,87956,1,0,0:0:0:0:
248,192,88144,1,8,0:0:0:0:
248,192,88519,1,8,0:0:0:0:
248,192,88894,1,0,0:0:0:0:
248,212,89081,1,8,0:0:0:0:
248,212,89269,1,8,0:0:0:0:
248,192,89456,1,0,0:0:0:0:
248,192,89644,1,8,0:0:0:0:
248,192,89737,1,8,0:0:0:0:
248,192,89831,1,8,0:0:0:0:
248,192,90019,1,0,0:0:0:0:
248,192,90112,1,0,0:0:0:0:
248,192,90206,1,0,0:0:0:0:
248,192,90394,1,8,0:0:0:0:
248,192,90487,1,8,0:0:0:0:
248,192,90581,1,8,0:0:0:0:
248,192,90675,1,8,0:0:0:0:
248,192,90769,1,0,0:0:0:0:
248,192,90862,1,0,0:0:0:0:
248,192,90956,1,0,0:0:0:0:
248,192,91144,1,8,0:0:0:0:
248,192,91237,1,8,0:0:0:0:
248,192,91331,1,0,0:0:0:0:
248,192,91425,1,0,0:0:0:0:
248,192,91519,1,8,0:0:0:0:
248,192,91612,1,8,0:0:0:0:
248,192,91706,1,8,0:0:0:0:
