osu file format v14

[General]
AudioFilename: audio.mp3
AudioLeadIn: 0
PreviewTime: 67237
Countdown: 0
SampleSet: Soft
StackLeniency: 0.7
Mode: 0
LetterboxInBreaks: 0
WidescreenStoryboard: 1

[Editor]
DistanceSpacing: 1
BeatDivisor: 4
GridSize: 32
TimelineZoom: 1.3

[Metadata]
Title:Jounetsu Utopia
TitleUnicode:蒸熱♨ユートピア
Artist:Karen, Koharu Meu, Harukawa Akari
ArtistUnicode:華憐、小春めう、春河あかり
Creator:Lasse
Version:Normal
Source:恋と恋するユートピア
Tags:Koi to Suru Utopia visual novel eroge opening Denki 電気 LoveMatic Koipia
BeatmapID:1475380
BeatmapSetID:695632

[Difficulty]
HPDrainRate:4
CircleSize:3.4
OverallDifficulty:4.5
ApproachRate:5
SliderMultiplier:1.2
SliderTickRate:1

[Events]
//Background and Video events
0,0,"bg_edit.jpg",0,0
//Break Periods
//Storyboard Layer 0 (Background)
//Storyboard Layer 1 (Fail)
//Storyboard Layer 2 (Pass)
//Storyboard Layer 3 (Foreground)
//Storyboard Sound Samples

[TimingPoints]
394,375,4,2,1,60,1,0
394,-111.111111111111,4,2,1,60,0,0
768,-111.111111111111,4,2,1,60,0,0
1706,-111.111111111111,4,2,1,48,0,0
1800,-111.111111111111,4,2,1,54,0,0
1894,-111.111111111111,4,2,1,60,0,0
2456,-111.111111111111,4,2,1,60,0,0
2644,-111.111111111111,4,2,1,60,0,0
3581,-111.111111111111,4,2,1,42,0,0
3674,-111.111111111111,4,2,1,54,0,0
3768,-111.111111111111,4,2,1,60,0,0
4706,-111.111111111111,4,2,1,48,0,0
4800,-111.111111111111,4,2,1,54,0,0
4894,-111.111111111111,4,2,1,60,0,0
5456,-111.111111111111,4,2,1,60,0,0
5550,-111.111111111111,4,2,1,42,0,0
5644,-111.111111111111,4,2,1,60,0,0
6300,-111.111111111111,4,2,99,5,0,0
6394,-100,4,2,1,63,0,0
8362,-100,4,2,1,52,0,0
8644,-100,4,2,1,63,0,0
9112,-100,4,2,1,52,0,0
9394,-100,4,2,1,63,0,0
10612,-100,4,2,1,52,0,0
10894,-100,4,2,1,63,0,0
14362,-100,4,2,1,52,0,0
14644,-100,4,2,1,63,0,0
15112,-100,4,2,1,52,0,0
15394,-100,4,2,1,63,0,0
16612,-100,4,2,1,52,0,0
16894,-100,4,2,1,63,0,0
18394,-100,4,2,1,66,0,0
22894,-100,4,2,1,68,0,0
23644,-100,4,2,1,70,0,0
24019,-100,4,2,1,72,0,0
24394,-133.333333333333,4,2,43,55,0,0
25519,-133.333333333333,4,2,43,30,0,0
25894,-133.333333333333,4,2,43,40,0,0
26831,-133.333333333333,4,2,43,30,0,0
27769,-133.333333333333,4,2,43,11,0,0
28144,-133.333333333333,4,2,43,30,0,0
28894,-133.333333333333,4,2,43,40,0,0
29269,-133.333333333333,4,2,43,11,0,0
30394,-133.333333333333,4,2,43,40,0,0
31519,-133.333333333333,4,2,43,30,0,0
31894,-133.333333333333,4,2,43,40,0,0
32831,-133.333333333333,4,2,43,30,0,0
33394,-133.333333333333,4,2,43,40,0,0
33769,-133.333333333333,4,2,43,11,0,0
34519,-133.333333333333,4,2,43,30,0,0
34894,-133.333333333333,4,2,43,40,0,0
35269,-133.333333333333,4,2,43,11,0,0
36019,-133.333333333333,4,2,43,30,0,0
36394,-111.111111111111,4,2,1,52,0,0
37800,-111.111111111111,4,2,99,5,0,0
37894,-111.111111111111,4,2,1,52,0,0
42206,-111.111111111111,4,2,1,44,0,0
42394,-111.111111111111,4,2,1,52,0,0
43800,-111.111111111111,4,2,99,5,0,0
43894,-111.111111111111,4,2,1,52,0,0
48300,-111.111111111111,4,2,1,20,0,0
48394,-111.111111111111,4,2,1,60,0,0
57394,-100,4,2,1,62,0,0
58894,-100,4,2,1,64,0,0
60394,-100,4,2,1,66,0,0
61894,-100,4,2,1,68,0,0
63394,-100,4,2,1,70,0,0
66394,-100,4,2,1,60,0,0
67331,-100,4,2,1,46,0,0
67519,-100,4,2,1,48,0,0
67706,-100,4,2,1,50,0,0
67894,-90.9090909090909,4,2,1,70,0,1
68081,-90.9090909090909,4,2,1,30,0,1
68175,-90.9090909090909,4,2,1,70,0,1
71081,-90.9090909090909,4,2,1,30,0,1
71175,-90.9090909090909,4,2,1,70,0,1
73144,-90.9090909090909,4,2,1,60,0,1
73331,-100,4,2,1,46,0,0
73519,-90.9090909090909,4,2,1,48,0,0
73706,-90.9090909090909,4,2,1,50,0,0
73894,-90.9090909090909,4,2,1,70,0,1
74081,-90.9090909090909,4,2,1,30,0,1
74175,-90.9090909090909,4,2,1,70,0,1
77081,-90.9090909090909,4,2,1,30,0,1
77175,-90.9090909090909,4,2,1,70,0,1
79144,-90.9090909090909,4,2,1,60,0,1
79519,-90.9090909090909,4,2,1,50,0,0
79706,-90.9090909090909,4,2,1,60,0,1
79894,-90.9090909090909,4,2,1,70,0,1
82800,-90.9090909090909,4,2,1,70,0,0
82894,-90.9090909090909,4,2,1,70,0,1
85800,-90.9090909090909,4,2,1,70,0,0
85894,-90.9090909090909,4,2,1,70,0,1
87394,-100,4,2,1,60,0,0
88894,-100,4,2,1,60,0,0

[Colours]
Combo1 : 255,150,150
Combo2 : 130,190,230
Combo3 : 255,165,120
Combo4 : 170,240,150

[HitObjects]
65,295,394,6,0,L|61:187,1,107.999996704102,14|2,0:3|0:0,0:0:0:0:
160,57,1331,2,0,P|208:39|320:49,1,161.999995056153,2|8,0:0|0:3,0:0:0:0:
363,76,2081,2,0,L|374:203,1,107.999996704102,2|2,0:0|0:0,0:0:0:0:
328,221,2644,2,0,B|306:220|306:220|293:213|293:213|264:233|264:233|232:215|232:215|202:233|202:233|168:218|168:218|151:221|151:221|119:220,1,215.999993408203,8|14,1:3|0:3,0:0:0:0:
61,301,3769,5,2,0:0:0:0:
215,349,4331,2,0,L|383:336,1,161.999995056153,2|8,0:0|0:3,0:0:0:0:
416,300,5081,2,0,P|438:251|429:199,1,107.999996704102,2|2,0:0|0:0,0:0:0:0:
409,148,5644,2,0,B|386:146|386:146|374:140|374:140|356:146|345:159|345:159|329:148|329:148|304:139,1,107.999996704102,10|8,0:3|0:1,0:0:0:0:
205,194,6394,6,0,L|66:189,1,120,14|10,0:3|0:2,0:0:0:0:
29,180,6956,1,0,0:0:0:0:
29,180,7144,2,0,P|14:123|34:67,1,120,10|10,0:3|0:0,0:0:0:0:
146,24,7894,1,10,0:3:0:0:
232,107,8269,1,8,0:0:0:0:
338,49,8644,2,0,P|395:35|451:52,1,120,10|10,0:3|0:0,0:0:0:0:
498,165,9394,6,0,L|490:286,1,120,10|10,0:3|0:2,0:0:0:0:
445,322,9956,1,0,0:0:0:0:
445,322,10144,2,0,P|397:301|308:308,1,120,10|10,0:3|0:0,0:0:0:0:
218,343,10894,1,10,0:3:0:0:
143,250,11269,1,10,0:0:0:0:
208,149,11644,1,10,0:3:0:0:
132,55,12019,2,0,P|87:45|50:52,1,60,10|2,0:0|0:0,0:0:0:0:
20,73,12394,6,0,L|8:214,1,120,14|10,0:3|0:0,0:0:0:0:
21,256,12956,1,0,0:0:0:0:
21,256,13144,2,0,P|74:273|144:263,1,120,10|10,0:3|0:0,0:0:0:0:
247,217,13894,1,10,0:3:0:0:
341,291,14269,1,10,0:0:0:0:
441,225,14644,2,0,L|453:84,1,120,10|10,0:3|0:2,0:0:0:0:
350,40,15394,6,0,B|291:24|287:52|231:41,1,120,10|10,0:3|0:2,0:0:0:0:
178,52,15956,1,0,0:0:0:0:
178,52,16144,2,0,P|196:108|188:167,1,120,10|10,0:3|0:0,0:0:0:0:
138,276,16894,1,10,0:3:0:0:
209,373,17269,1,10,0:0:0:0:
329,364,17644,1,10,0:3:0:0:
381,255,18019,2,0,L|389:186,1,60,10|2,0:0|0:0,0:0:0:0:
362,140,18394,6,0,B|318:100|318:100|270:137,1,120,14|10,0:0|0:0,0:0:0:0:
242,191,18956,1,8,0:3:0:0:
242,191,19144,2,0,B|279:239|279:239|239:283,1,120,8|8,0:0|0:0,0:0:0:0:
147,361,19894,1,10,0:0:0:0:
34,322,20269,1,10,0:0:0:0:
11,204,20644,1,10,0:0:0:0:
101,125,21019,2,0,L|169:118,1,60,10|8,0:0|0:3,0:0:0:0:
217,139,21394,6,0,B|265:176|265:176|309:136,1,120,10|2,3:3|3:3,0:0:0:0:
354,95,21956,1,0,3:3:0:0:
354,95,22144,2,0,B|398:55|398:55|446:92,1,120,10|8,3:2|3:2,0:0:0:0:
505,196,22894,2,0,L|501:267,1,60,10|0,3:2|3:0,0:0:0:0:
458,297,23269,2,0,P|430:302|398:288,1,60,8|0,3:2|3:0,0:0:0:0:
350,259,23644,2,0,B|330:256|330:256|311:251|311:251|282:272|282:272|257:264|257:264|224:262,1,120,10|8,3:3|0:1,0:0:0:0:
166,345,24394,5,6,0:0:0:0:
18,178,25519,2,0,P|7:133|28:88,1,90.0000034332277,2|2,0:0|0:0,0:0:0:0:
153,58,26456,2,0,B|183:63|206:56|206:56|225:60|244:75|244:75|304:37|369:63,1,225.000008583069,2|2,0:0|0:0,0:0:0:0:
478,257,28331,2,0,P|419:247|343:243,1,135.000005149841,2|2,0:0|0:0,0:0:0:0:
103,349,30394,5,2,0:0:0:0:
47,140,31519,2,0,P|89:129|150:141,1,90.0000034332277,2|2,0:0|0:0,0:0:0:0:
241,191,32456,2,0,P|308:208|318:85,1,225.000008583069,2|2,0:0|0:0,0:0:0:0:
56,33,34706,2,0,L|3:28,1,45.0000017166138,2|2,0:0|0:0,0:0:0:0:
336,158,36394,6,0,P|389:152|443:149,2,107.999996704102,14|8|8,0:3|0:3|1:3,0:0:0:0:
261,236,37519,1,10,0:3:0:0:
335,314,37894,2,0,P|388:320|442:323,1,107.999996704102,10|8,0:3|0:3,0:0:0:0:
487,292,38456,2,0,P|488:236|493:178,1,107.999996704102,2|2,0:0|0:0,0:0:0:0:
507,131,39019,1,10,0:3:0:0:
432,52,39394,6,0,B|389:49|389:49|361:61|361:61|327:57,2,107.999996704102,10|8|8,0:3|0:3|1:3,0:0:0:0:
507,131,40519,1,10,0:3:0:0:
444,219,40894,2,0,L|440:331,1,107.999996704102,10|8,0:3|0:3,0:0:0:0:
335,352,41644,2,0,P|280:338|227:340,1,107.999996704102,8|8,0:3|0:3,0:0:0:0:
122,356,42394,6,0,L|6:345,2,107.999996704102,14|8|8,0:3|0:3|1:3,0:0:0:0:
229,339,43519,1,10,0:3:0:0:
199,235,43894,2,0,L|192:116,1,107.999996704102,10|8,0:3|0:3,0:0:0:0:
170,77,44456,2,0,P|122:54|70:65,1,107.999996704102,2|2,0:0|0:0,0:0:0:0:
35,107,45019,1,10,0:3:0:0:
55,213,45394,6,0,B|53:338,1,107.999996704102,10|8,0:3|0:3,0:0:0:0:
158,346,46144,2,0,B|197:343|197:343|227:350|227:350|271:347,1,107.999996704102,8|8,1:3|0:3,0:0:0:0:
321,364,46706,1,2,0:0:0:0:
321,364,46894,2,0,B|360:367|360:367|390:360|390:360|434:363,1,107.999996704102,10|8,0:3|0:3,0:0:0:0:
487,272,47644,2,0,B|486:260|489:253|489:253|485:235|485:235|489:221|489:221|486:206|486:206|491:191|491:191|486:177|487:162,1,107.999996704102,8|10,0:3|0:3,0:0:0:0:
426,77,48394,6,0,L|317:69,1,107.999996704102,14|10,0:3|0:3,0:0:0:0:
218,109,49144,1,10,0:3:0:0:
264,213,49519,1,10,0:0:0:0:
264,213,49706,2,0,P|269:275|254:338,1,107.999996704102,2|2,0:0|0:0,0:0:0:0:
164,368,50456,1,2,0:0:0:0:
164,368,50644,2,0,L|57:355,1,107.999996704102,10|10,0:3|0:0,0:0:0:0:
5,260,51394,6,0,P|4:206|17:154,1,107.999996704102,14|2,0:3|0:3,0:0:0:0:
103,89,52144,1,10,0:3:0:0:
196,143,52519,1,8,0:0:0:0:
196,143,52706,1,2,0:0:0:0:
290,91,53081,2,0,L|294:29,2,53.9999983520508,2|10|2,0:0|0:3|0:0,0:0:0:0:
325,131,53644,2,0,L|446:129,1,107.999996704102,10|10,0:3|0:0,0:0:0:0:
501,213,54394,6,0,L|494:323,1,107.999996704102,14|10,0:3|0:3,0:0:0:0:
395,365,55144,1,10,0:3:0:0:
305,315,55519,1,10,0:0:0:0:
305,315,55706,2,0,L|298:207,1,107.999996704102,2|2,0:0|0:0,0:0:0:0:
232,128,56456,1,2,0:0:0:0:
232,128,56644,2,0,P|178:111|127:121,1,107.999996704102,10|10,0:3|0:2,0:0:0:0:
45,207,57394,6,0,B|41:242|51:265|51:265|39:288|41:327,1,120,14|8,0:3|0:2,0:0:0:0:
156,356,58144,2,0,B|196:348|196:348|230:358|230:358|280:348,1,120,8|8,0:3|0:2,0:0:0:0:
332,345,58706,1,10,0:3:0:0:
332,345,58894,2,0,B|372:337|372:337|406:347|406:347|456:337,1,120,10|8,0:3|0:2,0:0:0:0:
496,228,59644,2,0,B|492:193|502:170|502:170|490:147|491:110,1,120,8|8,0:3|0:2,0:0:0:0:
446,71,60206,1,10,0:3:0:0:
446,71,60394,6,0,B|406:63|406:63|372:73|372:73|322:63,1,120,14|8,0:3|0:2,0:0:0:0:
237,141,61144,2,0,B|233:176|243:199|243:199|231:222|232:259,1,120,8|8,0:3|0:2,0:0:0:0:
209,313,61706,1,10,0:3:0:0:
209,313,61894,2,0,B|166:304|166:304|132:314|132:314|92:306,1,120,10|8,0:3|0:2,0:0:0:0:
7,221,62644,1,8,0:3:0:0:
62,114,63019,1,8,0:2:0:0:
180,133,63394,6,0,B|196:132|196:132|209:128|209:128|236:138|236:138|267:133|267:133|283:142|283:142|296:145,1,120,10|8,3:3|3:2,0:0:0:0:
354,124,63956,1,0,3:0:0:0:
354,124,64144,2,0,B|370:125|370:125|383:129|383:129|410:119|410:119|441:124|441:124|457:115|457:115|470:112,1,120,10|8,3:0|3:2,0:0:0:0:
507,226,64894,2,0,B|508:242|508:242|512:255|512:255|502:282|502:282|507:313|507:313|498:329|498:329|495:342,1,120,10|10,3:0|3:2,0:0:0:0:
437,357,65456,1,0,3:0:0:0:
437,357,65644,2,0,B|425:354|425:354|409:345|409:345|378:350|378:350|351:340|351:340|338:344|338:344|322:345,1,120,2|8,3:0|3:2,0:0:0:0:
265,328,66206,1,2,3:0:0:0:
208,349,66394,5,14,1:3:0:0:
49,129,67331,2,0,L|41:69,2,60,2|2|2,0:0|0:0|0:0,0:0:0:0:
95,176,67894,6,0,B|137:170|187:181|187:181|204:176|225:155,1,132.00000402832,14|8,0:3|0:0,0:0:0:0:
270,117,68456,2,0,P|302:110|340:116,1,66.0000020141602,2|8,0:3|0:3,0:0:0:0:
392,145,68831,1,2,0:0:0:0:
392,145,69019,2,0,L|392:212,1,66.0000020141602,10|2,0:0|0:0,0:0:0:0:
417,271,69394,6,0,B|382:255|340:258|340:258|318:246|318:246|305:251|275:257,1,132.00000402832,10|8,0:3|0:0,0:0:0:0:
228,278,69956,1,2,0:0:0:0:
117,206,70331,2,0,L|47:201,2,66.0000020141602,2|10|2,0:0|0:0|0:0,0:0:0:0:
170,166,70894,2,0,B|178:138|165:84|165:84|173:72|173:72|165:59|168:38,1,132.00000402832,14|8,0:3|0:0,0:0:0:0:
230,14,71456,2,0,L|309:13,1,66.0000020141602,2|8,0:3|0:3,0:0:0:0:
365,32,71831,1,2,0:0:0:0:
365,32,72019,2,0,L|436:37,1,66.0000020141602,10|2,0:0|0:0,0:0:0:0:
492,12,72394,6,0,P|478:69|480:154,1,132.00000402832,10|8,0:3|0:0,0:0:0:0:
497,205,72956,1,2,0:0:0:0:
440,311,73331,2,0,L|435:378,2,60,2|2|2,0:0|0:0|0:0,0:0:0:0:
391,265,73894,6,0,B|340:252|299:270|299:270|284:256|257:248,1,132.00000402832,14|8,0:3|0:0,0:0:0:0:
201,266,74456,2,0,L|192:335,1,66.0000020141602,2|8,0:3|0:3,0:0:0:0:
137,364,74831,1,2,0:0:0:0:
137,364,75019,2,0,P|92:362|59:344,1,66.0000020141602,10|2,0:0|0:0,0:0:0:0:
23,310,75394,6,0,B|43:270|22:230|22:230|29:217|29:217|24:198|31:169,1,132.00000402832,10|8,0:3|0:0,0:0:0:0:
7,120,75956,1,2,0:0:0:0:
129,69,76331,2,0,L|136:3,2,66.0000020141602,2|10|2,0:0|0:0|0:0,0:0:0:0:
170,121,76894,2,0,B|209:108|246:126|246:126|259:117|259:117|276:123|298:123,1,132.00000402832,14|8,0:3|0:0,0:0:0:0:
327,181,77456,2,0,L|334:257,1,66.0000020141602,2|8,0:3|0:3,0:0:0:0:
370,308,77831,1,2,0:0:0:0:
370,308,78019,2,0,P|401:315|438:304,1,66.0000020141602,10|2,0:0|0:0,0:0:0:0:
479,258,78394,6,0,L|482:122,1,132.00000402832,10|8,0:3|0:0,0:0:0:0:
512,69,78956,1,2,0:0:0:0:
512,69,79144,2,0,P|451:93|386:55,1,132.00000402832,10|8,0:3|0:0,0:0:0:0:
266,34,79894,6,0,L|187:24,1,66.0000020141602,14|2,0:3|0:0,0:0:0:0:
141,56,80269,2,0,P|127:93|131:122,1,66.0000020141602,10|2,0:0|0:0,0:0:0:0:
177,164,80644,2,0,P|189:232|172:303,1,132.00000402832,10|10,0:3|0:2,0:0:0:0:
45,314,81394,2,0,P|15:251|13:178,1,132.00000402832,10|10,0:3|0:0,0:0:0:0:
31,126,81956,1,2,0:0:0:0:
31,126,82144,2,0,B|31:92|58:71|58:71|48:43|62:1,1,132.00000402832,10|10,0:3|0:0,0:0:0:0:
186,44,82894,6,0,L|268:39,1,66.0000020141602,14|2,0:3|0:0,0:0:0:0:
316,52,83269,2,0,L|398:47,1,66.0000020141602,10|2,0:0|0:0,0:0:0:0:
440,78,83644,2,0,P|458:149|435:217,1,132.00000402832,10|10,0:3|0:2,0:0:0:0:
312,229,84394,2,0,L|163:222,1,132.00000402832,10|10,0:3|0:0,0:0:0:0:
124,254,84956,1,2,0:0:0:0:
124,254,85144,2,0,B|109:287|120:316|120:316|118:355|79:369,1,132.00000402832,10|10,0:3|0:0,0:0:0:0:
1,262,85894,6,0,L|1:178,1,66.0000020141602,14|2,0:3|0:0,0:0:0:0:
11,130,86269,2,0,P|35:119|93:125,1,66.0000020141602,10|2,0:0|0:0,0:0:0:0:
129,154,86644,2,0,L|263:151,1,132.00000402832,10|10,0:3|0:2,0:0:0:0:
348,233,87394,2,0,B|362:257|366:272|366:272|349:309|365:346,1,120,10|8,0:3|0:0,0:0:0:0:
422,363,87956,1,0,0:0:0:0:
480,349,88144,2,0,B|495:315|479:274|479:274|483:259|497:235,1,120,10|10,0:0|0:0,0:0:0:0:
479,118,88894,6,0,B|446:105|419:118|419:118|372:114|347:78,1,120,14|10,0:3|0:2,0:0:0:0:
319,60,89456,1,0,0:3:0:0:
319,60,89644,2,0,B|294:57|294:57|280:61|280:61|256:51|256:51|235:60|235:60|222:52|222:52|189:49,1,120,10|10,0:3|0:0,0:0:0:0:
110,124,90394,2,0,B|108:140|108:140|100:153|100:153|109:174|109:174|99:198|99:198|103:212|103:212|100:237,1,120,14|10,0:3|0:0,0:0:0:0:
143,288,90956,1,8,0:3:0:0:
143,288,91144,2,0,L|224:284,1,60,10|8,0:3|0:3,0:0:0:0:
257,309,91519,2,0,L|338:305,1,60,10|10,0:0|0:3,0:0:0:0:
