osu file format v14

[General]
AudioFilename: audio.mp3
AudioLeadIn: 0
PreviewTime: 67237
Countdown: 0
SampleSet: Soft
StackLeniency: 0.2
Mode: 0
LetterboxInBreaks: 0
WidescreenStoryboard: 1

[Editor]
DistanceSpacing: 0.4
BeatDivisor: 4
GridSize: 32
TimelineZoom: 2.299999

[Metadata]
Title:Jounetsu Utopia
TitleUnicode:蒸熱♨ユートピア
Artist:Karen, Koharu Meu, Harukawa Akari
ArtistUnicode:華憐、小春めう、春河あかり
Creator:Lasse
Version:Expert
Source:恋と恋するユートピア
Tags:Koi to Suru Utopia visual novel eroge opening Denki 電気 LoveMatic Koipia
BeatmapID:1473830
BeatmapSetID:695632

[Difficulty]
HPDrainRate:6
CircleSize:4
OverallDifficulty:8
ApproachRate:9
SliderMultiplier:1.76
SliderTickRate:1

[Events]
//Background and Video events
0,0,"bg_edit.jpg",0,0
//Break Periods
//Storyboard Layer 0 (Background)
//Storyboard Layer 1 (Fail)
//Storyboard Layer 2 (Pass)
//Storyboard Layer 3 (Foreground)
//Storyboard Sound Samples

[TimingPoints]
394,375,4,2,1,60,1,0
581,-100,4,2,1,42,0,0
674,-100,4,2,1,54,0,0
768,-100,4,2,1,60,0,0
1425,-100,4,2,1,42,0,0
1519,-100,4,2,1,60,0,0
1612,-100,4,2,1,42,0,0
1706,-100,4,2,1,48,0,0
1800,-100,4,2,1,54,0,0
1894,-100,4,2,1,60,0,0
2269,-100,4,2,1,42,0,0
2362,-100,4,2,1,54,0,0
2456,-100,4,2,1,60,0,0
2550,-100,4,2,1,42,0,0
2644,-100,4,2,1,60,0,0
3581,-100,4,2,1,42,0,0
3674,-100,4,2,1,54,0,0
3768,-100,4,2,1,60,0,0
4425,-100,4,2,1,42,0,0
4519,-100,4,2,1,60,0,0
4612,-100,4,2,1,42,0,0
4706,-100,4,2,1,48,0,0
4800,-100,4,2,1,54,0,0
4894,-100,4,2,1,60,0,0
5269,-100,4,2,1,42,0,0
5362,-100,4,2,1,54,0,0
5456,-100,4,2,1,60,0,0
5550,-100,4,2,1,42,0,0
5644,-100,4,2,1,60,0,0
6019,-500,4,2,1,60,0,0
6300,-500,4,2,99,5,0,0
6394,-90.9090909090909,4,2,1,63,0,0
8362,-90.9090909090909,4,2,1,52,0,0
8644,-90.9090909090909,4,2,1,63,0,0
9112,-90.9090909090909,4,2,1,52,0,0
9394,-90.9090909090909,4,2,1,63,0,0
10612,-90.9090909090909,4,2,1,52,0,0
10894,-90.9090909090909,4,2,1,63,0,0
14362,-90.9090909090909,4,2,1,52,0,0
14644,-90.9090909090909,4,2,1,63,0,0
15112,-90.9090909090909,4,2,1,52,0,0
15394,-90.9090909090909,4,2,1,63,0,0
16612,-90.9090909090909,4,2,1,52,0,0
16894,-90.9090909090909,4,2,1,63,0,0
18394,-90.9090909090909,4,2,1,66,0,0
22894,-90.9090909090909,4,2,1,68,0,0
23644,-90.9090909090909,4,2,1,70,0,0
24019,-500,4,2,1,72,0,0
24394,-200,4,2,43,55,0,0
25519,-200,4,2,43,30,0,0
25894,-200,4,2,43,40,0,0
26831,-200,4,2,43,30,0,0
27769,-200,4,2,43,11,0,0
28144,-200,4,2,43,30,0,0
28894,-200,4,2,43,40,0,0
29269,-200,4,2,43,11,0,0
30394,-200,4,2,43,40,0,0
31519,-200,4,2,43,30,0,0
31894,-200,4,2,43,40,0,0
32831,-200,4,2,43,30,0,0
33394,-200,4,2,43,40,0,0
33769,-200,4,2,43,11,0,0
34519,-200,4,2,43,30,0,0
34894,-166.666666666667,4,2,43,40,0,0
35269,-166.666666666667,4,2,43,11,0,0
36019,-166.666666666667,4,2,43,30,0,0
36394,-133.333333333333,4,2,1,52,0,0
37800,-133.333333333333,4,2,99,5,0,0
37894,-133.333333333333,4,2,1,52,0,0
42206,-133.333333333333,4,2,1,44,0,0
42394,-133.333333333333,4,2,1,52,0,0
43800,-133.333333333333,4,2,99,5,0,0
43894,-133.333333333333,4,2,1,52,0,0
48019,-80,4,2,1,52,0,0
48300,-80,4,2,1,20,0,0
48394,-111.111111111111,4,2,1,60,0,0
57394,-100,4,2,1,62,0,0
58894,-100,4,2,1,64,0,0
60394,-100,4,2,1,66,0,0
61894,-100,4,2,1,68,0,0
63394,-100,4,2,1,70,0,0
66394,-100,4,2,1,60,0,0
67331,-100,4,2,1,46,0,0
67519,-100,4,2,1,48,0,0
67706,-100,4,2,1,50,0,0
67894,-83.3333333333333,4,2,1,70,0,1
68081,-83.3333333333333,4,2,1,30,0,1
68175,-83.3333333333333,4,2,1,70,0,1
71081,-83.3333333333333,4,2,1,30,0,1
71175,-83.3333333333333,4,2,1,70,0,1
73144,-83.3333333333333,4,2,1,60,0,1
73331,-83.3333333333333,4,2,1,46,0,0
73519,-83.3333333333333,4,2,1,48,0,0
73706,-83.3333333333333,4,2,1,50,0,0
73894,-76.9230769230769,4,2,1,70,0,1
74081,-76.9230769230769,4,2,1,30,0,1
74175,-76.9230769230769,4,2,1,70,0,1
77081,-76.9230769230769,4,2,1,30,0,1
77175,-76.9230769230769,4,2,1,70,0,1
79144,-83.3333333333333,4,2,1,60,0,1
79519,-76.9230769230769,4,2,1,50,0,0
79894,-71.4285714285714,4,2,1,70,0,1
82800,-71.4285714285714,4,2,1,70,0,0
82894,-71.4285714285714,4,2,1,70,0,1
85800,-71.4285714285714,4,2,1,70,0,0
85894,-71.4285714285714,4,2,1,70,0,1
87394,-100,4,2,1,60,0,0
88894,-100,4,2,1,60,0,0
88940,-100,4,2,99,5,0,0
89081,-100,4,2,1,60,0,0
89128,-100,4,2,99,5,0,0
89269,-100,4,2,1,60,0,0
89315,-100,4,2,99,5,0,0
89456,-100,4,2,1,60,0,0
89503,-100,4,2,99,5,0,0
89644,-100,4,2,1,60,0,0
89690,-100,4,2,99,5,0,0
89737,-100,4,2,1,60,0,0
89784,-100,4,2,99,5,0,0
89831,-100,4,2,1,60,0,0
89878,-100,4,2,99,5,0,0
90019,-100,4,2,1,60,0,0
90065,-100,4,2,99,5,0,0
90112,-100,4,2,1,60,0,0
90159,-100,4,2,99,5,0,0
90206,-100,4,2,1,60,0,0
90253,-100,4,2,99,5,0,0
90394,-100,4,2,1,60,0,0
90440,-100,4,2,99,5,0,0
90487,-100,4,2,1,60,0,0
90534,-100,4,2,99,5,0,0
90581,-100,4,2,1,60,0,0
90628,-100,4,2,99,5,0,0
90675,-100,4,2,1,60,0,0
90722,-100,4,2,99,5,0,0
90769,-100,4,2,1,60,0,0
90815,-100,4,2,99,5,0,0
90862,-100,4,2,1,60,0,0
90909,-100,4,2,99,5,0,0
90956,-100,4,2,1,60,0,0
91003,-100,4,2,99,5,0,0
91050,-100,4,2,1,60,0,0
91097,-100,4,2,99,5,0,0
91144,-100,4,2,1,60,0,0
91190,-100,4,2,99,5,0,0
91237,-100,4,2,1,60,0,0
91284,-100,4,2,99,5,0,0
91331,-100,4,2,1,60,0,0
91378,-100,4,2,99,5,0,0
91425,-100,4,2,1,60,0,0
91472,-100,4,2,99,5,0,0
91519,-100,4,2,1,60,0,0
91565,-100,4,2,99,5,0,0
91612,-100,4,2,1,60,0,0
91659,-100,4,2,99,5,0,0
91706,-100,4,2,1,60,0,0
91753,-100,4,2,99,5,0,0

[Colours]
Combo1 : 255,150,150
Combo2 : 130,190,230
Combo3 : 255,165,120
Combo4 : 170,240,150

[HitObjects]
94,240,394,6,0,L|97:152,1,88,14|0,0:3|0:0,0:0:0:0:
150,99,675,1,2,0:0:0:0:
150,99,769,2,0,P|194:101|246:87,1,88,2|0,0:0|0:0,0:0:0:0:
237,91,1331,6,0,L|193:86,1,44,2|0,0:0|0:0,0:0:0:0:
314,61,1519,2,0,L|340:25,1,44,2|0,0:0|0:0,0:0:0:0:
301,142,1706,1,2,0:0:0:0:
309,162,1799,1,2,0:0:0:0:
318,182,1893,1,10,0:3:0:0:
312,270,2081,6,0,L|320:163,1,88,2|0,0:0|0:0,0:0:0:0:
236,218,2362,1,2,0:0:0:0:
236,218,2456,2,0,L|171:202,1,44,2|0,0:0|0:0,0:0:0:0:
391,270,2644,6,0,P|421:264|463:267,2,58.6666666666667,8|0|0,1:3|1:0|1:0,0:0:0:0:
352,338,3019,5,2,1:2:0:0:
312,270,3144,1,2,1:2:0:0:
391,270,3269,1,2,1:2:0:0:
273,339,3394,6,0,L|165:334,1,88,14|0,0:3|0:0,0:0:0:0:
113,378,3675,1,2,0:0:0:0:
113,378,3769,2,0,P|112:338|110:277,1,88,2|0,0:0|0:0,0:0:0:0:
110,290,4331,6,0,L|111:334,1,44,2|0,0:0|0:0,0:0:0:0:
69,218,4519,2,0,L|29:197,1,44,2|0,0:0|0:0,0:0:0:0:
151,218,4706,1,2,0:0:0:0:
169,206,4799,1,2,0:0:0:0:
188,194,4893,1,10,0:3:0:0:
190,106,5081,6,0,P|188:149|187:193,1,88,2|0,0:0|0:0,0:0:0:0:
112,139,5362,1,2,0:0:0:0:
112,139,5456,2,0,P|79:135|31:124,1,44,2|0,0:0|0:0,0:0:0:0:
221,28,5644,5,10,0:3:0:0:
273,94,5769,1,10,0:3:0:0:
190,106,5894,1,10,0:3:0:0:
304,15,6019,6,2,L|334:11,1,26.4,8|0,0:1|0:0,0:1:0:0:
304,15,6394,6,0,B|337:11|337:11|367:18|367:18|400:17,1,96.8000029541017,14|0,0:3|0:0,0:0:0:0:
495,23,6675,1,2,0:0:0:0:
475,25,6769,2,0,B|446:44|446:44|441:128,1,96.8000029541017,10|0,0:2|0:0,0:0:0:0:
455,274,7144,6,0,B|484:255|484:255|487:192,1,96.8000029541017,10|0,0:3|0:0,0:0:0:0:
442,106,7425,1,2,0:0:0:0:
437,124,7519,1,10,0:0:0:0:
353,245,7706,1,2,0:0:0:0:
278,56,7894,6,0,P|287:87|299:155,1,96.8000029541017,10|2,0:3|0:0,0:0:0:0:
244,210,8175,1,2,0:0:0:0:
227,199,8269,1,8,0:0:0:0:
208,194,8362,1,2,0:0:0:0:
188,194,8456,1,2,0:0:0:0:
172,204,8550,1,2,0:0:0:0:
155,214,8644,6,0,L|144:140,1,48.4000014770508,10|0,0:3|0:0,0:0:0:0:
298,150,8831,2,0,L|309:76,1,48.4000014770508,2|0,0:0|0:0,0:0:0:0:
212,43,9019,1,10,0:0:0:0:
189,51,9112,1,2,0:0:0:0:
165,52,9206,1,2,0:0:0:0:
142,45,9300,1,2,0:0:0:0:
123,30,9394,6,0,P|105:26|86:26,4,24.2000007385254,10|0|0|0|0,0:3|0:0|0:0|0:0|0:0,0:0:0:0:
85,100,9675,1,2,0:0:0:0:
75,117,9769,2,0,P|61:163|69:212,1,96.8000029541017,10|0,0:2|0:0,0:0:0:0:
252,277,10144,6,0,L|155:264,1,96.8000029541017,10|0,0:3|0:0,0:0:0:0:
308,357,10519,1,10,0:0:0:0:
333,331,10612,1,2,0:0:0:0:
348,298,10706,1,2,0:0:0:0:
349,262,10800,1,2,0:0:0:0:
337,228,10894,6,0,P|331:175|345:134,1,96.8000029541017,10|0,0:3|0:0,0:0:0:0:
418,101,11175,1,2,0:0:0:0:
436,96,11269,1,10,0:0:0:0:
291,74,11456,1,2,0:0:0:0:
454,91,11644,6,0,P|482:88|502:87,1,48.4000014770508,10|0,0:3|0:0,0:0:0:0:
279,61,11831,2,0,P|251:58|230:57,1,48.4000014770508,0|0,0:0|0:0,0:0:0:0:
384,24,12019,1,10,0:0:0:0:
402,19,12112,1,2,0:0:0:0:
420,14,12206,1,2,0:0:0:0:
291,74,12394,6,0,P|234:72|182:63,1,96.8000029541017,14|0,0:3|0:0,0:0:0:0:
94,50,12675,1,2,0:0:0:0:
114,52,12769,2,0,P|148:84|155:131,1,96.8000029541017,10|0,0:0|0:0,0:0:0:0:
65,282,13144,2,0,P|56:235|77:193,1,96.8000029541017,10|0,0:3|0:0,0:0:0:0:
155,132,13425,1,2,0:0:0:0:
161,150,13519,1,10,0:0:0:0:
206,258,13706,1,2,0:0:0:0:
304,70,13894,6,0,L|291:178,1,96.8000029541017,10|0,0:3|0:0,0:0:0:0:
334,244,14175,1,2,0:0:0:0:
351,233,14269,1,10,0:0:0:0:
370,228,14362,1,2,0:0:0:0:
390,228,14456,1,2,0:0:0:0:
406,238,14550,1,2,0:0:0:0:
423,248,14644,6,0,L|434:174,1,48.4000014770508,10|0,0:3|0:0,0:0:0:0:
512,150,14831,2,0,L|501:76,1,48.4000014770508,2|0,0:0|0:0,0:0:0:0:
421,70,15019,1,10,0:2:0:0:
396,76,15112,1,2,0:0:0:0:
372,77,15206,1,2,0:0:0:0:
349,69,15300,1,2,0:0:0:0:
330,54,15394,6,0,P|312:49|293:49,4,24.2000007385254,10|0|0|0|0,0:3|0:0|0:0|0:0|0:0,0:0:0:0:
232,84,15675,1,2,0:0:0:0:
246,97,15769,2,0,B|265:128|265:128|264:198,1,96.8000029541017,10|0,0:2|0:0,0:0:0:0:
410,274,16144,6,0,B|369:245|369:245|325:258,1,96.8000029541017,10|0,0:3|0:0,0:0:0:0:
137,371,16519,1,10,0:0:0:0:
140,335,16612,1,2,0:0:0:0:
144,299,16706,1,2,0:0:0:0:
148,263,16800,1,2,0:0:0:0:
152,227,16894,6,0,L|141:131,1,96.8000029541017,10|0,0:3|0:0,0:0:0:0:
85,78,17175,1,2,0:0:0:0:
65,77,17269,1,10,0:0:0:0:
160,55,17456,1,2,0:0:0:0:
179,48,17550,1,2,0:0:0:0:
198,42,17644,6,0,L|246:38,1,48.4000014770508,10|0,0:3|0:0,0:0:0:0:
329,124,17831,2,0,L|377:120,1,48.4000014770508,2|0,0:0|0:0,0:0:0:0:
474,7,18019,1,10,0:0:0:0:
466,24,18112,1,2,0:0:0:0:
463,43,18206,1,2,0:0:0:0:
436,195,18394,5,14,0:0:0:0:
377,120,18581,1,8,0:3:0:0:
300,249,18769,1,10,0:0:0:0:
286,153,18956,1,8,0:3:0:0:
154,227,19144,5,8,0:0:0:0:
190,136,19331,1,8,0:3:0:0:
300,249,19519,1,8,0:0:0:0:
264,340,19706,1,8,0:3:0:0:
154,227,19894,5,10,0:0:0:0:
92,152,20081,1,8,0:3:0:0:
300,249,20269,5,10,0:0:0:0:
383,200,20456,1,8,0:3:0:0:
190,136,20644,5,10,0:0:0:0:
224,46,20831,1,8,0:3:0:0:
382,296,21019,5,10,0:0:0:0:
466,151,21206,1,8,0:3:0:0:
476,294,21394,6,0,P|472:270|462:248,1,48.4000014770508,10|0,3:3|3:0,0:0:0:0:
286,294,21581,2,0,P|290:270|300:249,1,48.4000014770508,0|0,3:3|3:0,0:0:0:0:
475,342,21769,6,0,L|476:293,1,48.4000014770508,2|0,3:3|3:0,0:0:0:0:
288,343,21956,2,0,L|286:294,1,48.4000014770508,0|0,3:3|3:0,0:0:0:0:
382,374,22144,5,10,3:2:0:0:
382,359,22237,1,0,3:0:0:0:
382,344,22331,1,0,3:0:0:0:
382,330,22425,1,0,3:0:0:0:
382,315,22519,1,8,3:2:0:0:
382,301,22612,1,0,3:0:0:0:
382,286,22706,1,0,3:0:0:0:
382,272,22800,1,0,3:0:0:0:
382,257,22894,5,10,3:2:0:0:
352,287,22987,1,0,3:0:0:0:
313,302,23081,1,0,3:0:0:0:
271,303,23175,1,0,3:0:0:0:
232,288,23269,1,8,3:2:0:0:
201,259,23362,1,0,3:0:0:0:
183,221,23456,1,0,3:0:0:0:
180,179,23550,1,0,3:0:0:0:
193,139,23644,5,10,3:3:0:0:
265,165,23769,1,10,3:3:0:0:
326,118,23894,1,10,3:3:0:0:
415,176,24019,6,0,L|456:176,1,35.2,8|6,0:1|0:0,0:0:0:0:
455,336,25519,5,2,0:0:0:0:
455,336,25706,1,2,0:0:0:0:
455,336,25894,2,0,L|458:231,1,88,2|0,0:0|0:0,0:0:0:0:
506,161,26456,6,0,P|463:170|421:157,1,88,2|0,0:0|0:0,0:0:0:0:
358,109,27019,1,2,0:0:0:0:
283,82,27206,1,2,0:0:0:0:
251,181,27394,6,0,B|339:197|331:140|420:157,1,176,2|0,0:0|0:0,0:0:0:0:
473,216,28331,1,2,0:0:0:0:
468,294,28519,1,2,0:0:0:0:
409,345,28706,1,2,0:0:0:0:
317,274,28894,6,0,B|251:241|173:277|173:277|113:298|72:249|72:249|120:275|165:255,1,352,2|2,0:0|0:0,0:0:0:0:
474,163,31519,5,2,0:0:0:0:
474,163,31706,1,2,0:0:0:0:
474,163,31894,2,0,L|477:58,1,88,2|0,0:0|0:0,0:0:0:0:
371,9,32456,6,0,P|329:18|287:5,1,88,2|0,0:0|0:0,0:0:0:0:
210,26,33019,1,2,0:0:0:0:
191,102,33206,1,2,0:0:0:0:
107,118,33394,6,0,B|154:130|190:102|190:102|236:104|263:146|263:146|284:101|324:87,1,264,2|0,0:0|0:0,0:0:0:0:
400,61,34706,1,2,0:0:0:0:
432,154,34894,6,0,B|453:109|400:61|400:61|349:106|375:158|375:158|406:209|378:255,1,316.799990332032,2|2,0:0|0:0,0:0:0:0:
379,254,36394,6,0,L|231:240,1,132.000005035401,14|8,0:3|0:3,0:0:0:0:
155,294,36956,1,0,0:0:0:0:
102,202,37144,1,8,1:3:0:0:
102,202,37331,1,0,1:3:0:0:
194,149,37519,2,0,P|204:100|197:52,1,99.0000037765504,10|0,0:3|0:0,0:0:0:0:
183,39,37894,6,0,P|116:44|53:20,1,132.000005035401,10|8,0:3|0:3,0:0:0:0:
0,144,38456,2,0,P|42:122|68:116,1,66.0000025177003,2|8,0:0|0:3,0:0:0:0:
160,161,38831,1,2,0:0:0:0:
72,226,39019,1,10,0:3:0:0:
59,117,39206,1,2,0:0:0:0:
173,270,39394,6,0,B|234:296|234:296|312:263,2,132.000005035401,10|8|8,0:3|0:3|1:3,0:0:0:0:
160,161,40331,1,2,1:2:0:0:
294,270,40519,1,10,0:3:0:0:
315,162,40706,1,2,0:0:0:0:
160,161,40894,6,0,L|29:144,3,132.000005035401,10|8|8|8,0:3|0:3|0:3|0:3,0:0:0:0:
29,144,42206,1,2,0:0:0:0:
202,232,42394,6,0,P|239:179|229:116,1,132.000005035401,14|8,0:3|0:3,0:0:0:0:
173,26,42956,1,0,0:0:0:0:
160,161,43144,1,8,1:3:0:0:
160,161,43331,1,0,1:3:0:0:
252,41,43519,2,0,P|298:25|347:29,1,99.0000037765504,10|0,0:3|0:0,0:0:0:0:
358,46,43894,6,0,P|435:60|491:33,1,132.000005035401,10|8,0:3|0:3,0:0:0:0:
512,174,44456,2,0,P|488:155|449:144,1,66.0000025177003,2|8,0:0|0:3,0:0:0:0:
343,123,44831,1,2,0:0:0:0:
322,234,45019,1,10,0:3:0:0:
433,255,45206,1,2,0:0:0:0:
343,123,45394,6,0,L|212:106,1,132.000005035401,10|8,0:3|0:3,0:0:0:0:
118,44,45956,1,0,0:0:0:0:
111,156,46144,1,8,1:3:0:0:
111,156,46331,1,0,1:3:0:0:
212,106,46519,1,8,0:3:0:0:
205,218,46706,1,2,0:0:0:0:
118,44,46894,6,0,B|76:37|43:64|43:64|17:62|9:27,1,132.000005035401,10|8,0:3|0:3,0:0:0:0:
0,131,47456,1,0,0:0:0:0:
118,44,47644,1,8,0:3:0:0:
118,44,47831,1,0,0:0:0:0:
210,168,48019,6,2,B|238:92|206:32|206:32|210:84|174:88,1,165,10|0,0:3|0:0,1:2:0:0:
241,60,48394,6,0,P|290:64|350:6,1,118.799996374512,14|0,0:3|0:0,0:0:0:0:
419,30,48769,2,0,P|382:17|343:23,1,79.1999975830079,10|0,0:3|0:0,0:0:0:0:
376,99,49050,1,2,0:0:0:0:
381,114,49144,2,0,P|418:126|457:120,1,79.1999975830079,10|0,0:3|0:0,0:0:0:0:
506,234,49519,1,10,0:0:0:0:
381,114,49706,6,0,P|343:101|305:107,1,79.1999975830079,2|0,0:0|0:3,0:0:0:0:
232,138,49987,1,2,0:0:0:0:
221,150,50081,2,0,P|182:156|145:143,1,79.1999975830079,2|8,0:0|0:3,0:0:0:0:
83,22,50456,1,2,0:0:0:0:
26,217,50644,6,0,L|21:171,1,39.5999987915039,10|0,0:3|0:0,0:0:0:0:
18,150,50831,1,2,0:1:0:0:
145,259,51019,6,0,L|150:213,1,39.5999987915039,10|0,0:0|0:0,0:0:0:0:
153,192,51206,1,2,0:1:0:0:
330,318,51394,6,0,P|285:280|228:291,1,118.799996374512,14|0,0:3|0:0,0:0:0:0:
170,342,51769,2,0,P|130:344|94:329,1,79.1999975830079,2|0,0:3|0:0,0:0:0:0:
48,265,52050,1,2,0:0:0:0:
42,250,52144,2,0,L|39:159,1,79.1999975830079,10|0,0:3|0:0,0:0:0:0:
93,44,52519,1,8,0:0:0:0:
261,143,52706,6,0,P|299:148|336:135,1,79.1999975830079,2|8,0:0|0:3,0:0:0:0:
402,88,52987,1,2,0:0:0:0:
403,72,53081,1,2,0:0:0:0:
383,203,53269,1,10,0:3:0:0:
293,69,53456,1,2,0:0:0:0:
177,188,53644,6,0,L|172:142,1,39.5999987915039,10|0,0:3|0:0,0:0:0:0:
169,121,53831,1,2,0:1:0:0:
301,267,54019,6,0,L|302:218,1,39.5999987915039,10|0,0:0|0:0,0:0:0:0:
304,199,54206,1,2,0:1:0:0:
495,336,54394,6,0,L|357:322,1,118.799996374512,14|0,0:3|0:0,0:0:0:0:
313,362,54769,2,0,P|351:352|378:323,1,79.1999975830079,10|0,0:3|0:0,0:0:0:0:
309,254,55050,1,2,0:0:0:0:
301,267,55144,2,0,P|263:257|236:228,1,79.1999975830079,10|0,0:3|0:0,0:0:0:0:
196,63,55519,1,10,0:0:0:0:
423,122,55706,6,0,P|459:107|485:77,1,79.1999975830079,2|8,0:0|0:3,0:0:0:0:
357,66,55987,1,2,0:0:0:0:
345,78,56081,2,0,P|308:63|282:33,1,79.1999975830079,2|8,0:0|0:3,0:0:0:0:
111,9,56456,1,2,0:0:0:0:
27,174,56644,6,0,L|23:127,1,39.5999987915039,10|0,0:3|0:0,0:0:0:0:
23,106,56831,1,2,0:1:0:0:
132,247,57019,6,0,L|137:201,1,39.5999987915039,10|0,0:2|0:0,0:0:0:0:
140,180,57206,1,2,0:1:0:0:
282,33,57394,5,14,0:3:0:0:
317,166,57581,1,10,0:3:0:0:
319,153,57675,1,2,0:3:0:0:
321,140,57769,5,8,0:2:0:0:
397,81,57956,1,8,0:3:0:0:
425,271,58144,5,8,0:3:0:0:
335,235,58331,1,8,0:3:0:0:
487,116,58519,5,8,0:2:0:0:
425,271,58706,1,10,0:3:0:0:
501,211,58894,5,10,0:3:0:0:
321,140,59081,1,8,0:3:0:0:
335,235,59269,5,8,0:2:0:0:
487,116,59456,1,8,0:3:0:0:
397,81,59644,5,8,0:3:0:0:
425,271,59831,1,10,0:3:0:0:
424,257,59925,1,2,0:3:0:0:
424,243,60019,5,8,0:2:0:0:
321,140,60206,1,10,0:3:0:0:
178,310,60394,5,14,0:3:0:0:
179,176,60581,1,10,0:3:0:0:
185,187,60675,1,2,0:3:0:0:
191,198,60769,5,8,0:2:0:0:
90,251,60956,1,8,0:3:0:0:
4,78,61144,5,8,0:3:0:0:
1,188,61331,1,8,0:3:0:0:
101,25,61519,5,8,0:2:0:0:
191,198,61706,1,10,0:3:0:0:
196,85,61894,5,10,0:3:0:0:
1,188,62081,1,8,0:3:0:0:
4,78,62269,5,8,0:2:0:0:
191,198,62456,1,8,0:3:0:0:
90,251,62644,5,8,0:3:0:0:
101,25,62831,1,8,0:3:0:0:
90,251,63019,5,8,0:2:0:0:
101,25,63206,1,8,0:3:0:0:
191,197,63394,5,10,3:3:0:0:
228,177,63487,1,0,3:0:0:0:
271,184,63581,1,0,3:0:0:0:
300,215,63675,1,0,3:0:0:0:
304,258,63769,1,8,3:2:0:0:
307,301,63862,1,0,3:0:0:0:
337,332,63956,1,0,3:0:0:0:
379,339,64050,1,0,3:0:0:0:
417,318,64144,5,10,3:0:0:0:
384,289,64237,1,0,3:0:0:0:
379,246,64331,1,0,3:0:0:0:
404,211,64425,1,0,3:0:0:0:
445,200,64519,1,8,3:2:0:0:
486,189,64613,1,0,3:0:0:0:
511,154,64707,1,0,3:0:0:0:
505,111,64801,1,0,3:0:0:0:
489,118,64894,5,10,3:0:0:0:
440,113,64987,1,0,3:0:0:0:
392,109,65081,1,0,3:0:0:0:
343,104,65175,1,0,3:0:0:0:
330,116,65269,5,10,3:2:0:0:
282,112,65362,1,0,3:0:0:0:
233,107,65456,1,0,3:0:0:0:
185,103,65550,1,0,3:0:0:0:
193,118,65644,5,2,3:0:0:0:
231,146,65737,1,0,3:0:0:0:
249,190,65831,1,0,3:0:0:0:
243,238,65925,1,0,3:0:0:0:
214,276,66019,1,8,3:2:0:0:
170,295,66112,1,0,3:0:0:0:
170,312,66206,5,2,3:0:0:0:
61,43,66394,1,14,1:3:0:0:
32,345,67331,5,2,0:0:0:0:
31,336,67519,5,2,0:0:0:0:
30,327,67706,5,2,0:0:0:0:
159,166,67894,6,0,P|188:123|184:68,1,105.599996777344,14|0,0:3|0:0,0:0:0:0:
120,19,68175,2,0,L|62:12,1,52.7999983886719,10|8,0:3|0:0,0:0:0:0:
139,246,68456,2,0,P|190:242|231:206,1,105.599996777344,2|8,0:3|0:3,0:0:0:0:
0,212,68830,5,2,0:0:0:0:
119,326,69019,1,10,0:0:0:0:
159,166,69206,1,2,0:0:0:0:
280,338,69394,5,10,0:3:0:0:
278,317,69487,1,8,0:3:0:0:
326,154,69675,1,10,0:3:0:0:
312,170,69769,1,8,0:0:0:0:
460,288,69956,2,0,P|414:263|362:262,1,105.599996777344,2|8,0:0|0:3,0:0:0:0:
187,332,70331,5,2,0:0:0:0:
312,170,70518,1,10,0:0:0:0:
391,359,70706,1,2,0:0:0:0:
502,172,70894,6,0,B|484:144|484:144|494:116|487:72,1,105.599996777344,14|0,0:3|0:0,0:0:0:0:
413,28,71175,2,0,L|338:16,1,52.7999983886719,10|8,0:3|0:0,0:0:0:0:
182,94,71456,1,2,0:3:0:0:
182,94,71550,1,2,0:3:0:0:
182,94,71644,1,8,0:3:0:0:
361,19,71831,5,2,0:0:0:0:
182,94,72019,1,10,0:0:0:0:
335,210,72206,1,2,0:0:0:0:
182,94,72394,6,0,B|116:66|56:111|56:111|15:87|33:27,1,211.199993554688,10|8,0:3|0:0,0:0:0:0:
96,9,72862,1,2,0:0:0:0:
116,5,72956,1,2,0:0:0:0:
202,172,73144,1,10,0:3:0:0:
361,19,73331,5,2,0:0:0:0:
360,28,73519,5,2,0:0:0:0:
359,37,73706,5,2,0:0:0:0:
502,194,73894,6,0,P|446:190|401:225,1,114.399994763184,14|0,0:3|0:0,0:0:0:0:
343,296,74175,2,0,L|338:362,1,57.1999973815919,10|8,0:3|0:0,0:0:0:0:
202,172,74456,2,0,P|257:176|296:216,1,114.399994763184,2|8,0:3|0:3,0:0:0:0:
30,259,74831,5,2,0:0:0:0:
202,172,75019,1,10,0:0:0:0:
190,364,75206,1,2,0:0:0:0:
92,175,75394,5,10,0:3:0:0:
89,152,75487,1,8,0:3:0:0:
296,216,75675,1,10,0:3:0:0:
298,238,75768,1,8,0:0:0:0:
85,129,75956,2,0,L|94:15,1,114.399994763184,2|8,0:0|0:3,0:0:0:0:
384,176,76331,5,2,0:0:0:0:
250,14,76519,1,10,0:0:0:0:
177,210,76706,1,2,0:0:0:0:
384,19,76894,6,0,B|346:28|346:28|323:54|331:98,1,114.399994763184,14|0,0:3|0:0,0:0:0:0:
384,176,77175,2,0,L|463:170,1,57.1999973815919,10|8,0:3|0:0,0:0:0:0:
313,336,77456,1,2,0:3:0:0:
313,336,77550,1,2,0:3:0:0:
313,336,77644,1,8,0:3:0:0:
210,195,77831,5,2,0:0:0:0:
313,336,78019,1,10,0:0:0:0:
384,176,78206,1,2,0:0:0:0:
210,195,78394,6,0,B|167:211|130:188|130:188|85:160|47:183|47:183|83:190|102:217,1,228.799989526368,10|8,0:3|0:0,0:0:0:0:
151,297,78862,1,2,0:0:0:0:
166,312,78956,1,2,0:0:0:0:
180,101,79144,6,0,L|165:311,1,211.199993554688,10|8,0:3|0:0,0:0:0:0:
165,311,79706,1,2,0:0:0:0:
180,101,79894,5,14,0:3:0:0:
74,73,80081,1,2,0:0:0:0:
319,131,80269,5,10,0:0:0:0:
413,73,80456,1,2,0:0:0:0:
221,218,80644,5,10,0:3:0:0:
111,230,80831,1,2,0:0:0:0:
338,261,81019,5,10,0:2:0:0:
423,331,81206,1,2,0:0:0:0:
193,120,81394,5,10,0:3:0:0:
150,18,81581,1,2,0:0:0:0:
495,142,81769,5,10,0:0:0:0:
495,142,81956,1,2,0:0:0:0:
272,345,82144,6,0,P|212:331|154:348,1,123.199996240234,10|0,0:3|0:0,0:0:0:0:
456,254,82519,2,0,P|461:193|495:143,1,123.199996240234,10|0,0:0|0:0,0:0:0:0:
175,32,82894,5,14,0:3:0:0:
213,135,83081,1,2,0:0:0:0:
396,321,83269,5,10,0:0:0:0:
298,269,83456,1,2,0:0:0:0:
58,307,83644,5,10,0:3:0:0:
166,326,83831,1,2,0:0:0:0:
434,152,84019,5,10,0:2:0:0:
325,173,84206,1,2,0:0:0:0:
71,131,84394,5,10,0:3:0:0:
164,190,84581,1,2,0:0:0:0:
335,7,84769,5,10,0:0:0:0:
335,7,84956,1,2,0:0:0:0:
393,327,85144,6,0,P|446:310|542:303,1,123.199996240234,10|0,0:3|0:0,0:0:0:0:
140,300,85519,2,0,P|87:267|30:244,1,123.199996240234,10|0,0:0|0:0,0:0:0:0:
339,124,85894,5,14,0:3:0:0:
434,67,86081,1,2,0:0:0:0:
324,275,86269,5,10,0:0:0:0:
381,370,86456,1,2,0:0:0:0:
173,260,86644,5,10,0:3:0:0:
78,317,86831,1,2,0:0:0:0:
188,109,87019,5,10,0:2:0:0:
131,14,87206,1,2,0:0:0:0:
244,323,87394,5,10,0:3:0:0:
339,124,87581,1,2,0:0:0:0:
327,130,87675,1,2,0:0:0:0:
316,138,87769,2,0,P|302:196|305:244,1,88,8|0,0:0|0:0,0:0:0:0:
460,279,88144,6,0,P|402:295|362:322,1,88,10|0,0:0|0:0,0:0:0:0:
160,299,88519,2,0,P|203:305|243:322,1,88,10|0,0:0|0:0,0:0:0:0:
28,369,88894,6,0,L|30:330,1,22,14|0,0:3|0:0,0:0:0:0:
0,258,89081,2,0,L|2:219,1,22,0|0,0:3|0:0,0:0:0:0:
160,299,89269,6,0,L|158:260,1,22,10|0,0:2|0:0,0:0:0:0:
186,188,89456,2,0,L|184:149,1,22,0|0,0:3|0:0,0:0:0:0:
42,144,89644,6,0,L|44:105,1,22,10|0,0:3|0:0,0:0:0:0:
26,128,89737,2,0,L|28:89,1,22
10,112,89831,2,0,L|12:73,1,22
147,87,90019,6,0,L|145:48,1,22,10|0,0:0|0:0,0:0:0:0:
163,71,90112,2,0,L|161:32,1,22
179,55,90206,2,0,L|177:16,1,22
272,120,90394,6,0,L|286:158,1,22,14|0,0:3|0:0,0:0:0:0:
291,118,90487,2,0,L|294:158,1,22,0|0,0:0|0:0,0:0:0:0:
309,120,90581,2,0,L|301:159,1,22,8|0,0:3|0:0,0:0:0:0:
325,126,90675,2,0,L|307:162,1,22,0|0,0:0|0:0,0:0:0:0:
339,138,90769,6,0,L|324:154,1,22,10|0,0:0|0:0,0:0:0:0:
351,152,90862,2,0,L|332:163,1,22,0|0,0:0|0:0,0:0:0:0:
358,167,90956,2,0,L|337:174,1,22,8|0,0:3|0:0,0:0:0:0:
361,183,91050,2,0,L|339:184,1,22,0|0,0:0|0:0,0:0:0:0:
365,195,91144,6,0,L|343:196,1,22,10|0,0:3|0:0,0:0:0:0:
367,205,91237,2,0,L|346:212,1,22
372,216,91331,2,0,L|353:227,1,22,8|0,0:3|0:0,0:0:0:0:
380,225,91425,2,0,L|365:241,1,22
388,233,91519,6,0,L|379:253,1,22,10|0,0:0|0:0,0:0:0:0:
399,237,91612,2,0,L|395:259,1,22,2|0,0:0|0:0,0:0:0:0:
411,239,91706,2,0,L|413:261,1,22,10|0,0:3|0:0,0:0:0:0:
