osu file format v14

[General]
AudioFilename: audio.mp3
AudioLeadIn: 0
PreviewTime: 67237
Countdown: 0
SampleSet: Soft
StackLeniency: 0.7
Mode: 0
LetterboxInBreaks: 0
WidescreenStoryboard: 1

[Editor]
DistanceSpacing: 1
BeatDivisor: 4
GridSize: 32
TimelineZoom: 1.3

[Metadata]
Title:Jounetsu Utopia
TitleUnicode:蒸熱♨ユートピア
Artist:Karen, Koharu Meu, Harukawa Akari
ArtistUnicode:華憐、小春めう、春河あかり
Creator:Lasse
Version:Easy
Source:恋と恋するユートピア
Tags:Koi to Suru Utopia visual novel eroge opening Denki 電気 LoveMatic Koipia
BeatmapID:1475429
BeatmapSetID:695632

[Difficulty]
HPDrainRate:3
CircleSize:3
OverallDifficulty:3
ApproachRate:4
SliderMultiplier:1
SliderTickRate:1

[Events]
//Background and Video events
0,0,"bg_edit.jpg",0,0
//Break Periods
2,24219,35074
//Storyboard Layer 0 (Background)
//Storyboard Layer 1 (Fail)
//Storyboard Layer 2 (Pass)
//Storyboard Layer 3 (Foreground)
//Storyboard Sound Samples

[TimingPoints]
394,375,4,2,1,60,1,0
394,-111.111111111111,4,2,1,60,0,0
581,-111.111111111111,4,2,1,42,0,0
674,-111.111111111111,4,2,1,54,0,0
768,-111.111111111111,4,2,1,60,0,0
1425,-111.111111111111,4,2,1,42,0,0
1519,-111.111111111111,4,2,1,60,0,0
1612,-111.111111111111,4,2,1,42,0,0
1706,-111.111111111111,4,2,1,48,0,0
1800,-111.111111111111,4,2,1,54,0,0
1894,-111.111111111111,4,2,1,60,0,0
2269,-111.111111111111,4,2,1,42,0,0
2362,-111.111111111111,4,2,1,54,0,0
2456,-111.111111111111,4,2,1,60,0,0
2550,-111.111111111111,4,2,1,42,0,0
2644,-111.111111111111,4,2,1,60,0,0
3581,-111.111111111111,4,2,1,42,0,0
3674,-111.111111111111,4,2,1,54,0,0
3768,-111.111111111111,4,2,1,60,0,0
4425,-111.111111111111,4,2,1,42,0,0
4519,-111.111111111111,4,2,1,60,0,0
4612,-111.111111111111,4,2,1,42,0,0
4706,-111.111111111111,4,2,1,48,0,0
4800,-111.111111111111,4,2,1,54,0,0
4894,-111.111111111111,4,2,1,60,0,0
5269,-111.111111111111,4,2,1,42,0,0
5362,-111.111111111111,4,2,1,54,0,0
5456,-111.111111111111,4,2,1,60,0,0
5550,-111.111111111111,4,2,1,42,0,0
5644,-111.111111111111,4,2,1,60,0,0
6300,-111.111111111111,4,2,99,5,0,0
6394,-100,4,2,1,63,0,0
8362,-100,4,2,1,52,0,0
8644,-100,4,2,1,63,0,0
9112,-100,4,2,1,52,0,0
9394,-100,4,2,1,63,0,0
10612,-100,4,2,1,52,0,0
10894,-100,4,2,1,63,0,0
14362,-100,4,2,1,52,0,0
14644,-100,4,2,1,63,0,0
15112,-100,4,2,1,52,0,0
15394,-100,4,2,1,63,0,0
16612,-100,4,2,1,52,0,0
16894,-100,4,2,1,63,0,0
18394,-100,4,2,1,66,0,0
22894,-100,4,2,1,68,0,0
23644,-100,4,2,1,70,0,0
24019,-100,4,2,1,72,0,0
24394,-133.333333333333,4,2,43,55,0,0
36394,-111.111111111111,4,2,1,52,0,0
37800,-111.111111111111,4,2,99,5,0,0
37894,-111.111111111111,4,2,1,52,0,0
42206,-111.111111111111,4,2,1,44,0,0
42394,-111.111111111111,4,2,1,52,0,0
43800,-111.111111111111,4,2,99,5,0,0
43894,-111.111111111111,4,2,1,52,0,0
48300,-111.111111111111,4,2,1,20,0,0
48394,-111.111111111111,4,2,1,60,0,0
57394,-100,4,2,1,62,0,0
58894,-100,4,2,1,64,0,0
60394,-100,4,2,1,66,0,0
61894,-100,4,2,1,68,0,0
63394,-100,4,2,1,70,0,0
66394,-100,4,2,1,60,0,0
67331,-100,4,2,1,46,0,0
67519,-100,4,2,1,48,0,0
67706,-100,4,2,1,50,0,0
67894,-90.9090909090909,4,2,1,70,0,1
68081,-90.9090909090909,4,2,1,30,0,1
68175,-90.9090909090909,4,2,1,70,0,1
71081,-90.9090909090909,4,2,1,30,0,1
71175,-90.9090909090909,4,2,1,70,0,1
73144,-90.9090909090909,4,2,1,60,0,1
73331,-90.9090909090909,4,2,1,46,0,0
73519,-90.9090909090909,4,2,1,48,0,0
73706,-90.9090909090909,4,2,1,50,0,0
73894,-90.9090909090909,4,2,1,70,0,1
74081,-90.9090909090909,4,2,1,30,0,1
74175,-90.9090909090909,4,2,1,70,0,1
77081,-90.9090909090909,4,2,1,30,0,1
77175,-90.9090909090909,4,2,1,70,0,1
79144,-90.9090909090909,4,2,1,60,0,1
79519,-90.9090909090909,4,2,1,50,0,0
79706,-90.9090909090909,4,2,1,50,0,1
79894,-90.9090909090909,4,2,1,70,0,1
82800,-90.9090909090909,4,2,1,70,0,0
82894,-90.9090909090909,4,2,1,70,0,1
85800,-90.9090909090909,4,2,1,70,0,0
85894,-90.9090909090909,4,2,1,70,0,1
87394,-90.9090909090909,4,2,1,60,0,0
88894,-100,4,2,1,60,0,0

[Colours]
Combo1 : 255,150,150
Combo2 : 130,190,230
Combo3 : 255,165,120
Combo4 : 170,240,150

[HitObjects]
83,346,394,6,0,P|78:301|67:257,1,89.999997253418,14|2,0:3|0:0,0:0:0:0:
112,130,1331,2,0,P|176:107|243:109,1,134.999995880127,2|10,0:0|0:3,0:0:0:0:
385,218,2644,2,0,P|434:217|491:199,1,89.9999972534181,8|2,1:3|1:2,0:0:0:0:
476,116,3394,6,0,P|432:105|387:104,1,89.9999972534181,14|2,0:3|0:0,0:0:0:0:
267,166,4331,2,0,L|261:308,1,134.999995880127,2|10,0:0|0:3,0:0:0:0:
83,360,5644,2,0,L|69:256,1,89.9999972534181,10|8,0:3|0:1,0:0:0:0:
16,186,6394,6,0,P|9:136|28:91,1,100,14|10,0:3|0:2,0:0:0:0:
112,37,7144,1,10,0:3:0:0:
309,67,7894,2,0,L|428:65,1,100,10|8,0:3|0:0,0:0:0:0:
491,121,8644,1,10,0:3:0:0:
484,220,9019,1,10,0:0:0:0:
394,263,9394,6,0,L|275:261,1,100,10|10,0:3|0:2,0:0:0:0:
209,315,10144,1,10,0:3:0:0:
51,189,10894,2,0,P|36:143|50:95,1,100,10|10,0:3|0:0,0:0:0:0:
136,43,11644,2,0,L|246:37,1,100,10|10,0:3|0:0,0:0:0:0:
331,69,12394,6,0,P|352:113|348:163,1,100,14|10,0:3|0:0,0:0:0:0:
294,250,13144,1,10,0:3:0:0:
101,185,13894,2,0,P|84:139|92:90,1,100,10|10,0:3|0:0,0:0:0:0:
168,24,14644,1,10,0:3:0:0:
257,67,15019,1,10,0:2:0:0:
347,26,15394,6,0,P|397:21|444:38,1,100,10|10,0:3|0:2,0:0:0:0:
492,126,16144,1,10,0:3:0:0:
297,170,16894,2,0,L|184:160,1,100,10|10,0:3|0:0,0:0:0:0:
100,186,17644,2,0,P|75:228|84:277,1,100,10|10,0:3|0:0,0:0:0:0:
157,344,18394,6,0,B|225:334|225:334|279:357|279:357|366:344,1,200,14|8,0:0|0:0,0:0:0:0:
450,357,19519,1,8,0:0:0:0:
491,265,19894,2,0,L|493:159,1,100,10|10,0:0|0:0,0:0:0:0:
435,83,20644,1,10,0:0:0:0:
338,110,21019,1,10,0:0:0:0:
259,48,21394,6,0,B|191:38|191:38|137:61|137:61|50:48,1,200,10|10,3:3|3:2,0:0:0:0:
9,133,22519,1,8,3:2:0:0:
81,201,22894,2,0,L|199:190,1,100,10|8,3:2|3:2,0:0:0:0:
279,210,23644,2,0,B|305:207|305:207|320:201|320:201|339:209|339:209|361:204|361:204|397:199,1,100,10|8,3:3|0:1,0:0:0:0:
24,61,36394,6,0,P|98:52|211:75,1,179.999994506836,14|8,0:3|1:3,0:0:0:0:
277,119,37519,1,10,0:3:0:0:
353,166,37894,2,0,P|440:184|499:182,2,134.999995880127,10|2|10,0:3|0:0|0:3,0:0:0:0:
277,119,39394,6,0,P|198:92|93:110,1,179.999994506836,10|8,0:3|1:3,0:0:0:0:
39,167,40519,1,10,0:3:0:0:
93,238,40894,2,0,P|172:265|277:247,1,179.999994506836,10|8,0:3|0:3,0:0:0:0:
332,84,42394,6,0,B|405:32|405:32|474:89,1,179.999994506836,14|8,0:3|1:3,0:0:0:0:
498,176,43519,1,10,0:3:0:0:
415,211,43894,2,0,L|269:195,2,134.999995880127,10|2|10,0:3|0:0|0:3,0:0:0:0:
498,176,45394,6,0,B|484:141|487:102|507:112|516:27|438:27,1,179.999994506836,10|8,0:3|1:3,0:0:0:0:
275,88,46894,2,0,B|226:113|179:98|179:98|139:73|90:81,1,179.999994506836,10|8,0:3|0:3,0:0:0:0:
0,220,48394,6,0,B|-17:295|6:336|6:336|45:338|74:315,1,179.999994506836,14|10,0:3|0:3,0:0:0:0:
146,283,49519,2,0,P|211:274|287:295,2,134.999995880127,10|2|10,0:0|0:0|0:3,0:0:0:0:
64,321,51019,1,10,0:0:0:0:
19,242,51394,6,0,B|1:180|23:119|23:119|72:72,1,179.999994506836,14|10,0:3|0:3,0:0:0:0:
150,62,52519,2,0,L|285:54,2,134.999995880127,8|2|10,0:0|0:0|0:3,0:0:0:0:
43,207,54394,6,0,B|26:282|49:323|49:323|79:341|120:335,1,179.999994506836,14|10,0:3|0:3,0:0:0:0:
178,280,55519,2,0,L|185:139,2,134.999995880127,10|2|10,0:0|0:0|0:3,0:0:0:0:
217,360,57019,1,10,0:2:0:0:
316,370,57394,6,0,L|437:358,1,100,14|8,0:3|0:2,0:0:0:0:
479,283,58144,2,0,P|486:234|463:190,1,100,8|8,0:3|0:2,0:0:0:0:
368,158,58894,1,10,0:3:0:0:
294,225,59269,1,8,0:2:0:0:
200,190,59644,2,0,L|98:186,1,100,8|8,0:3|0:2,0:0:0:0:
12,137,60394,6,0,P|4:88|27:44,1,100,14|8,0:3|0:2,0:0:0:0:
126,31,61144,2,0,L|244:31,1,100,8|8,0:3|0:2,0:0:0:0:
304,92,61894,1,10,0:3:0:0:
398,60,62269,1,8,0:2:0:0:
474,124,62644,2,0,L|486:237,1,100,8|8,0:3|0:2,0:0:0:0:
414,294,63394,6,0,B|367:297|317:269|317:269|258:255|208:294,1,200,10|10,3:3|3:0,0:0:0:0:
143,345,64519,1,8,3:2:0:0:
55,297,64894,2,0,L|40:87,1,200,10|2,3:0|3:0,0:0:0:0:
118,29,66019,1,8,3:2:0:0:
211,64,66394,5,14,1:3:0:0:
500,162,67894,6,0,B|502:230|481:266|481:266|495:300|487:340,1,165.000005035401,14|2,0:3|0:3,0:0:0:0:
386,367,68831,2,0,B|356:356|338:337|338:337|314:340|282:333,1,110.000003356934,2|2,0:0|0:0,0:0:0:0:
229,349,69394,2,0,B|219:290|248:245|248:245|245:209|229:180,1,165.000005035401,10|2,0:3|0:0,0:0:0:0:
180,94,70331,1,2,0:0:0:0:
22,143,70894,6,0,B|5:200|22:252|22:252|8:271|9:307,1,165.000005035401,14|2,0:3|0:3,0:0:0:0:
108,351,71831,2,0,B|133:336|155:333|155:333|182:340|226:340,1,110.000003356934,2|2,0:0|0:0,0:0:0:0:
267,355,72394,2,0,B|324:347|376:360|376:360|401:341|413:294,1,165.000005035401,10|2,0:3|0:0,0:0:0:0:
388,206,73331,1,2,0:0:0:0:
227,167,73894,6,0,B|170:159|118:172|118:172|93:153|81:106,1,165.000005035401,14|2,0:3|0:3,0:0:0:0:
143,32,74831,2,0,B|172:33|194:42|194:42|216:28|248:25,1,110.000003356934,2|2,0:0|0:0,0:0:0:0:
299,46,75394,2,0,B|349:69|403:34|403:34|435:37|460:65,1,165.000005035401,10|2,0:3|0:0,0:0:0:0:
497,157,76331,1,2,0:0:0:0:
357,245,76894,6,0,B|301:221|250:243|250:243|223:243|200:216,1,165.000005035401,14|2,0:3|0:3,0:0:0:0:
151,121,77831,2,0,B|138:91|138:67|138:67|116:46|76:51,1,110.000003356934,2|2,0:0|0:0,0:0:0:0:
43,82,78394,2,0,B|22:141|49:191|49:191|31:214|32:251,1,165.000005035401,10|2,0:3|0:0,0:0:0:0:
283,352,79894,6,0,L|410:348,1,110.000003356934,14|10,0:3|0:0,0:0:0:0:
479,281,80644,2,0,P|489:227|473:175,1,110.000003356934,10|10,0:3|0:2,0:0:0:0:
394,99,81394,1,10,0:3:0:0:
293,144,81769,1,10,0:0:0:0:
194,95,82144,2,0,L|67:90,1,110.000003356934,10|10,0:3|0:0,0:0:0:0:
10,172,82894,6,0,P|-5:233|8:282,1,110.000003356934,14|10,0:3|0:0,0:0:0:0:
105,324,83644,2,0,L|232:319,1,110.000003356934,10|10,0:3|0:2,0:0:0:0:
315,365,84394,1,10,0:3:0:0:
389,283,84769,1,10,0:0:0:0:
333,187,85144,2,0,P|281:169|215:180,1,110.000003356934,10|10,0:3|0:0,0:0:0:0:
123,212,85894,6,0,L|110:93,1,110.000003356934,14|10,0:3|0:0,0:0:0:0:
192,29,86644,2,0,P|245:15|299:26,1,110.000003356934,10|10,0:3|0:2,0:0:0:0:
380,98,87394,2,0,L|382:211,1,110.000003356934,10|8,0:3|0:0,0:0:0:0:
335,307,88144,1,10,0:0:0:0:
232,267,88519,1,10,0:0:0:0:
149,323,88894,6,0,P|95:335|27:225,1,200,14|10,0:3|0:3,0:0:0:0:
54,133,90019,1,10,0:0:0:0:
141,84,90394,2,0,L|253:81,1,100,14|10,0:3|0:0,0:0:0:0:
339,62,91144,2,0,B|389:62|389:62|430:91|430:91|491:88,1,150,10|10,0:3|0:3,0:0:0:0:
