osu file format v14

[General]
AudioFilename: audio.mp3
AudioLeadIn: 0
PreviewTime: 79894
Countdown: 1
SampleSet: Soft
StackLeniency: 0.2
Mode: 0
LetterboxInBreaks: 0
WidescreenStoryboard: 1

[Editor]
Bookmarks: 5644,6394,16144,17644,18394,21019,21394,23644,24019,24394,25519,31519,34894,36394,48394,57394,63394,66394,67331,67894,77644,78769,79144,79519,79894,81769,82894,84769,85894,87394,88894
DistanceSpacing: 1.3
BeatDivisor: 4
GridSize: 4
TimelineZoom: 6.199996

[Metadata]
Title:Jounetsu Utopia
TitleUnicode:蒸熱♨ユートピア
Artist:Karen, Koharu Meu, Harukawa Akari
ArtistUnicode:華憐、小春めう、春河あかり
Creator:Kotori-Chan
Version:remap
Source:恋と恋するユートピア
Tags:eroge opening denki 電気 lovematic koipia koi to suru
BeatmapID:1537731
BeatmapSetID:601446

[Difficulty]
HPDrainRate:6
CircleSize:4.3
OverallDifficulty:7
ApproachRate:9
SliderMultiplier:1.8
SliderTickRate:1

[Events]
//Background and Video events
0,0,"2d is waifu.jpg",0,0
Video,0,"video_v2.mp4"
//Break Periods
//Storyboard Layer 0 (Background)
//Storyboard Layer 1 (Fail)
//Storyboard Layer 2 (Pass)
//Storyboard Layer 3 (Foreground)
//Storyboard Sound Samples

[TimingPoints]
394,375,4,2,1,70,1,0
6394,-100,4,2,5,70,0,0
18769,-100,4,2,1,70,0,0
24019,-83.3333333333333,4,2,99,70,0,0
24394,-83.3333333333333,4,2,99,5,0,0
25519,-142.857142857143,4,2,10,70,0,0
36394,-142.857142857143,4,2,99,70,0,0
36769,-100,4,2,2,70,0,0
48394,-100,4,2,5,70,0,0
51394,-100,4,2,50,70,0,0
57394,-100,4,2,2,70,0,0
66394,-50,4,2,90,100,0,0
66581,-50,4,2,2,5,0,0
67331,-50,4,2,5,70,0,0
67472,-50,4,2,5,5,0,0
67519,-50,4,2,5,70,0,0
67659,-50,4,2,5,5,0,0
67706,-50,4,2,5,70,0,0
67847,-50,4,2,5,5,0,0
67894,-66.6666666666667,4,2,5,70,0,1
72394,-90.9090909090909,4,2,5,70,0,1
73331,-50,4,2,5,70,0,1
73472,-50,4,2,5,5,0,1
73519,-50,4,2,5,70,0,1
73659,-50,4,2,5,5,0,1
73706,-50,4,2,5,70,0,1
73847,-50,4,2,5,5,0,1
73894,-66.6666666666667,4,2,5,70,0,1
76894,-66.6666666666667,4,2,50,70,0,1
78394,-90.9090909090909,4,2,2,70,0,1
81769,-90.9090909090909,4,2,2,70,0,0
82894,-90.9090909090909,4,2,2,70,0,1
84769,-90.9090909090909,4,2,2,70,0,0
85894,-90.9090909090909,4,2,2,70,0,1
87394,-90.9090909090909,4,2,2,70,0,0

[HitObjects]
48,96,394,6,0,B|96:95|96:95|136:119,1,90
148,131,675,1,0,0:0:0:0:
164,147,769,2,0,B|212:147|212:147|253:123,1,90
332,48,1144,1,0,0:0:0:0:
400,144,1331,1,0,0:0:0:0:
468,48,1519,1,0,0:0:0:0:
464,200,1706,5,4,0:0:0:0:
464,200,1800,1,4,0:0:0:0:
464,200,1894,6,0,B|443:237|443:237|443:285,1,90,4|4,0:0|0:0,0:0:0:0:
345,332,2269,2,0,B|324:295|324:295|324:247,1,90,4|4,0:0|0:0,0:0:0:0:
304,132,2644,2,0,L|340:72,2,60,2|2|2,0:0|0:0|0:0,0:0:0:0:
208,132,3019,2,0,L|172:72,2,60,2|2|2,0:0|0:0|0:0,0:0:0:0:
324,248,3394,6,0,B|278:275|256:306|256:306|234:275|188:248,1,180,0|4,0:0|0:0,0:0:0:0:
63,144,3956,2,0,P|43:104|62:65,1,90,4|4,0:0|0:0,0:0:0:0:
120,211,4331,2,0,P|139:250|120:289,1,90,4|4,0:0|0:0,0:0:0:0:
176,124,4706,1,4,0:0:0:0:
176,124,4800,1,4,0:0:0:0:
176,124,4894,6,0,P|256:89|336:124,1,180,0|4,0:0|0:0,0:0:0:0:
438,210,5456,1,4,0:0:0:0:
447,102,5644,2,0,L|467:42,2,60,2|2|2,0:0|0:0|0:0,0:0:0:0:
355,181,6019,2,0,L|335:121,2,60,2|2|2,0:0|0:0|0:0,0:0:0:0:
485,224,6394,6,0,B|437:224|437:224|404:291|304:269,1,180,12|2,0:0|0:0,0:0:0:0:
247,203,6956,1,0,0:0:0:0:
302,107,7144,2,0,B|341:85|341:85|380:107,1,90,8|0,0:0|0:0,0:0:0:0:
210,132,7519,2,0,B|171:154|171:154|132:132,1,90,2|0,0:0|0:0,0:0:0:0:
35,223,7894,2,0,B|74:201|74:201|113:223,1,90,8|0,0:0|0:0,0:0:0:0:
210,309,8269,2,0,B|171:287|171:287|132:309,1,90,2|0,0:0|0:0,0:0:0:0:
300,235,8644,2,0,P|370:187|440:235,1,180,8|2,0:0|0:0,0:0:0:0:
428,340,9206,1,0,0:0:0:0:
308,311,9394,6,0,P|238:263|168:311,1,180,8|2,0:0|0:0,0:0:0:0:
85,242,9956,1,0,0:0:0:0:
127,139,10144,2,0,P|168:125|210:139,1,90,8|0,0:0|0:0,0:0:0:0:
302,203,10519,2,0,P|343:217|385:203,1,90,2|0,0:0|0:0,0:0:0:0:
482,154,10894,5,8,0:0:0:0:
425,62,11081,1,0,0:0:0:0:
343,133,11269,1,2,0:0:0:0:
256,76,11456,1,0,0:0:0:0:
195,169,11644,2,0,B|170:177|155:189|155:189|140:177|115:169,1,90,8|0,0:0|0:0,0:0:0:0:
34,75,12019,2,0,B|59:67|74:55|74:55|89:67|114:75,1,90,2|0,0:0|0:0,0:0:0:0:
195,169,12394,6,0,B|235:184|256:232|256:232|277:184|317:169,1,180,12|2,0:0|0:0,0:0:0:0:
256,72,12956,1,0,0:0:0:0:
195,169,13144,2,0,P|180:210|194:252,1,90,8|0,0:0|0:0,0:0:0:0:
317,252,13519,2,0,P|331:210|317:169,1,90,2|0,0:0|0:0,0:0:0:0:
256,72,13894,5,8,0:0:0:0:
195,169,14081,1,0,0:0:0:0:
256,272,14269,1,2,0:0:0:0:
317,169,14456,1,0,0:0:0:0:
256,72,14644,2,0,B|144:72|144:72|96:128,1,180,8|2,0:0|0:0,0:0:0:0:
56,240,15206,1,0,0:0:0:0:
195,169,15394,6,0,B|307:169|307:169|355:225,1,180,8|2,0:0|0:0,0:0:0:0:
358,332,15956,1,0,0:0:0:0:
440,260,16144,2,0,B|462:221|462:221|440:182,1,90,8|0,0:0|0:0,0:0:0:0:
396,93,16519,2,0,B|357:71|357:71|318:93,1,90,2|0,0:0|0:0,0:0:0:0:
271,182,16894,6,0,B|249:221|249:221|271:260,1,90,8|0,0:0|0:0,0:0:0:0:
200,342,17269,1,2,0:0:0:0:
153,245,17456,1,0,0:0:0:0:
48,344,17644,1,8,0:0:0:0:
48,300,17738,1,0,0:0:0:0:
48,256,17831,1,0,0:0:0:0:
153,245,18019,1,2,0:0:0:0:
153,201,18113,1,0,0:0:0:0:
153,157,18206,1,0,0:0:0:0:
256,288,18394,6,0,P|336:323|416:288,1,180,4|2,0:0|0:0,0:0:0:0:
460,172,18956,1,2,0:0:0:0:
460,172,19144,1,2,0:0:0:0:
392,276,19331,1,2,0:0:0:0:
392,276,19519,1,2,0:0:0:0:
432,140,19706,5,2,0:0:0:0:
432,140,19894,1,2,0:0:0:0:
364,244,20081,1,2,0:0:0:0:
364,244,20269,1,2,0:0:0:0:
416,104,20456,5,2,0:0:0:0:
416,104,20644,1,2,0:0:0:0:
348,208,20831,1,2,0:0:0:0:
348,208,21019,1,2,0:0:0:0:
256,120,21206,1,2,0:0:0:0:
164,208,21394,2,0,L|100:284,1,90,2|2,0:0|0:0,0:0:0:0:
72,176,21769,2,0,L|136:100,1,90,2|2,0:0|0:0,0:0:0:0:
256,43,22144,6,0,P|276:37|299:44,2,45,2|0|0,0:0|0:0|0:0,0:0:0:0:
172,107,22519,2,0,P|152:113|129:106,2,45,2|0|0,0:0|0:0|0:0,0:0:0:0:
236,176,22894,2,0,P|256:170|279:177,2,45,2|0|0,0:0|0:0|0:0,0:0:0:0:
146,217,23269,2,0,P|126:223|103:216,2,45,2|0|0,0:0|0:0|0:0,0:0:0:0:
48,96,25519,6,0,L|112:96,1,62.9999980773926,2|0,0:0|0:0,0:0:0:0:
172,40,25894,2,0,P|152:84|176:160,1,125.999996154785,2|0,0:0|0:0,0:0:0:0:
256,255,26456,2,0,L|256:192,1,62.9999980773926,2|0,0:0|0:0,0:0:0:0:
256,96,26831,1,2,0:0:0:0:
340,40,27019,1,2,0:0:0:0:
401,96,27206,1,2,0:0:0:0:
340,40,27394,2,0,P|360:84|336:160,1,125.999996154785,2|2,0:0|0:0,0:0:0:0:
256,255,27956,5,0,0:0:0:0:
256,255,28144,1,2,0:0:0:0:
340,304,28331,2,0,L|400:356,2,62.9999980773926,2|2|2,0:0|0:0|0:0,0:0:0:0:
200,188,28894,2,0,B|240:176|256:160|256:160|272:176|312:188,1,125.999996154785,2|2,0:0|0:0,0:0:0:0:
388,232,29456,1,0,0:0:0:0:
384,128,29644,2,0,B|375:96|352:119|341:85,1,62.9999980773926,2|0,0:0|0:0,0:0:0:0:
128,128,30019,2,0,B|136:96|159:119|170:85,1,62.9999980773926,2|0,0:0|0:0,0:0:0:0:
256,216,30394,1,4,0:0:0:0:
208,328,31519,5,2,0:0:0:0:
160,220,31706,1,0,0:0:0:0:
88,328,31894,2,0,L|40:208,1,125.999996154785,2|0,0:0|0:0,0:0:0:0:
88,128,32456,2,0,L|64:68,2,62.9999980773926,2|2|2,0:0|0:0|0:0,0:0:0:0:
160,220,33019,1,2,0:0:0:0:
224,128,33206,1,2,0:0:0:0:
315,187,33394,2,0,L|387:67,1,125.999996154785,2|2,0:0|0:0,0:0:0:0:
472,52,33956,5,0,0:0:0:0:
464,156,34144,2,0,L|424:225,1,62.9999980773926,2|0,0:0|0:0,0:0:0:0:
464,296,34519,1,2,0:0:0:0:
352,304,34706,1,2,0:0:0:0:
316,192,34894,2,0,B|256:172|256:172|196:192,1,125.999996154785,2|2,0:0|0:0,0:0:0:0:
256,264,35456,1,0,0:0:0:0:
316,192,35644,2,0,L|352:136,1,62.9999980773926,2|0,0:0|0:0,0:0:0:0:
196,192,36019,2,0,L|160:136,1,62.9999980773926,2|0,0:0|0:0,0:0:0:0:
256,344,36394,1,4,0:0:0:0:
456,260,36769,5,8,0:0:0:0:
444,148,36956,1,0,0:0:0:0:
369,56,37144,2,0,B|329:76|329:76|313:124,1,90,2|0,0:0|0:0,0:0:0:0:
220,224,37519,2,0,B|248:236|256:250|256:250|264:236|292:224,1,90,8|0,0:0|0:0,0:0:0:0:
197,118,37894,2,0,B|183:76|183:76|143:56,1,90,2|0,0:0|0:0,0:0:0:0:
68,148,38269,1,8,0:0:0:0:
96,311,38456,6,0,B|128:311|140:319|140:319|152:310|184:311,1,90,0|2,0:0|0:0,0:0:0:0:
292,224,38831,2,0,B|324:224|336:216|336:216|348:224|380:224,2,90,0|8|0,0:0|0:0|0:0,0:0:0:0:
184,311,39394,2,0,B|236:303|256:351|256:351|276:303|328:311,1,180,2|8,0:0|0:0,0:0:0:0:
436,328,39956,1,0,0:0:0:0:
379,223,40144,1,2,0:0:0:0:
416,104,40331,6,0,P|454:84|493:104,2,90,0|8|0,0:0|0:0|0:0,0:0:0:0:
328,168,40894,2,0,B|276:176|256:128|256:128|236:176|184:168,1,180,2|8,0:0|0:0,0:0:0:0:
256,256,41456,1,0,0:0:0:0:
328,168,41644,2,0,L|384:240,1,90,2|0,0:0|0:0,0:0:0:0:
184,168,42019,2,0,L|128:239,1,90,8|0,0:0|0:0,0:0:0:0:
256,336,42394,1,4,0:0:0:0:
400,304,42769,5,8,0:0:0:0:
468,220,42956,1,0,0:0:0:0:
400,136,43144,2,0,B|422:113|422:113|431:110|431:110|425:104|425:104|433:102|433:102|462:73,1,90,2|0,0:0|0:0,0:0:0:0:
300,88,43519,2,0,B|256:79|256:79|212:88,1,90,8|0,0:0|0:0,0:0:0:0:
212,196,43894,2,0,B|256:205|256:205|300:196,1,90,2|0,0:0|0:0,0:0:0:0:
112,136,44269,1,8,0:0:0:0:
112,248,44456,2,0,B|89:270|89:270|80:273|80:273|86:279|86:279|78:281|78:281|49:310,2,90,0|2|0,0:0|0:0|0:0,0:0:0:0:
217,270,45019,6,0,P|255:290|294:271,1,90,8|0,0:0|0:0,0:0:0:0:
316,180,45394,2,0,B|296:144|256:114|256:114|216:144|196:180,1,180,2|8,0:0|0:0,0:0:0:0:
218,271,45956,2,0,P|174:272|112:227,1,90,0|2,0:0|0:0,0:0:0:0:
294,271,46331,2,0,P|338:272|400:227,1,90,0|8,0:0|0:0,0:0:0:0:
428,156,46706,1,0,0:0:0:0:
340,112,46894,2,0,B|256:80|256:80|172:112,1,180,2|8,0:0|0:0,0:0:0:0:
168,224,47456,1,2,0:0:0:0:
168,224,47550,1,2,0:0:0:0:
168,224,47644,2,0,P|152:272|172:316,1,90,2|8,0:0|0:0,0:0:0:0:
347,307,48019,2,0,P|360:265|344:224,1,90,8|0,0:0|0:0,0:0:0:0:
312,72,48394,6,0,L|112:72,1,180,12|2,0:0|0:0,0:0:0:0:
109,177,48956,1,0,0:0:0:0:
199,117,49144,2,0,P|207:72|199:28,1,90,8|0,0:0|0:0,0:0:0:0:
109,177,49519,2,0,P|100:221|108:265,2,90,2|0|8,0:0|0:0|0:0,0:0:0:0:
212,216,50081,2,0,B|244:216|256:224|256:224|268:216|300:216,1,90,0|2,0:0|0:0,0:0:0:0:
403,177,50456,1,2,0:0:0:0:
403,177,50644,1,2,0:0:0:0:
109,177,51019,1,2,0:0:0:0:
296,56,51394,6,0,L|404:84,1,90,12|0,0:0|0:0,0:0:0:0:
216,56,51769,2,0,L|108:84,1,90,2|0,0:0|0:0,0:0:0:0:
184,208,52144,2,0,B|228:224|256:260|256:260|284:224|328:208,1,180,8|2,0:0|0:0,0:0:0:0:
292,136,52706,2,0,B|264:148|256:162|256:162|248:148|220:136,1,90,0|8,0:0|0:0,0:0:0:0:
172,232,53081,2,0,P|132:268|124:316,2,90,0|2|0,0:0|0:0|0:0,0:0:0:0:
256,296,53644,1,8,0:0:0:0:
340,232,53831,2,2,P|380:268|388:316,2,90
300,70,54394,6,0,P|256:78|212:70,1,90,12|0,0:0|0:0,0:0:0:0:
104,175,54769,2,0,P|142:197|171:231,1,90,2|0,0:0|0:0,0:0:0:0:
408,174,55144,2,0,P|369:197|340:231,1,90,8|0,0:0|0:0,0:0:0:0:
204,308,55519,2,0,B|240:336|256:380|256:380|272:336|308:308,1,180,2|8,0:0|0:0,0:0:0:0:
256,236,56081,5,0,0:0:0:0:
256,60,56269,1,2,0:0:0:0:
256,148,56456,1,0,0:0:0:0:
344,96,56644,2,0,P|360:144|401:172,1,90,8|0,0:0|0:0,0:0:0:0:
168,96,57019,2,0,P|152:144|111:172,1,90,2|0,0:0|0:0,0:0:0:0:
327,281,57394,6,0,L|347:233,1,45,2|0,0:0|0:0,0:0:0:0:
168,240,57581,1,2,0:0:0:0:
168,240,57769,2,0,L|186:282,1,45,8|0,0:0|0:0,0:0:0:0:
344,239,57956,1,8,0:0:0:0:
344,239,58144,6,0,L|344:180,1,45,2|0,0:0|0:0,0:0:0:0:
186,281,58331,1,2,0:0:0:0:
186,281,58519,2,0,L|186:331,1,45,8|0,0:0|0:0,0:0:0:0:
344,194,58706,1,8,0:0:0:0:
344,194,58894,6,0,L|304:156,1,45,2|0,0:0|0:0,0:0:0:0:
186,326,59081,1,2,0:0:0:0:
186,326,59269,2,0,L|226:364,1,45,8|0,0:0|0:0,0:0:0:0:
311,163,59456,1,8,0:0:0:0:
311,163,59644,6,0,L|248:164,1,45,2|0,0:0|0:0,0:0:0:0:
218,356,59831,1,2,0:0:0:0:
218,356,60019,2,0,L|280:356,1,45,8|0,0:0|0:0,0:0:0:0:
266,163,60206,1,8,0:0:0:0:
160,288,60394,6,0,L|104:312,2,45,2|0|2,0:0|0:0|0:0,0:0:0:0:
352,288,60769,2,0,L|408:312,2,45,8|0|8,0:0|0:0|0:0,0:0:0:0:
160,96,61144,6,0,L|104:72,2,45,2|0|2,0:0|0:0|0:0,0:0:0:0:
352,96,61519,2,0,L|408:72,2,45,8|0|8,0:0|0:0|0:0,0:0:0:0:
160,192,61894,6,0,L|112:192,2,45,2|0|2,0:0|0:0|0:0,0:0:0:0:
352,192,62269,2,0,L|400:192,2,45,8|0|8,0:0|0:0|0:0,0:0:0:0:
256,288,62644,6,0,L|256:340,2,45,2|0|2,0:0|0:0|0:0,0:0:0:0:
256,96,63019,2,0,L|256:44,2,45,8|0|8,0:0|0:0|0:0,0:0:0:0:
175,243,63394,5,8,0:0:0:0:
195,260,63487,1,0,0:0:0:0:
218,272,63581,1,0,0:0:0:0:
243,278,63675,1,0,0:0:0:0:
268,278,63769,1,8,0:0:0:0:
293,272,63862,1,0,0:0:0:0:
316,260,63956,1,0,0:0:0:0:
335,244,64050,1,0,0:0:0:0:
354,226,64144,6,0,L|392:195,3,45,8|0|0|0,0:0|0:0|0:0|0:0,0:0:0:0:
321,91,64519,2,0,L|342:46,3,45,8|0|0|0,0:0|0:0|0:0|0:0,0:0:0:0:
222,159,64894,5,8,0:0:0:0:
199,170,64987,1,0,0:0:0:0:
176,182,65081,1,0,0:0:0:0:
153,194,65175,1,0,0:0:0:0:
130,194,65269,1,8,0:0:0:0:
107,182,65362,1,0,0:0:0:0:
85,170,65456,1,0,0:0:0:0:
62,159,65550,1,0,0:0:0:0:
37,153,65644,6,0,L|37:197,3,45,8|0|0|0,0:0|0:0|0:0|0:0,0:0:0:0:
104,305,66019,2,0,L|104:349,3,45,8|0|0|0,0:0|0:0|0:0|0:0,0:0:0:0:
192,236,66394,6,0,B|224:260|256:299|256:299|288:260|320:236,1,180
196,69,67331,6,0,B|256:38|256:38|316:69,1,135,2|0,0:0|0:0,0:0:0:0:
315,68,67519,2,0,B|255:99|255:99|195:68,1,135,2|0,0:0|0:0,0:0:0:0:
196,69,67706,2,0,B|256:38|256:38|316:69,1,135,2|0,0:0|0:0,0:0:0:0:
360,144,67894,6,0,B|399:104|399:104|408:101|408:101|402:95|402:95|410:93|410:93|450:53,2,135.000005149842,12|0|2,0:0|0:0|0:0,0:0:0:0:
295,260,68456,2,0,B|271:277|256:314|256:314|241:277|217:260,1,135.000005149842,0|8,0:0|0:0,0:0:0:0:
152,144,68831,1,0,0:0:0:0:
256,313,69019,1,2,0:0:0:0:
360,144,69206,1,0,0:0:0:0:
396,328,69394,2,0,B|429:294|429:294|432:257|432:257|469:220,2,135.000005149842,8|0|2,0:0|0:0|0:0,0:0:0:0:
312,216,69956,2,0,P|256:184|200:216,1,135.000005149842,0|8,0:0|0:0,0:0:0:0:
116,328,70331,5,0,0:0:0:0:
52,148,70519,1,2,0:0:0:0:
136,296,70706,1,0,0:0:0:0:
136,99,70894,2,0,P|86:51|18:60,2,135.000005149842,8|0|2,0:0|0:0|0:0,0:0:0:0:
199,216,71456,2,0,B|256:180|256:180|313:216,1,135.000005149842,0|8,0:0|0:0,0:0:0:0:
362,338,71831,5,0,0:0:0:0:
150,339,72019,1,2,0:0:0:0:
361,268,72206,1,0,0:0:0:0:
120,253,72394,6,0,P|50:185|36:88,1,198.000006042481,8|2,0:0|0:0,0:0:0:0:
256,136,72956,1,2,0:0:0:0:
316,183,73331,6,0,P|256:209|196:183,1,135,2|0,0:0|0:0,0:0:0:0:
256,55,73519,2,0,P|319:95|336:155,1,135,2|0,0:0|0:0,0:0:0:0:
175,149,73706,2,0,P|198:87|256:55,1,135,2|0,0:0|0:0,0:0:0:0:
340,76,73894,6,0,B|394:64|394:64|403:66|403:66|401:58|401:58|410:61|410:61|465:49,2,135.000005149842,12|0|2,0:0|0:0|0:0,0:0:0:0:
256,204,74456,2,0,L|256:348,1,135.000005149842,0|8,0:0|0:0,0:0:0:0:
373,269,74831,1,0,0:0:0:0:
256,108,75019,1,2,0:0:0:0:
139,269,75206,1,0,0:0:0:0:
172,76,75394,2,0,B|118:64|118:64|109:66|109:66|111:58|111:58|102:61|102:61|47:49,2,135.000005149842,8|0|2,0:0|0:0|0:0,0:0:0:0:
204,206,75956,2,0,B|232:218|256:248|256:248|280:218|308:206,1,135.000005149842,0|8,0:0|0:0,0:0:0:0:
408,106,76331,5,0,0:0:0:0:
384,291,76519,1,2,0:0:0:0:
462,105,76706,1,0,0:0:0:0:
308,178,76894,2,0,B|280:166|256:136|256:136|232:166|204:178,2,135.000005149842,12|0|2,0:0|0:0|0:0,0:0:0:0:
316,311,77456,2,0,P|256:337|196:311,1,135.000005149842,0|12,0:0|0:0,0:0:0:0:
67,276,77831,5,0,0:0:0:0:
175,163,78019,1,2,0:0:0:0:
51,83,78206,1,0,0:0:0:0:
175,163,78394,6,0,P|256:212|337:163,1,198.000006042481,4|12,0:0|0:0,0:0:0:0:
371,79,78956,1,8,0:0:0:0:
141,79,79144,1,6,0:0:0:0:
141,79,79331,1,2,0:0:0:0:
371,79,79519,1,12,0:0:0:0:
371,79,79612,1,8,0:0:0:0:
371,79,79706,1,8,0:0:0:0:
256,192,79894,5,8,0:0:0:0:
345,330,80081,1,2,0:0:0:0:
256,192,80269,1,8,0:0:0:0:
307,348,80456,1,2,0:0:0:0:
256,192,80644,1,8,0:0:0:0:
256,357,80831,1,2,0:0:0:0:
256,192,81019,1,8,0:0:0:0:
201,346,81206,1,2,0:0:0:0:
256,192,81394,1,8,0:0:0:0:
156,318,81581,1,2,0:0:0:0:
212,126,81769,6,0,P|256:107|300:126,1,99.0000030212403,8|0,0:0|0:0,0:0:0:0:
145,296,82144,2,0,P|114:257|102:209,1,99.0000030212403,8|0,0:0|0:0,0:0:0:0:
409,211,82519,2,0,P|392:267|360:302,1,99.0000030212403,8|0,0:0|0:0,0:0:0:0:
256,192,82894,5,8,0:0:0:0:
120,120,83081,1,2,0:0:0:0:
256,192,83269,1,8,0:0:0:0:
106,160,83456,1,2,0:0:0:0:
256,192,83644,1,8,0:0:0:0:
103,211,83831,1,2,0:0:0:0:
256,192,84019,1,8,0:0:0:0:
121,264,84206,1,2,0:0:0:0:
256,192,84394,1,8,0:0:0:0:
154,306,84581,1,2,0:0:0:0:
256,192,84769,6,0,B|256:151|256:151|260:143|260:143|252:143|252:143|256:135|256:135|256:95,1,99.0000030212403,8|0,0:0|0:0,0:0:0:0:
145,88,85144,2,0,P|114:127|102:175,1,99.0000030212403,8|0,0:0|0:0,0:0:0:0:
409,173,85519,2,0,P|397:126|367:88,1,99.0000030212403,8|0,0:0|0:0,0:0:0:0:
256,192,85894,5,8,0:0:0:0:
391,264,86081,1,2,0:0:0:0:
256,192,86269,1,8,0:0:0:0:
409,211,86456,1,2,0:0:0:0:
256,192,86644,1,8,0:0:0:0:
406,160,86831,1,2,0:0:0:0:
256,192,87019,1,8,0:0:0:0:
392,120,87206,1,2,0:0:0:0:
256,192,87394,5,8,0:0:0:0:
256,192,87487,1,8,0:0:0:0:
256,192,87581,1,8,0:0:0:0:
256,192,87675,1,8,0:0:0:0:
256,192,87769,2,0,L|256:92,1,99.0000030212403,8|0,0:0|0:0,0:0:0:0:
184,240,88144,2,0,L|104:324,1,99.0000030212403,8|0,0:0|0:0,0:0:0:0:
328,240,88519,2,0,L|408:324,1,99.0000030212403,8|0,0:0|0:0,0:0:0:0:
444,172,88894,5,8,0:0:0:0:
400,40,89081,1,8,0:0:0:0:
359,172,89269,1,2,0:0:0:0:
359,172,89456,1,2,0:0:0:0:
315,40,89644,1,8,0:0:0:0:
315,40,89737,1,8,0:0:0:0:
315,40,89831,1,8,0:0:0:0:
272,172,90019,5,2,0:0:0:0:
272,172,90206,1,2,0:0:0:0:
227,40,90394,1,8,0:0:0:0:
227,40,90487,1,8,0:0:0:0:
227,40,90581,1,8,0:0:0:0:
185,172,90769,1,8,0:0:0:0:
185,172,90862,1,8,0:0:0:0:
185,172,90956,1,8,0:0:0:0:
303,245,91144,6,0,L|332:202,2,49.5000015106202,2|0|2,0:0|0:0|0:0,0:0:0:0:
201,340,91519,2,0,L|172:297,2,49.5000015106202,8|0|8,0:0|0:0|0:0,0:0:0:0:
