osu file format v14

[General]
AudioFilename: audio.mp3
AudioLeadIn: 0
PreviewTime: 67237
Countdown: 0
SampleSet: Soft
StackLeniency: 0.7
Mode: 0
LetterboxInBreaks: 0
WidescreenStoryboard: 1

[Editor]
Bookmarks: 48344,79844
DistanceSpacing: 0.3
BeatDivisor: 4
GridSize: 4
TimelineZoom: 1.9

[Metadata]
Title:Jounetsu Utopia
TitleUnicode:蒸熱♨ユートピア
Artist:Karen, Koharu Meu, Harukawa Akari
ArtistUnicode:華憐、小春めう、春河あかり
Creator:Asuka_-
Version:Insane
Source:恋と恋するユートピア
Tags:eroge opening Denki 電気 LoveMatic Koipia Koi to Suru
BeatmapID:1213457
BeatmapSetID:572329

[Difficulty]
HPDrainRate:6
CircleSize:4
OverallDifficulty:7.5
ApproachRate:9
SliderMultiplier:1.8
SliderTickRate:1

[Events]
//Background and Video events
0,0,"BG.jpg",0,0
//Break Periods
//Storyboard Layer 0 (Background)
//Storyboard Layer 1 (Fail)
//Storyboard Layer 2 (Pass)
//Storyboard Layer 3 (Foreground)
//Storyboard Sound Samples

[TimingPoints]
394,375,4,2,2,55,1,0
6394,-100,4,2,2,55,0,0
25519,-125,4,2,1,45,0,0
36769,-100,4,2,1,55,0,0
48344,-100,4,2,2,55,0,0
67894,-83.3333333333333,4,2,2,65,0,1
79519,-83.3333333333333,4,2,1,65,0,1
79894,-100,4,2,1,55,0,0
87394,-100,4,2,1,45,0,0
87769,-100,4,2,1,55,0,0

[Colours]
Combo1 : 137,217,243
Combo2 : 255,149,98
Combo3 : 255,128,128
Combo4 : 128,255,128

[HitObjects]
24,80,394,6,0,P|73:87|125:92,1,90,6|0,0:0|0:0,0:0:0:0:
222,50,675,1,0,0:0:0:0:
222,50,769,2,0,P|211:98|207:153,1,90,2|0,0:0|0:0,0:0:0:0:
274,263,1144,1,0,0:0:0:0:
340,172,1331,1,0,0:0:0:0:
192,231,1519,1,2,0:0:0:0:
275,347,1706,2,0,P|305:341|332:329,1,45,2|2,0:0|0:0,0:0:0:0:
412,281,1894,6,0,P|419:321|420:373,1,90,2|0,0:0|0:0,0:0:0:0:
339,171,2269,1,0,0:0:0:0:
486,206,2456,1,0,0:0:0:0:
370,67,2644,2,0,B|345:64|345:64|274:72,2,60,2|2|2,0:0|0:0|0:0,0:0:0:0:
230,143,3019,2,0,P|206:148|147:152,1,60,2|0,0:0|0:0,0:0:0:0:
111,63,3206,2,0,P|92:59|67:56,1,30,2|0,0:0|0:0,0:0:0:0:
12,147,3394,6,0,P|17:190|25:239,1,90,6|0,0:0|0:0,0:0:0:0:
81,340,3675,1,0,0:0:0:0:
81,340,3769,2,0,P|134:322|186:313,1,90,2|0,0:0|0:0,0:0:0:0:
292,292,4144,1,0,0:0:0:0:
203,217,4331,1,0,0:0:0:0:
327,180,4519,1,2,0:0:0:0:
397,290,4706,2,0,P|390:313|377:342,1,45,2|2,0:0|0:0,0:0:0:0:
274,380,4894,6,0,P|222:381|160:375,1,90,2|0,0:0|0:0,0:0:0:0:
44,325,5269,1,0,0:0:0:0:
193,271,5456,1,2,0:0:0:0:
58,181,5644,2,0,L|36:101,2,60,2|2|2,0:0|0:0|0:0,0:0:0:0:
101,214,6019,1,8,0:0:0:0:
296,123,6394,6,0,P|305:77|314:15,1,90,6|0,0:0|0:0,0:0:0:0:
220,85,6675,1,0,0:0:0:0:
220,85,6769,2,0,P|176:94|111:94,1,90,8|0,0:0|0:0,0:0:0:0:
19,189,7144,6,0,P|53:205|126:215,1,90,2|0,0:0|0:0,0:0:0:0:
158,291,7425,1,0,0:0:0:0:
158,291,7519,2,0,P|205:275|248:249,1,90,8|0,0:0|0:0,0:0:0:0:
350,136,7894,6,0,P|339:186|333:241,1,90,2|0,0:0|0:0,0:0:0:0:
409,298,8175,1,0,0:0:0:0:
409,298,8269,2,0,P|421:248|428:187,1,90,8|0,0:0|0:0,0:0:0:0:
286,70,8644,6,0,P|241:70|178:82,1,90,2|0,0:0|0:0,0:0:0:0:
123,123,8925,1,0,0:0:0:0:
123,123,9019,2,0,L|133:173,1,45,8|0,0:0|0:0,0:0:0:0:
44,205,9206,2,0,L|37:255,1,45
103,334,9394,6,0,P|145:345|194:351,1,90,2|0,0:0|0:0,0:0:0:0:
283,328,9675,1,0,0:0:0:0:
283,328,9769,2,0,P|291:299|304:238,1,90,8|0,0:0|0:0,0:0:0:0:
223,104,10144,6,0,P|265:119|330:130,1,90,2|0,0:0|0:0,0:0:0:0:
399,176,10425,1,0,0:0:0:0:
399,176,10519,2,0,P|446:160|489:134,1,90,8|0,0:0|0:0,0:0:0:0:
316,216,10894,6,0,P|311:247|309:322,1,90,2|0,0:0|0:0,0:0:0:0:
232,266,11175,1,0,0:0:0:0:
232,266,11269,2,0,P|188:255|135:250,1,90,8|0,0:0|0:0,0:0:0:0:
46,365,11644,6,0,P|28:298|27:257,1,90,2|0,0:0|0:0,0:0:0:0:
49,185,11925,1,0,0:0:0:0:
49,185,12019,2,0,L|105:162,1,45,8|0,0:0|0:0,0:0:0:0:
143,93,12206,2,0,L|200:116,1,45
278,69,12394,6,0,P|314:95|356:145,1,90,6|0,0:0|0:0,0:0:0:0:
329,219,12675,1,0,0:0:0:0:
329,219,12769,2,0,P|285:228|220:228,1,90,8|0,0:0|0:0,0:0:0:0:
379,323,13144,6,0,P|417:310|471:278,1,90,2|0,0:0|0:0,0:0:0:0:
512,204,13425,1,0,0:0:0:0:
512,204,13519,2,0,P|513:138|506:87,1,90,8|0,0:0|0:0,0:0:0:0:
404,37,13894,6,0,P|353:43|298:61,1,90,2|0,0:0|0:0,0:0:0:0:
237,109,14175,1,0,0:0:0:0:
237,109,14269,2,0,P|181:103|129:93,1,90,8|0,0:0|0:0,0:0:0:0:
19,31,14644,6,0,P|33:96|58:149,1,90,2|0,0:0|0:0,0:0:0:0:
102,194,14925,1,0,0:0:0:0:
102,194,15018,2,0,L|86:250,1,45,8|0,0:0|0:0,0:0:0:0:
161,301,15206,2,0,L|168:348,1,45
271,365,15394,6,0,P|317:364|380:351,1,90,2|0,0:0|0:0,0:0:0:0:
459,311,15675,1,0,0:0:0:0:
459,311,15769,2,0,P|472:277|483:224,1,90,8|0,0:0|0:0,0:0:0:0:
426,82,16144,6,0,P|385:64|325:59,1,90,2|0,0:0|0:0,0:0:0:0:
246,95,16425,1,0,0:0:0:0:
246,95,16519,2,0,P|226:166|226:207,1,90,8|0,0:0|0:0,0:0:0:0:
304,318,16894,6,0,P|260:333|198:342,1,90,2|0,0:0|0:0,0:0:0:0:
125,354,17175,1,0,0:0:0:0:
125,354,17269,2,0,P|69:348|17:338,1,90,8|0,0:0|0:0,0:0:0:0:
5,180,17644,6,0,P|50:164|98:153,1,90,2|0,0:0|0:0,0:0:0:0:
183,186,17925,1,0,0:0:0:0:
183,186,18019,2,0,L|225:201,1,45,8|0,0:0|0:0,0:0:0:0:
301,141,18206,2,0,L|351:133,1,45
446,196,18394,6,0,P|444:235|423:310,1,90,10|0,0:0|0:0,0:0:0:0:
359,353,18675,1,0,0:0:0:0:
359,353,18769,2,0,P|310:354|253:350,1,90,8|0,0:0|0:0,0:0:0:0:
99,290,19144,1,10,0:0:0:0:
191,380,19331,1,0,0:0:0:0:
268,258,19519,2,0,P|265:217|253:147,1,90,8|0,0:0|0:0,0:0:0:0:
140,50,19894,5,10,0:0:0:0:
90,184,20081,1,2,0:0:0:0:
213,100,20269,1,8,0:0:0:0:
55,116,20456,1,2,0:0:0:0:
183,211,20644,1,10,0:0:0:0:
41,290,20831,1,2,0:0:0:0:
185,356,21019,1,8,0:0:0:0:
89,229,21206,1,2,0:0:0:0:
193,107,21394,6,0,P|235:99|283:93,1,90,14|0,0:0|0:0,0:0:0:0:
397,127,21675,1,0,0:0:0:0:
397,127,21769,2,0,P|394:171|385:232,1,90,8|0,0:0|0:0,0:0:0:0:
318,358,22144,1,10,0:0:0:0:
446,296,22331,1,0,0:0:0:0:
299,229,22519,2,0,P|257:232|187:239,1,90,8|0,0:0|0:0,0:0:0:0:
56,310,22894,5,10,0:0:0:0:
29,271,22987,1,0,0:0:0:0:
13,225,23081,1,0,0:0:0:0:
19,178,23175,1,0,0:0:0:0:
37,135,23269,1,10,0:0:0:0:
72,103,23362,1,0,0:0:0:0:
115,90,23456,1,0,0:0:0:0:
166,93,23550,1,0,0:0:0:0:
213,118,23644,6,0,L|248:201,2,60,2|2|2,0:0|0:0|0:0,0:0:0:0:
358,186,24019,2,0,L|334:307,1,90,12|0,0:0|0:0,0:0:0:0:
251,358,24394,5,6,0:0:0:0:
413,284,25519,6,0,P|446:279|499:267,1,72
338,364,25894,2,0,P|322:272|331:194,1,144
400,83,26456,2,0,P|391:124|377:171,1,72
245,187,26831,1,0,0:0:0:0:
176,56,27019,1,0,0:0:0:0:
308,115,27206,1,0,0:0:0:0:
157,211,27394,6,0,P|238:211|321:197,1,144
405,135,27956,1,0,0:0:0:0:
381,279,28144,2,0,P|424:289|456:292,1,72
300,201,28519,1,0,0:0:0:0:
201,318,28706,1,0,0:0:0:0:
80,218,28894,6,0,P|92:141|115:52,1,144
179,206,29456,1,0,0:0:0:0:
278,98,29644,2,0,L|185:113,1,72
355,22,30019,2,0,L|447:33,1,72
500,131,30394,5,0,0:0:0:0:
404,253,30769,2,0,P|446:249|494:246,1,72
350,337,31144,2,0,P|317:342|269:346,1,72
111,249,31519,1,0,0:0:0:0:
199,320,31706,1,0,0:0:0:0:
51,358,31894,6,0,P|33:259|32:193,1,144
92,61,32456,2,0,P|87:95|77:134,1,72
183,35,32831,1,0,0:0:0:0:
255,140,33019,1,0,0:0:0:0:
365,57,33206,1,0,0:0:0:0:
461,157,33394,6,0,P|459:227|443:305,1,144
290,347,33956,1,0,0:0:0:0:
349,185,34144,2,0,P|358:217|361:274,1,72
290,347,34519,1,0,0:0:0:0:
189,270,34706,1,0,0:0:0:0:
60,360,34894,6,0,P|71:274|87:187,1,144
138,69,35456,1,0,0:0:0:0:
214,163,35644,2,0,P|256:167|310:161,1,72
387,36,36019,2,0,P|392:71|403:120,1,72
449,244,36394,5,6,0:0:0:0:
272,321,36769,1,8,0:0:0:0:
182,277,36956,1,0,0:0:0:0:
343,375,37144,2,0,P|352:335|353:285,1,90,2|0,0:0|0:0,0:0:0:0:
250,108,37519,1,8,0:0:0:0:
360,166,37706,1,0,0:0:0:0:
234,248,37894,6,0,P|193:259|123:269,1,90,2|0,0:0|0:0,0:0:0:0:
41,237,38269,1,8,0:0:0:0:
84,72,38456,2,0,P|133:76|182:85,1,90,0|2,0:0|0:0,0:0:0:0:
272,131,38831,1,0,0:0:0:0:
396,214,39019,2,0,P|448:212|514:195,1,90,8|0,0:0|0:0,0:0:0:0:
450,30,39394,6,0,P|444:79|436:137,1,90,2|0,0:0|0:0,0:0:0:0:
272,131,39769,1,8,0:0:0:0:
396,214,39956,1,0,0:0:0:0:
338,75,40144,1,2,0:0:0:0:
236,218,40331,1,0,0:0:0:0:
90,117,40519,2,0,P|141:121|187:131,1,90,8|0,0:0|0:0,0:0:0:0:
91,337,40894,6,0,P|39:335|-2:325,1,90,2|0,0:0|0:0,0:0:0:0:
184,226,41269,1,8,0:0:0:0:
246,315,41456,1,0,0:0:0:0:
345,184,41644,2,0,P|387:174|461:174,1,90,2|0,0:0|0:0,0:0:0:0:
485,339,42019,1,8,0:0:0:0:
402,257,42206,1,0,0:0:0:0:
334,363,42394,5,6,0:0:0:0:
186,198,42769,1,8,0:0:0:0:
249,275,42956,1,0,0:0:0:0:
100,223,43144,2,0,P|109:174|124:129,1,90,2|0,0:0|0:0,0:0:0:0:
194,34,43519,1,8,0:0:0:0:
45,91,43706,1,0,0:0:0:0:
186,198,43894,6,0,P|231:195|290:186,1,90,2|0,0:0|0:0,0:0:0:0:
367,111,44269,1,8,0:0:0:0:
466,246,44456,2,0,P|482:187|490:147,1,90,0|2,0:0|0:0,0:0:0:0:
373,314,44831,1,0,0:0:0:0:
272,190,45019,2,0,P|231:182|163:183,1,90,8|0,0:0|0:0,0:0:0:0:
75,338,45394,6,0,P|86:287|94:231,1,90,2|0,0:0|0:0,0:0:0:0:
102,93,45769,1,8,0:0:0:0:
182,180,45956,1,0,0:0:0:0:
321,62,46144,2,0,P|273:71|211:84,1,90,2|0,0:0|0:3,0:0:0:0:
335,192,46519,2,0,P|378:204|433:214,1,90,8|0,0:0|0:0,0:0:0:0:
451,341,46894,6,0,P|461:252|474:144,1,180,2|8,0:0|0:0,0:0:0:0:
391,16,47456,1,0,0:0:0:0:
512,91,47644,1,2,0:0:0:0:
373,169,47831,1,8,0:0:0:0:
373,169,47925,1,8,0:0:0:0:
373,169,48019,1,8,0:0:0:0:
257,44,48206,1,2,0:0:0:0:
138,187,48394,6,0,P|88:186|38:170,1,90,6|0,0:0|0:0,0:0:0:0:
225,166,48769,2,0,P|240:202|257:257,1,90,8|0,0:0|0:0,0:0:0:0:
164,108,49144,2,0,P|156:62|154:18,1,90,2|0,0:0|0:0,0:0:0:0:
304,133,49519,1,8,0:0:0:0:
441,25,49706,6,0,L|418:146,1,90,0|2,0:0|0:0,0:0:0:0:
427,303,50081,1,0,0:0:0:0:
396,207,50269,1,8,0:0:0:0:
502,138,50456,1,0,0:0:0:0:
408,319,50644,2,0,L|299:329,1,90,2|0,0:0|0:0,0:0:0:0:
125,242,51019,2,0,L|236:256,1,90,8|0,0:0|0:0,0:0:0:0:
359,202,51394,5,6,0:0:0:0:
247,111,51581,1,0,0:0:0:0:
374,39,51769,2,0,P|418:32|463:29,1,90,8|0,0:0|0:0,0:0:0:0:
247,111,52144,2,0,P|194:107|152:98,1,90,2|0,0:0|0:0,0:0:0:0:
53,37,52519,1,8,0:0:0:0:
80,180,52706,6,0,L|62:283,1,90,0|2,0:0|0:0,0:0:0:0:
201,286,53081,1,0,0:0:0:0:
80,358,53269,1,8,0:0:0:0:
253,348,53456,1,0,0:0:0:0:
174,205,53644,1,2,0:0:0:0:
334,272,53831,1,8,0:0:0:0:
334,272,53925,1,8,0:0:0:0:
334,272,54019,1,8,0:0:0:0:
440,177,54206,1,2,0:0:0:0:
309,62,54394,6,0,P|271:43|220:30,1,90,6|0,0:0|0:0,0:0:0:0:
230,200,54769,2,0,P|279:175|316:142,1,90,8|0,0:0|0:0,0:0:0:0:
152,74,55144,2,0,P|149:127|156:165,1,90,2|0,0:0|0:0,0:0:0:0:
202,295,55519,1,8,0:0:0:0:
39,350,55706,6,0,P|91:339|132:335,1,90,0|2,0:0|0:0,0:0:0:0:
333,342,56081,1,0,0:0:0:0:
202,295,56269,1,8,0:0:0:0:
405,281,56456,1,0,0:0:0:0:
332,103,56644,2,0,L|313:204,1,90,2|0,0:0|0:0,0:0:0:0:
127,193,57019,2,0,P|185:184|246:168,1,90,8|0,0:0|0:0,0:0:0:0:
22,158,57394,5,14,0:0:0:0:
121,280,57581,1,0,0:0:0:0:
215,176,57769,1,8,0:0:0:0:
240,333,57956,1,0,0:0:0:0:
350,211,58144,2,0,P|363:263|368:323,1,90,10|0,0:0|0:0,0:0:0:0:
433,149,58519,2,0,P|445:191|455:241,1,90,8|0,0:0|0:0,0:0:0:0:
335,66,58894,5,10,0:0:0:0:
270,185,59081,1,0,0:0:0:0:
182,61,59269,1,8,0:0:0:0:
142,197,59456,1,0,0:0:0:0:
34,94,59644,2,0,P|24:138|20:184,1,90,10|0,0:0|0:0,0:0:0:0:
83,334,60019,2,0,P|124:342|191:347,1,90,8|0,0:0|0:0,0:0:0:0:
351,235,60394,5,10,0:0:0:0:
250,336,60581,1,0,0:0:0:0:
181,201,60769,1,8,0:0:0:0:
309,152,60956,1,0,0:0:0:0:
439,202,61144,2,0,P|452:140|466:78,1,90,10|0,0:0|0:0,0:0:0:0:
493,308,61519,2,0,P|452:317|389:325,1,90,8|0,0:0|0:0,0:0:0:0:
237,266,61894,5,10,0:0:0:0:
133,350,62081,1,0,0:0:0:0:
306,319,62269,1,8,0:0:0:0:
117,254,62456,1,0,0:0:0:0:
354,172,62644,2,0,L|243:156,1,90,10|0,0:0|0:0,0:0:0:0:
115,76,63019,2,0,L|221:60,1,90,8|0,0:0|0:0,0:0:0:0:
361,40,63394,5,2,0:0:0:0:
394,61,63487,1,0,0:0:0:0:
414,96,63581,1,0,0:0:0:0:
417,136,63675,1,0,0:0:0:0:
403,174,63769,1,2,0:0:0:0:
383,209,63862,1,0,0:0:0:0:
379,249,63956,1,0,0:0:0:0:
391,287,64050,1,0,0:0:0:0:
414,320,64144,6,0,L|378:370,3,45,2|0|0|0,0:0|0:0|0:0|0:0,0:0:0:0:
287,308,64519,2,0,L|259:247,3,45,2|0|0|0,0:0|0:0|0:0|0:0,0:0:0:0:
182,357,64894,5,2,0:0:0:0:
143,368,64987,1,0,0:0:0:0:
102,369,65081,1,0,0:0:0:0:
66,349,65175,1,0,0:0:0:0:
49,311,65269,1,2,0:0:0:0:
45,271,65362,1,0,0:0:0:0:
67,237,65456,1,0,0:0:0:0:
102,217,65550,1,0,0:0:0:0:
142,220,65644,6,0,L|187:278,3,45,2|0|0|0,0:0|0:0|0:0|0:0,0:0:0:0:
247,173,66019,2,0,L|276:125,3,45,2|0|0|0,0:0|0:0|0:0|0:0,0:0:0:0:
328,250,66394,5,6,0:0:0:0:
58,72,67331,5,0,0:0:0:0:
194,157,67519,1,0,0:0:0:0:
41,220,67706,1,0,0:0:0:0:
165,55,67894,6,0,P|215:61|299:78,1,107.999996704102,6|0,0:0|0:0,0:0:0:0:
304,103,68175,2,0,P|364:102|436:86,1,107.999996704102
451,64,68456,1,0,0:0:0:0:
367,196,68644,1,2,0:0:0:0:
460,296,68831,1,0,0:0:0:0:
499,153,69019,1,8,0:0:0:0:
371,287,69206,1,0,0:0:0:0:
205,205,69394,6,0,P|146:197|92:191,1,107.999996704102,2|0,0:0|0:0,0:0:0:0:
52,172,69675,2,0,L|68:290,1,107.999996704102
48,324,69956,1,0,0:0:0:0:
195,302,70144,1,2,0:0:0:0:
282,371,70331,1,0,0:0:0:0:
253,201,70519,1,8,0:0:0:0:
117,335,70706,1,0,0:0:0:0:
50,138,70894,6,0,L|64:252,1,107.999996704102,2|0,0:0|0:0,0:0:0:0:
104,208,71175,2,0,P|148:186|224:182,1,107.999996704102
253,201,71456,1,0,0:0:0:0:
337,331,71644,1,2,0:0:0:0:
405,230,71831,1,0,0:0:0:0:
250,285,72019,1,8,0:0:0:0:
435,326,72206,1,0,0:0:0:0:
303,167,72394,6,0,P|419:173|492:85,1,215.999993408203,2|10,0:0|0:0,0:0:0:0:
174,54,72956,1,2,0:0:0:0:
174,54,73331,1,0,0:0:0:0:
199,183,73519,1,0,0:0:0:0:
227,320,73706,1,0,0:0:0:0:
383,375,73894,6,0,P|404:309|415:244,1,107.999996704102,6|0,0:0|0:0,0:0:0:0:
444,231,74175,2,0,P|433:183|392:119,1,107.999996704102
356,118,74456,1,0,0:0:0:0:
199,183,74644,1,2,0:0:0:0:
332,251,74831,1,0,0:0:0:0:
249,97,75019,1,8,0:0:0:0:
135,245,75206,1,0,0:0:0:0:
277,370,75394,6,0,P|341:365|393:352,1,107.999996704102,2|0,0:0|0:0,0:0:0:0:
428,362,75675,2,0,P|439:311|448:246,1,107.999996704102
425,208,75956,1,0,0:0:0:0:
281,126,76144,1,2,0:0:0:0:
338,264,76331,1,0,0:0:0:0:
444,128,76519,1,8,0:0:0:0:
306,28,76706,1,0,0:0:0:0:
172,139,76894,6,0,P|183:190|195:252,1,107.999996704102,2|0,0:0|0:0,0:0:0:0:
164,272,77175,2,0,P|100:272|37:257,1,107.999996704102
28,227,77456,1,0,0:0:0:0:
106,77,77644,1,2,0:0:0:0:
254,119,77831,1,0,0:0:0:0:
87,167,78019,1,8,0:0:0:0:
265,219,78206,1,0,0:0:0:0:
87,331,78394,6,0,P|191:300|326:328,1,215.999993408203,2|8,0:0|0:0,0:0:0:0:
372,215,78956,1,0,0:0:0:0:
491,293,79144,1,2,0:0:0:0:
393,370,79331,1,2,0:0:0:0:
509,199,79519,1,8,0:0:0:0:
509,199,79612,1,8,0:0:0:0:
509,199,79706,1,8,0:0:0:0:
384,76,79894,5,6,0:0:0:0:
236,155,80081,1,0,0:0:0:0:
427,150,80269,1,8,0:0:0:0:
313,23,80456,1,0,0:0:0:0:
340,216,80644,5,2,0:0:0:0:
185,84,80831,1,0,0:0:0:0:
137,267,81019,1,8,0:0:0:0:
290,143,81206,1,0,0:0:0:0:
84,191,81394,5,2,0:0:0:0:
229,313,81581,1,0,0:0:0:0:
41,365,81769,1,8,0:0:0:0:
222,232,81956,1,0,0:0:0:0:
392,363,82144,6,0,P|406:320|413:263,1,90,2|0,0:0|0:0,0:0:0:0:
211,142,82519,2,0,P|214:183|222:235,1,90,8|0,0:0|0:0,0:0:0:0:
354,160,82894,5,6,0:0:0:0:
202,312,83081,1,0,0:0:0:0:
396,359,83269,1,8,0:0:0:0:
221,231,83456,1,0,0:0:0:0:
439,213,83644,5,2,0:0:0:0:
305,360,83831,1,0,0:0:0:0:
248,141,84019,1,8,0:0:0:0:
419,304,84206,1,0,0:0:0:0:
192,233,84394,5,2,0:0:0:0:
423,163,84581,1,0,0:0:0:0:
191,64,84769,1,8,0:0:0:0:
337,256,84956,1,0,0:0:0:0:
98,349,85144,6,0,P|136:358|217:365,1,90,2|0,0:0|0:0,0:0:0:0:
371,170,85519,2,0,P|328:173|268:190,1,90,8|0,0:0|0:0,0:0:0:0:
96,246,85894,5,6,0:0:0:0:
278,314,86081,1,0,0:0:0:0:
151,182,86269,1,8,0:0:0:0:
32,330,86456,1,0,0:0:0:0:
253,218,86644,5,2,0:0:0:0:
64,126,86831,1,0,0:0:0:0:
258,85,87019,1,8,0:0:0:0:
38,213,87206,1,0,0:0:0:0:
279,360,87394,5,8,0:0:0:0:
279,360,87487,1,8,0:0:0:0:
279,360,87581,1,8,0:0:0:0:
279,360,87675,1,8,0:0:0:0:
279,360,87769,2,0,P|326:368|386:369,1,90,2|0,0:0|0:0,0:0:0:0:
512,233,88144,2,0,P|466:239|407:257,1,90,2|0,0:0|0:0,0:0:0:0:
249,116,88519,2,0,P|299:120|357:134,1,90,2|0,0:0|0:0,0:0:0:0:
173,280,88894,5,6,0:0:0:0:
89,152,89081,1,0,0:0:0:0:
238,224,89269,1,8,0:0:0:0:
73,300,89456,1,0,0:0:0:0:
233,372,89644,1,8,0:0:0:0:
233,372,89737,1,8,0:0:0:0:
233,372,89831,1,8,0:0:0:0:
343,254,90019,1,8,0:0:0:0:
169,301,90206,1,0,0:0:0:0:
341,376,90394,5,8,0:0:0:0:
354,375,90487,1,8,0:0:0:0:
367,374,90581,1,8,0:0:0:0:
380,373,90675,1,8,0:0:0:0:
393,372,90769,1,8,0:0:0:0:
484,315,90956,1,2,0:0:0:0:
401,204,91144,5,8,0:0:0:0:
399,217,91237,1,8,0:0:0:0:
397,230,91331,1,8,0:0:0:0:
503,106,91519,1,8,0:0:0:0:
505,119,91612,1,8,0:0:0:0:
507,131,91706,1,8,0:0:0:0:
