osu file format v14

[General]
AudioFilename: audio.mp3
AudioLeadIn: 0
PreviewTime: 67237
Countdown: 0
SampleSet: Soft
StackLeniency: 0.7
Mode: 0
LetterboxInBreaks: 0
WidescreenStoryboard: 1

[Editor]
DistanceSpacing: 1
BeatDivisor: 4
GridSize: 4
TimelineZoom: 1.7

[Metadata]
Title:Jounetsu Utopia
TitleUnicode:蒸熱♨ユートピア
Artist:Karen, Koharu Meu, Harukawa Akari
ArtistUnicode:華憐、小春めう、春河あかり
Creator:Asuka_-
Version:Hard
Source:恋と恋するユートピア
Tags:eroge opening Denki 電気 LoveMatic Koipia Koi to Suru
BeatmapID:1212828
BeatmapSetID:572329

[Difficulty]
HPDrainRate:6
CircleSize:4
OverallDifficulty:6.5
ApproachRate:8
SliderMultiplier:1.6
SliderTickRate:1

[Events]
//Background and Video events
0,0,"BG.jpg",0,0
//Break Periods
//Storyboard Layer 0 (Background)
//Storyboard Layer 1 (Fail)
//Storyboard Layer 2 (Pass)
//Storyboard Layer 3 (Foreground)
//Storyboard Sound Samples

[TimingPoints]
394,375,4,2,1,55,1,0
6394,-100,4,2,2,55,0,0
24394,-111.111111111111,4,2,2,55,0,0
25519,-111.111111111111,4,2,1,45,0,0
36769,-100,4,2,1,55,0,0
48394,-100,4,2,2,55,0,0
67894,-100,4,2,2,65,0,1
79894,-100,4,2,1,55,0,0

[Colours]
Combo1 : 137,217,243
Combo2 : 255,149,98
Combo3 : 255,128,128
Combo4 : 128,255,128

[HitObjects]
51,80,394,6,0,P|89:96|141:96,1,80,6|0,0:0|0:0,0:0:0:0:
190,48,769,2,0,P|170:111|195:223,1,160
227,269,1331,1,0,0:0:0:0:
293,313,1519,2,0,P|337:322|403:317,1,80,2|0,0:0|0:0,0:0:0:0:
446,291,1894,5,2,0:0:0:0:
401,225,2081,1,0,0:0:0:0:
471,186,2269,2,0,P|479:145|483:85,1,80,2|0,0:0|0:0,0:0:0:0:
414,63,2644,2,0,P|421:30|426:-5,2,53.3333333333333
368,91,3019,2,0,P|328:90|264:78,1,80,2|0,0:0|0:0,0:0:0:0:
217,46,3394,6,0,P|212:89|218:129,1,80,6|0,0:0|0:0,0:0:0:0:
285,167,3769,2,0,P|243:220|145:215,1,160,2|0,0:0|0:0,0:0:0:0:
98,166,4331,1,0,0:0:0:0:
55,98,4519,2,0,P|49:140|43:186,1,80,2|0,0:0|0:0,0:0:0:0:
10,250,4894,5,2,0:0:0:0:
63,309,5081,1,0,0:0:0:0:
142,317,5269,2,0,P|187:309|228:280,1,80,2|0,0:0|0:0,0:0:0:0:
259,224,5644,2,0,L|294:262,2,53.3333333333333
230,178,6019,2,0,P|238:129|249:84,1,80,2|0,0:0|0:0,0:0:0:0:
290,33,6394,5,6,0:0:0:0:
376,10,6581,1,0,0:0:0:0:
460,34,6769,2,0,P|476:79|483:137,1,80,8|0,0:0|0:0,0:0:0:0:
470,197,7144,1,2,0:0:0:0:
391,236,7331,1,0,0:0:0:0:
310,200,7519,2,0,P|269:193|214:190,1,80,8|0,0:0|0:0,0:0:0:0:
176,259,7894,6,0,P|80:269|26:215,1,160,2|8,0:0|0:0,0:0:0:0:
2,149,8456,1,0,0:0:0:0:
35,67,8644,2,0,P|69:53|129:44,1,80,2|0,0:0|0:0,0:0:0:0:
176,104,9019,2,0,P|193:61|202:-1,1,80,8|0,0:0|0:0,0:0:0:0:
280,64,9394,5,2,0:0:0:0:
321,141,9581,1,0,0:0:0:0:
290,223,9769,2,0,P|342:215|387:199,1,80,8|0,0:0|0:0,0:0:0:0:
419,135,10144,1,2,0:0:0:0:
473,204,10331,1,0,0:0:0:0:
446,288,10519,2,0,P|405:314|368:329,1,80,8|0,0:0|0:0,0:0:0:0:
294,359,10894,6,0,P|210:366|134:319,1,160,2|8,0:0|0:0,0:0:0:0:
92,261,11456,1,0,0:0:0:0:
141,189,11644,2,0,P|154:141|158:99,1,80,2|0,0:0|0:0,0:0:0:0:
238,147,12019,2,0,P|284:138|340:106,1,80,8|0,0:0|0:0,0:0:0:0:
383,70,12394,5,6,0:0:0:0:
436,139,12581,1,0,0:0:0:0:
372,200,12769,2,0,P|365:240|358:298,1,80,8|0,0:0|0:0,0:0:0:0:
427,337,13144,1,2,0:0:0:0:
359,279,13331,1,0,0:0:0:0:
300,345,13519,2,0,P|263:357|189:356,1,80,8|0,0:0|0:0,0:0:0:0:
146,315,13894,6,0,P|134:230|117:149,1,160,2|8,0:0|0:0,0:0:0:0:
64,88,14456,1,0,0:0:0:0:
125,24,14644,2,0,P|161:35|205:54,1,80,2|0,0:0|0:0,0:0:0:0:
234,132,15019,2,0,P|289:120|336:93,1,80,8|0,0:0|0:0,0:0:0:0:
376,51,15394,5,2,0:0:0:0:
445,104,15581,1,0,0:0:0:0:
495,176,15769,2,0,P|490:218|472:284,1,80,8|0,0:0|0:0,0:0:0:0:
435,330,16144,1,2,0:0:0:0:
360,283,16331,1,0,0:0:0:0:
282,239,16519,2,0,P|244:245|182:266,1,80,8|0,0:0|0:0,0:0:0:0:
132,307,16894,6,0,P|70:213|82:150,1,160,2|8,0:0|0:0,0:0:0:0:
135,111,17456,1,0,0:0:0:0:
207,161,17644,2,0,P|246:169|311:173,1,80,2|0,0:0|0:0,0:0:0:0:
310,88,18019,2,0,P|356:79|418:73,1,80,8|0,0:0|0:0,0:0:0:0:
468,113,18394,5,10,0:0:0:0:
438,195,18581,1,0,0:0:0:0:
493,263,18769,2,0,P|456:274|403:281,1,80,8|0,0:0|0:0,0:0:0:0:
401,367,19144,2,0,P|361:352|317:325,1,80,10|0,0:0|0:0,0:0:0:0:
245,363,19519,2,0,P|235:311|232:255,1,80,8|0,0:0|0:0,0:0:0:0:
222,194,19894,6,0,P|207:252|182:304,1,80,10|2,0:0|0:0,0:0:0:0:
148,342,20269,1,8,0:0:0:0:
60,350,20456,1,2,0:0:0:0:
2,283,20644,2,0,P|7:234|19:172,1,80,10|2,0:0|0:0,0:0:0:0:
56,127,21019,1,8,0:0:0:0:
138,96,21206,1,2,0:0:0:0:
224,114,21394,5,14,0:0:0:0:
273,186,21581,1,0,0:0:0:0:
224,260,21769,2,0,P|180:285|147:296,1,80,8|0,0:0|0:0,0:0:0:0:
215,355,22144,2,0,P|263:364|317:366,1,80,10|0,0:0|0:0,0:0:0:0:
378,341,22519,2,0,P|395:305|413:259,1,80,8|0,0:0|0:0,0:0:0:0:
407,179,22894,6,0,L|387:121,3,40,10|0|0|0,0:0|0:0|0:0|0:0,0:0:0:0:
345,138,23269,2,0,L|299:113,3,40,10|0|0|0,0:0|0:0|0:0|0:0,0:0:0:0:
284,160,23644,6,0,L|211:174,2,53.3333333333333,2|2|2,0:0|0:0|0:0,0:0:0:0:
250,215,24019,1,14,0:0:0:0:
129,135,24394,6,0,P|100:213|117:284,1,143.999995605469,6|0,0:0|0:0,0:0:0:0:
153,328,24956,1,0,0:0:0:0:
218,358,25144,1,0,0:0:0:0:
359,332,25519,2,0,P|382:281|388:251,1,71.9999978027344
433,211,25894,6,0,P|355:248|297:233,1,143.999995605469
249,189,26456,1,0,0:0:0:0:
190,146,26644,2,0,P|147:146|93:164,1,71.9999978027344
59,194,27019,2,0,L|40:286,1,71.9999978027344
82,326,27394,6,0,P|178:314|231:327,2,143.999995605469
44,264,28331,1,0,0:0:0:0:
99,218,28519,2,0,P|109:172|112:132,1,71.9999978027344
67,90,28894,6,0,P|132:48|215:65,1,143.999995605469
258,89,29456,1,0,0:0:0:0:
318,126,29644,2,0,P|356:122|403:110,1,71.9999978027344
356,178,30019,2,0,P|342:213|328:265,1,71.9999978027344
365,310,30394,5,0,0:0:0:0:
229,260,30769,2,0,P|222:300|217:335,1,71.9999978027344
217,331,31144,1,0,0:0:0:0:
74,307,31519,2,0,P|59:249|61:215,1,71.9999978027344
22,174,31894,6,0,P|59:102|137:87,1,143.999995605469
185,101,32456,1,0,0:0:0:0:
236,151,32644,2,0,P|230:187|214:231,1,71.9999978027344
177,279,33019,2,0,P|229:263|274:258,1,71.9999978027344
310,293,33394,6,0,P|380:320|472:340,2,143.999995605469
246,260,34331,1,0,0:0:0:0:
296,208,34519,2,0,P|310:167|318:117,1,71.9999978027344
359,81,34894,6,0,P|295:25|218:44,1,143.999995605469
172,52,35456,1,0,0:0:0:0:
115,97,35644,2,0,P|113:130|124:190,1,71.9999978027344
178,207,36019,2,0,P|179:254|171:289,1,71.9999978027344
133,337,36394,5,6,0:0:0:0:
273,260,36769,2,0,P|317:266|374:288,1,80,8|0,0:0|0:0,0:0:0:0:
416,322,37144,1,2,0:0:0:0:
416,322,37331,1,0,0:0:0:0:
484,366,37519,2,0,L|502:272,1,80,8|0,0:0|0:0,0:0:0:0:
438,237,37894,6,0,L|469:66,1,160,2|8,0:0|0:0,0:0:0:0:
417,142,38456,1,0,0:0:0:0:
348,188,38644,2,0,P|307:202|254:195,1,80,2|0,0:0|0:0,0:0:0:0:
213,143,39019,2,0,P|168:133|115:132,1,80,8|0,0:0|0:0,0:0:0:0:
72,79,39394,6,0,P|81:155|97:251,2,160,2|8|2,0:0|0:0|0:0,0:0:0:0:
131,25,40331,1,0,0:0:0:0:
200,64,40519,2,0,P|231:73|288:79,1,80,8|0,0:0|0:0,0:0:0:0:
339,27,40894,6,0,P|378:92|352:181,1,160,2|8,0:0|0:0,0:0:0:0:
298,221,41456,1,0,0:0:0:0:
238,167,41644,2,0,P|209:153|154:139,1,80,2|0,0:0|0:0,0:0:0:0:
128,212,42019,2,0,P|85:229|47:232,1,80,8|0,0:0|0:0,0:0:0:0:
1,169,42394,5,6,0:0:0:0:
33,325,42769,2,0,P|66:331|132:332,1,80,8|0,0:0|0:0,0:0:0:0:
191,321,43144,1,2,0:0:0:0:
191,321,43331,1,0,0:0:0:0:
262,278,43519,2,0,P|271:231|277:188,1,80,8|0,0:0|0:0,0:0:0:0:
331,141,43894,6,0,P|277:89|175:117,1,160,2|8,0:0|0:0,0:0:0:0:
136,149,44456,1,0,0:0:0:0:
101,221,44644,2,0,P|105:262|112:318,1,80,2|0,0:0|0:0,0:0:0:0:
155,366,45019,2,0,P|192:372|264:373,1,80,8|0,0:0|0:0,0:0:0:0:
298,325,45394,6,0,P|284:239|296:153,2,160,2|8|2,0:0|0:0|0:0,0:0:0:0:
364,369,46331,1,0,0:3:0:0:
437,337,46519,2,0,P|452:300|465:239,1,80,8|0,0:0|0:0,0:0:0:0:
507,194,46894,6,0,P|507:102|434:42,1,160,2|8,0:0|0:0,0:0:0:0:
388,28,47456,1,0,0:0:0:0:
320,69,47644,2,0,P|281:75|206:76,1,80,2|0,0:0|0:0,0:0:0:0:
169,39,48019,2,0,P|163:73|150:134,1,80,8|2,0:0|0:0,0:0:0:0:
86,161,48394,6,0,P|72:204|70:258,1,80,6|0,0:0|0:0,0:0:0:0:
148,225,48769,2,0,P|145:265|154:317,1,80,8|0,0:0|0:0,0:0:0:0:
224,272,49144,2,0,P|230:317|245:356,1,80,2|0,0:0|0:0,0:0:0:0:
306,301,49519,1,8,0:0:0:0:
356,362,49706,6,0,P|395:302|365:191,1,160,0|0,0:0|0:0,0:0:0:0:
333,156,50269,1,8,0:0:0:0:
262,192,50456,1,0,0:0:0:0:
191,153,50644,2,0,B|166:148|166:148|110:156,2,80,2|0|8,0:0|0:0|0:0,0:0:0:0:
245,303,51394,6,0,P|284:315|338:320,1,80,6|0,0:0|0:0,0:0:0:0:
403,312,51769,2,0,P|418:265|415:210,1,80,8|0,0:0|0:0,0:0:0:0:
414,154,52144,1,2,0:0:0:0:
372,86,52331,1,0,0:0:0:0:
302,45,52519,1,8,0:0:0:0:
222,34,52706,6,0,P|175:37|140:48,1,80,0|2,0:0|0:0,0:0:0:0:
74,85,53081,1,0,0:0:0:0:
115,153,53269,2,0,P|104:208|91:254,1,80,8|0,0:0|0:0,0:0:0:0:
36,282,53644,2,0,P|127:266|187:294,1,160,2|8,0:0|0:0,0:0:0:0:
328,365,54394,6,0,P|341:318|347:278,1,80,6|0,0:0|0:0,0:0:0:0:
425,293,54769,2,0,P|408:239|371:194,1,80,8|0,0:0|0:0,0:0:0:0:
445,156,55144,2,0,P|412:145|348:148,1,80,2|0,0:0|0:0,0:0:0:0:
313,203,55519,1,8,0:0:0:0:
258,261,55706,6,0,P|220:269|175:271,1,80,0|2,0:0|0:0,0:0:0:0:
132,334,56081,2,0,P|145:241|120:173,1,160,0|0,0:0|0:0,0:0:0:0:
44,175,56644,2,0,P|51:128|66:83,1,80,2|0,0:0|0:0,0:0:0:0:
46,19,57019,2,0,P|89:24|128:46,1,80,8|0,0:0|0:0,0:0:0:0:
188,84,57394,6,0,P|258:114|354:90,1,160,10|8,0:0|0:0,0:0:0:0:
411,67,57956,1,0,0:0:0:0:
401,146,58144,2,0,P|405:187|417:241,1,80,10|0,0:0|0:0,0:0:0:0:
488,248,58519,2,0,P|486:299|475:346,1,80,8|0,0:0|0:0,0:0:0:0:
401,345,58894,6,0,P|311:326|224:365,1,160,10|8,0:0|0:0,0:0:0:0:
172,371,59456,1,0,0:0:0:0:
99,337,59644,2,0,P|91:294|86:237,1,80,10|0,0:0|0:0,0:0:0:0:
140,198,60019,2,0,P|151:149|161:98,1,80,8|0,0:0|0:0,0:0:0:0:
96,66,60394,6,0,P|170:71|261:91,1,160,10|8,0:0|0:0,0:0:0:0:
324,125,60956,1,0,0:0:0:0:
379,182,61144,2,0,P|368:228|353:272,1,80,10|0,0:0|0:0,0:0:0:0:
302,317,61519,2,0,P|271:328|204:328,1,80,8|0,0:0|0:0,0:0:0:0:
149,359,61894,6,0,P|106:280|134:201,1,160,10|8,0:0|0:0,0:0:0:0:
167,150,62456,1,0,0:0:0:0:
241,121,62644,2,0,P|281:126|326:142,1,80,10|0,0:0|0:0,0:0:0:0:
386,181,63019,2,0,P|429:186|485:169,1,80,8|0,0:0|0:0,0:0:0:0:
507,110,63394,6,0,L|523:44,3,40,2|0|0|0,0:0|0:0|0:0|0:0,0:0:0:0:
468,66,63769,2,0,L|433:25,3,40,2|0|0|0,0:0|0:0|0:0|0:0,0:0:0:0:
419,78,64144,2,0,L|346:94,3,40,2|0|0|0,0:0|0:0|0:0|0:0,0:0:0:0:
371,134,64519,1,2,0:0:0:0:
211,241,64894,6,0,L|167:250,3,40,2|0|0|0,0:0|0:0|0:0|0:0,0:0:0:0:
199,288,65269,2,0,L|167:333,3,40,2|0|0|0,0:0|0:0|0:0|0:0,0:0:0:0:
223,327,65644,2,0,L|235:374,3,40,2|0|0|0,0:0|0:0|0:0|0:0,0:0:0:0:
277,348,66019,2,0,L|317:367,3,40
338,324,66394,1,12,0:0:0:0:
88,61,67331,5,0,0:0:0:0:
88,61,67519,1,0,0:0:0:0:
88,61,67706,1,0,0:0:0:0:
88,61,67894,6,0,P|129:69|170:77,1,80,6|0,0:0|0:0,0:0:0:0:
166,76,68175,1,0,0:0:0:0:
166,76,68269,1,8,0:0:0:0:
251,54,68456,2,0,P|294:45|358:53,1,80,0|2,0:0|0:0,0:0:0:0:
414,71,68831,1,0,0:0:0:0:
464,143,69019,1,8,0:0:0:0:
440,227,69206,1,0,0:0:0:0:
372,283,69394,6,0,P|330:282|281:275,1,80,2|0,0:0|0:0,0:0:0:0:
292,277,69675,1,0,0:0:0:0:
292,277,69769,1,8,0:0:0:0:
224,221,69956,2,0,P|177:226|129:237,1,80,0|2,0:0|0:0,0:0:0:0:
101,309,70331,1,0,0:0:0:0:
34,251,70519,1,8,0:0:0:0:
81,176,70706,1,0,0:0:0:0:
14,117,70894,6,0,L|28:31,1,80,2|0,0:0|0:0,0:0:0:0:
26,38,71175,1,0,0:0:0:0:
26,38,71269,1,8,0:0:0:0:
96,90,71456,2,0,P|138:97|197:94,1,80,0|2,0:0|0:0,0:0:0:0:
259,70,71831,1,0,0:0:0:0:
343,43,72019,1,8,0:0:0:0:
427,65,72206,1,0,0:0:0:0:
482,137,72394,6,0,P|492:242|430:298,1,160,2|8,0:0|0:0,0:0:0:0:
378,310,72956,1,2,0:0:0:0:
254,208,73331,5,0,0:0:0:0:
254,208,73519,1,0,0:0:0:0:
254,208,73706,1,0,0:0:0:0:
254,208,73894,6,0,L|237:290,1,80,6|0,0:0|0:0,0:0:0:0:
237,286,74175,1,0,0:0:0:0:
237,286,74269,1,8,0:0:0:0:
188,359,74456,2,0,P|140:369|86:359,1,80,0|2,0:0|0:0,0:0:0:0:
35,318,74831,1,0,0:0:0:0:
5,234,75019,1,8,0:0:0:0:
28,149,75206,1,0,0:0:0:0:
82,79,75394,6,0,P|126:62|172:55,1,80,2|0,0:0|0:0,0:0:0:0:
158,56,75675,1,0,0:0:0:0:
158,56,75769,1,8,0:0:0:0:
227,109,75956,2,0,P|221:150|209:208,1,80,0|2,0:0|0:0,0:0:0:0:
144,242,76331,1,0,0:0:0:0:
202,307,76519,1,8,0:0:0:0:
278,264,76706,1,0,0:0:0:0:
331,333,76894,6,0,L|415:320,1,80,2|0,0:0|0:0,0:0:0:0:
410,320,77175,1,0,0:0:0:0:
410,320,77269,1,8,0:0:0:0:
485,276,77456,2,0,P|493:233|496:189,1,80,0|2,0:0|0:0,0:0:0:0:
478,110,77831,1,0,0:0:0:0:
411,52,78019,1,8,0:0:0:0:
323,48,78206,1,0,0:0:0:0:
255,104,78394,6,0,P|223:175|252:253,1,160,2|8,0:0|0:0,0:0:0:0:
332,274,78956,2,0,P|291:281|239:286,1,80,0|2,0:0|0:0,0:0:0:0:
166,266,79331,1,0,0:0:0:0:
101,326,79519,1,8,0:0:0:0:
35,268,79706,1,8,0:0:0:0:
101,210,79894,6,0,P|115:160|125:110,1,80,6|0,0:0|0:0,0:0:0:0:
68,52,80269,1,8,0:0:0:0:
117,123,80456,1,0,0:0:0:0:
186,69,80644,2,0,P|227:62|272:60,1,80,2|0,0:0|0:0,0:0:0:0:
345,117,81019,1,8,0:0:0:0:
270,70,81206,1,0,0:0:0:0:
240,153,81394,6,0,P|244:192|260:257,1,80,2|0,0:0|0:0,0:0:0:0:
328,296,81769,1,8,0:0:0:0:
259,240,81956,1,0,0:0:0:0:
212,315,82144,2,0,B|180:322|180:322|128:317,2,80,2|0|8,0:0|0:0|0:0,0:0:0:0:
38,325,82894,6,0,P|49:276|62:225,1,80,6|0,0:0|0:0,0:0:0:0:
129,181,83269,1,8,0:0:0:0:
65,240,83456,1,0,0:0:0:0:
133,295,83644,2,0,P|176:292|228:280,1,80,2|0,0:0|0:0,0:0:0:0:
289,229,84019,1,8,0:0:0:0:
219,279,84206,1,0,0:0:0:0:
286,335,84394,6,0,P|325:343|380:349,1,80,2|0,0:0|0:0,0:0:0:0:
451,296,84769,1,8,0:0:0:0:
375,343,84956,1,0,0:0:0:0:
339,262,85144,2,0,B|332:215|332:215|340:174,2,80,2|0|8,0:0|0:0|0:0,0:0:0:0:
163,268,85894,6,0,P|170:223|187:168,1,80,6|0,0:0|0:0,0:0:0:0:
252,125,86269,1,8,0:0:0:0:
186,184,86456,1,0,0:0:0:0:
130,115,86644,2,0,P|94:118|40:127,1,80,2|0,0:0|0:0,0:0:0:0:
7,212,87019,1,8,0:0:0:0:
46,131,87206,1,0,0:0:0:0:
76,48,87394,6,0,P|136:40|172:42,1,80,8|0,0:0|0:0,0:0:0:0:
232,82,87769,2,0,P|275:92|318:102,1,80,2|0,0:0|0:0,0:0:0:0:
395,80,88144,2,0,L|374:181,2,80,2|0|8,0:0|0:0|0:0,0:0:0:0:
476,43,88706,1,0,0:0:0:0:
467,130,88894,6,0,P|477:175|485:222,1,80,6|0,0:0|0:0,0:0:0:0:
420,271,89269,2,0,P|410:301|372:371,1,80,8|0,0:0|0:0,0:0:0:0:
302,341,89644,2,0,P|263:338|202:318,1,80,8|8,0:0|0:0,0:0:0:0:
135,330,90019,2,0,P|114:288|101:245,1,80,8|0,0:0|0:0,0:0:0:0:
79,171,90394,6,0,P|124:181|180:190,1,80,8|8,0:0|0:0,0:0:0:0:
237,224,90769,2,0,P|281:208|312:193,1,80,8|0,0:0|0:0,0:0:0:0:
395,216,91144,2,0,P|412:179|426:134,1,80,8|8,0:0|0:0,0:0:0:0:
500,98,91519,2,0,P|484:56|452:14,1,80,8|8,0:0|0:0,0:0:0:0:
