osu file format v14

[General]
AudioFilename: audio.mp3
AudioLeadIn: 0
PreviewTime: 67237
Countdown: 0
SampleSet: Soft
StackLeniency: 0.7
Mode: 0
LetterboxInBreaks: 0
WidescreenStoryboard: 1

[Editor]
Bookmarks: 48344,67844
DistanceSpacing: 1
BeatDivisor: 4
GridSize: 4
TimelineZoom: 1

[Metadata]
Title:Jounetsu Utopia
TitleUnicode:蒸熱♨ユートピア
Artist:Karen, Koharu Meu, Harukawa Akari
ArtistUnicode:華憐、小春めう、春河あかり
Creator:Asuka_-
Version:Easy
Source:恋と恋するユートピア
Tags:eroge opening Denki 電気 LoveMatic Koipia Koi to Suru
BeatmapID:1212737
BeatmapSetID:572329

[Difficulty]
HPDrainRate:2.6
CircleSize:2.5
OverallDifficulty:3
ApproachRate:3
SliderMultiplier:0.84
SliderTickRate:1

[Events]
//Background and Video events
0,0,"BG.jpg",0,0
//Break Periods
//Storyboard Layer 0 (Background)
//Storyboard Layer 1 (Fail)
//Storyboard Layer 2 (Pass)
//Storyboard Layer 3 (Foreground)
//Storyboard Sound Samples

[TimingPoints]
394,375,4,2,1,55,1,0
6394,-100,4,2,2,55,0,0
25519,-100,4,2,1,45,0,0
36769,-100,4,2,1,55,0,0
48394,-100,4,2,2,55,0,0
67894,-100,4,2,2,55,0,1
79894,-100,4,2,1,55,0,0

[Colours]
Combo1 : 137,217,243
Combo2 : 255,149,98
Combo3 : 255,128,128
Combo4 : 128,255,128

[HitObjects]
96,54,394,6,0,P|90:93|80:153,1,84,6|0,0:0|0:0,0:0:0:0:
80,304,1519,1,2,0:0:0:0:
151,259,1894,2,0,P|189:264|249:278,1,84,2|2,0:0|0:0,0:0:0:0:
299,325,2644,2,0,P|349:320|404:305,1,84,0|2,0:0|0:0,0:0:0:0:
440,252,3394,6,0,P|452:203|462:150,1,84,6|2,0:0|0:0,0:0:0:0:
361,32,4519,1,2,0:0:0:0:
295,84,4894,2,0,P|257:95|201:100,1,84,2|2,0:0|0:0,0:0:0:0:
135,67,5644,2,0,P|129:107|114:166,1,84,0|2,0:0|0:0,0:0:0:0:
90,228,6394,6,0,P|99:278|117:327,1,84,6|8,0:0|0:0,0:0:0:0:
172,365,7144,2,0,P|211:367|278:360,1,84,2|8,0:0|0:0,0:0:0:0:
337,342,7894,1,2,0:0:0:0:
399,285,8269,1,8,0:0:0:0:
413,202,8644,2,0,P|406:154|393:107,1,84,2|8,0:0|0:0,0:0:0:0:
355,46,9394,6,0,P|312:49|249:60,1,84,2|8,0:0|0:0,0:0:0:0:
202,103,10144,2,0,P|152:103|117:98,1,84,2|8,0:0|0:0,0:0:0:0:
48,50,10894,1,2,0:0:0:0:
12,125,11269,1,8,0:0:0:0:
25,207,11644,2,0,P|38:253|65:306,1,84,2|8,0:0|0:0,0:0:0:0:
117,340,12394,6,0,P|167:346|218:336,1,84,6|8,0:0|0:0,0:0:0:0:
282,325,13144,2,0,P|298:275|307:222,1,84,2|8,0:0|0:0,0:0:0:0:
303,159,13894,1,2,0:0:0:0:
360,98,14269,1,8,0:0:0:0:
426,149,14644,2,0,P|466:168|515:187,1,84,2|8,0:0|0:0,0:0:0:0:
464,257,15394,6,0,P|412:273|354:270,1,84,2|8,0:0|0:0,0:0:0:0:
299,280,16144,2,0,P|251:277|199:262,1,84,2|8,0:0|0:0,0:0:0:0:
136,241,16894,1,2,0:0:0:0:
98,165,17269,1,8,0:0:0:0:
134,89,17644,2,0,P|174:73|224:65,1,84,2|8,0:0|0:0,0:0:0:0:
298,53,18394,6,0,L|288:152,1,84,10|8,0:0|0:0,0:0:0:0:
211,285,19519,1,8,0:0:0:0:
280,331,19894,2,0,P|325:345|385:356,1,84,10|8,0:0|0:0,0:0:0:0:
444,341,20644,2,0,P|455:286|465:235,1,84,10|8,0:0|0:0,0:0:0:0:
379,235,21394,6,0,L|398:120,1,84,14|8,0:0|0:0,0:0:0:0:
264,43,22519,1,8,0:0:0:0:
204,102,22894,2,0,P|163:115|105:123,1,84,10|10,0:0|0:0,0:0:0:0:
51,76,23644,2,0,P|40:105|34:167,1,84,2|14,0:0|0:0,0:0:0:0:
47,240,24394,5,6,0:0:0:0:
260,364,25519,1,0,0:0:0:0:
341,342,25894,2,0,P|393:270|366:180,1,168,0|0,0:0|0:0,0:0:0:0:
305,155,27019,1,0,0:0:0:0:
232,198,27394,6,0,P|147:213|49:224,1,168,0|0,0:0|0:0,0:0:0:0:
1,171,28519,1,0,0:0:0:0:
36,94,28894,2,0,P|72:75|125:59,1,84,0|0,0:0|0:0,0:0:0:0:
192,88,29644,2,0,P|230:99|292:104,1,84,0|0,0:0|0:0,0:0:0:0:
353,76,30394,5,0,0:0:0:0:
490,287,31519,1,0,0:0:0:0:
429,345,31894,2,0,P|351:360|254:309,1,168,0|0,0:0|0:0,0:0:0:0:
202,278,33019,1,0,0:0:0:0:
135,329,33394,6,0,P|148:220|169:140,1,168,0|0,0:0|0:0,0:0:0:0:
205,91,34519,1,0,0:0:0:0:
268,35,34894,2,0,P|303:37|382:57,1,84,0|0,0:0|0:0,0:0:0:0:
434,44,35644,2,0,L|450:146,1,84,0|0,0:0|0:0,0:0:0:0:
426,208,36394,5,6,0:0:0:0:
477,274,36769,1,8,0:0:0:0:
427,342,37144,2,0,P|388:353|333:355,1,84,2|8,0:0|0:0,0:0:0:0:
269,325,37894,1,2,0:0:0:0:
195,364,38269,1,8,0:0:0:0:
118,328,38644,2,0,P|107:273|106:232,1,84,2|8,0:0|0:0,0:0:0:0:
50,182,39394,6,0,P|106:209|220:193,1,168,2|2,0:0|0:0,0:0:0:0:
269,140,40519,1,8,0:0:0:0:
333,194,40894,2,0,P|382:206|436:214,1,84,2|8,0:0|0:0,0:0:0:0:
433,129,41644,2,0,P|391:118|322:109,1,84,2|8,0:0|0:0,0:0:0:0:
269,140,42394,5,6,0:0:0:0:
202,88,42769,1,8,0:0:0:0:
119,105,43144,2,0,P|79:147|62:178,1,84,2|8,0:0|0:0,0:0:0:0:
29,244,43894,1,2,0:0:0:0:
37,327,44269,1,8,0:0:0:0:
110,368,44644,2,0,P|150:366|217:348,1,84,2|8,0:0|0:0,0:0:0:0:
275,339,45394,6,0,P|316:263|285:168,1,168,2|2,0:0|0:0,0:0:0:0:
229,139,46519,1,8,0:0:0:0:
268,64,46894,2,0,P|313:70|351:83,1,84,2|8,0:0|0:0,0:0:0:0:
414,136,47644,2,0,L|404:240,1,84,2|8,0:0|0:0,0:0:0:0:
354,285,48394,6,0,P|265:315|187:305,1,168,6|2,0:0|0:0,0:0:0:0:
114,276,49519,1,8,0:0:0:0:
35,306,49894,2,0,P|30:266|35:204,1,84,0|8,0:0|0:0,0:0:0:0:
107,186,50644,2,0,P|113:145|112:92,1,84,2|8,0:0|0:0,0:0:0:0:
71,29,51394,6,0,P|132:73|237:57,1,168,6|2,0:0|0:0,0:0:0:0:
300,38,52519,1,8,0:0:0:0:
377,69,52894,2,0,P|379:118|366:174,1,84,2|8,0:0|0:0,0:0:0:0:
454,171,53644,2,0,P|440:220|415:271,1,84,2|8,0:0|0:0,0:0:0:0:
459,327,54394,6,0,P|385:357|291:365,1,168,6|2,0:0|0:0,0:0:0:0:
218,339,55519,1,8,0:0:0:0:
151,290,55894,2,0,P|159:238|182:178,1,84,2|8,0:0|0:0,0:0:0:0:
245,173,56644,1,2,0:0:0:0:
319,212,57019,1,8,0:0:0:0:
394,175,57394,6,0,P|368:86|195:65,1,252,10|8,0:0|0:0,0:0:0:0:
145,26,58894,6,0,P|88:123|123:260,1,252,10|8,0:0|0:0,0:0:0:0:
83,329,60394,6,0,P|219:291|350:304,1,252,10|8,0:0|0:0,0:0:0:0:
396,350,61894,6,0,P|482:265|441:128,1,252,10|8,0:0|0:0,0:0:0:0:
256,192,63394,12,2,66394,0:0:0:0:
434,216,67894,6,0,P|382:232|346:237,1,84,6|8,0:0|0:0,0:0:0:0:
274,206,68644,2,0,P|261:258|254:293,1,84,2|8,0:0|0:0,0:0:0:0:
199,349,69394,1,2,0:0:0:0:
119,370,69769,1,8,0:0:0:0:
44,334,70144,2,0,P|49:287|58:234,1,84,2|8,0:0|0:0,0:0:0:0:
113,190,70894,5,2,0:0:0:0:
179,241,71269,1,8,0:0:0:0:
248,193,71644,2,0,P|262:143|273:90,1,84,2|8,0:0|0:0,0:0:0:0:
213,48,72394,2,0,P|291:82|387:66,1,168,2|2,0:0|0:0,0:0:0:0:
444,30,73519,1,8,0:0:0:0:
445,113,73894,6,0,P|451:148|467:213,1,84,6|8,0:0|0:0,0:0:0:0:
502,268,74644,2,0,P|464:283|396:286,1,84,2|8,0:0|0:0,0:0:0:0:
342,259,75394,1,2,0:0:0:0:
263,289,75769,1,8,0:0:0:0:
189,248,76144,2,0,P|145:236|95:228,1,84,2|8,0:0|0:0,0:0:0:0:
33,270,76894,5,2,0:0:0:0:
7,189,77269,1,8,0:0:0:0:
48,116,77644,2,0,P|90:108|138:100,1,84,2|8,0:0|0:0,0:0:0:0:
201,55,78394,2,0,P|165:127|206:232,1,168,2|2,0:0|0:0,0:0:0:0:
238,273,79519,1,8,0:0:0:0:
316,303,79894,6,0,P|354:297|406:282,1,84,6|8,0:0|0:0,0:0:0:0:
467,231,80644,2,0,P|477:187|481:144,1,84,2|8,0:0|0:0,0:0:0:0:
451,69,81394,2,0,P|408:55|354:50,1,84,2|8,0:0|0:0,0:0:0:0:
285,42,82144,1,2,0:0:0:0:
211,82,82519,1,8,0:0:0:0:
133,49,82894,6,0,L|113:144,1,84,6|8,0:0|0:0,0:0:0:0:
42,174,83644,2,0,P|46:218|54:272,1,84,2|8,0:0|0:0,0:0:0:0:
16,333,84394,2,0,P|55:341|111:343,1,84,2|8,0:0|0:0,0:0:0:0:
180,322,85144,1,2,0:0:0:0:
260,297,85519,1,8,0:0:0:0:
336,332,85894,6,0,P|347:281|349:228,1,84,6|8,0:0|0:0,0:0:0:0:
279,202,86644,2,0,P|228:193|179:195,1,84,2|8,0:0|0:0,0:0:0:0:
112,207,87394,2,0,P|103:163|101:120,1,84,8|2,0:0|0:0,0:0:0:0:
134,46,88144,2,0,P|186:36|243:32,1,84,2|8,0:0|0:0,0:0:0:0:
299,47,88894,5,6,0:0:0:0:
376,78,89269,1,8,0:0:0:0:
421,148,89644,2,0,P|418:191|402:249,1,84,8|8,0:0|0:0,0:0:0:0:
357,297,90394,1,8,0:0:0:0:
285,340,90769,1,8,0:0:0:0:
204,362,91144,2,0,P|122:354|60:332,1,126,8|8,0:0|0:0,0:0:0:0:
