osu file format v14

[General]
AudioFilename: audio.mp3
AudioLeadIn: 0
PreviewTime: 67284
Countdown: 0
SampleSet: Normal
StackLeniency: 0.7
Mode: 1
LetterboxInBreaks: 0
WidescreenStoryboard: 0

[Editor]
DistanceSpacing: 0.3
BeatDivisor: 4
GridSize: 4
TimelineZoom: 1.6

[Metadata]
Title:Jounetsu Utopia
TitleUnicode:蒸熱♨ユートピア
Artist:Karen, Harukawa Akari, Koharu Meu
ArtistUnicode:華憐、春河あかり、小春めう
Creator:Charlotte
Version:Kantan
Source:恋と恋するユートピア
Tags:eroge opening denki 電気 lovematic koipia koi to suru 404 AccNotFound
BeatmapID:1429486
BeatmapSetID:674144

[Difficulty]
HPDrainRate:8
CircleSize:6
OverallDifficulty:3
ApproachRate:7
SliderMultiplier:1.4
SliderTickRate:1

[Events]
//Background and Video events
0,0,"BG3.jpg",0,60
//Break Periods
//Storyboard Layer 0 (Background)
//Storyboard Layer 1 (Fail)
//Storyboard Layer 2 (Pass)
//Storyboard Layer 3 (Foreground)
//Storyboard Sound Samples

[TimingPoints]
394,375,4,1,0,90,1,0
24394,-100,4,1,0,60,0,0
36394,-100,4,1,0,70,0,0
48394,-100,4,1,0,80,0,0
67894,-100,4,1,0,90,0,1
79894,-100,4,1,0,90,0,0

[HitObjects]
256,192,394,5,0,0:0:0:0:
256,192,1331,1,8,0:0:0:0:
256,192,2081,1,8,0:0:0:0:
256,192,2456,1,0,0:0:0:0:
256,192,3394,1,0,0:0:0:0:
256,192,4331,1,8,0:0:0:0:
260,192,5081,1,8,0:0:0:0:
256,192,5456,1,0,0:0:0:0:
256,192,6019,1,8,0:0:0:0:
252,192,6394,1,0,0:0:0:0:
256,192,7144,1,0,0:0:0:0:
256,184,7894,1,8,0:0:0:0:
256,184,9394,1,0,0:0:0:0:
256,184,10144,1,0,0:0:0:0:
256,188,10894,1,8,0:0:0:0:
256,184,11269,1,8,0:0:0:0:
256,184,11644,1,8,0:0:0:0:
256,184,12394,1,0,0:0:0:0:
256,184,13144,1,0,0:0:0:0:
256,184,13894,1,8,0:0:0:0:
256,184,15394,1,0,0:0:0:0:
256,184,16144,1,0,0:0:0:0:
256,184,16894,1,8,0:0:0:0:
256,184,17269,1,8,0:0:0:0:
256,184,17644,1,8,0:0:0:0:
256,184,18394,1,0,0:0:0:0:
256,184,19331,1,8,0:0:0:0:
256,184,20081,1,8,0:0:0:0:
256,184,20456,1,0,0:0:0:0:
256,184,21394,1,0,0:0:0:0:
256,184,22331,1,8,0:0:0:0:
256,184,23081,1,8,0:0:0:0:
256,184,23456,1,0,0:0:0:0:
256,184,24019,1,12,0:0:0:0:
256,184,24394,1,0,0:0:0:0:
256,184,25894,1,8,0:0:0:0:
256,184,27394,1,8,0:0:0:0:
256,184,28894,1,0,0:0:0:0:
256,184,29644,1,8,0:0:0:0:
256,184,30394,1,0,0:0:0:0:
256,184,31894,1,8,0:0:0:0:
256,184,32644,1,0,0:0:0:0:
256,192,33394,12,0,34519,0:0:0:0:
256,196,34894,5,8,0:0:0:0:
256,196,36394,1,12,0:0:0:0:
256,196,37144,1,0,0:0:0:0:
256,196,37894,1,8,0:0:0:0:
256,192,39394,1,0,0:0:0:0:
264,192,40894,1,0,0:0:0:0:
264,192,41644,1,8,0:0:0:0:
264,192,42394,1,0,0:0:0:0:
264,192,43894,1,0,0:0:0:0:
264,192,45394,1,8,0:0:0:0:
264,192,46144,1,8,0:0:0:0:
264,192,46894,1,0,0:0:0:0:
268,196,48394,1,4,0:0:0:0:
256,192,49144,1,8,0:0:0:0:
256,192,49894,1,0,0:0:0:0:
256,192,50269,1,0,0:0:0:0:
252,192,50644,1,8,0:0:0:0:
252,192,51394,1,0,0:0:0:0:
248,192,52144,1,8,0:0:0:0:
252,192,52894,1,8,0:0:0:0:
252,192,53269,1,8,0:0:0:0:
252,192,53644,1,0,0:0:0:0:
252,192,54394,1,0,0:0:0:0:
256,192,55144,1,8,0:0:0:0:
256,192,55894,1,0,0:0:0:0:
256,192,56269,1,0,0:0:0:0:
256,192,56644,1,8,0:0:0:0:
256,192,57394,1,8,0:0:0:0:
268,192,58894,1,0,0:0:0:0:
264,192,60394,1,8,0:0:0:0:
268,188,61894,1,8,0:0:0:0:
260,184,62644,1,8,0:0:0:0:
260,188,63394,1,0,0:0:0:0:
260,184,63769,1,8,0:0:0:0:
264,188,64519,1,8,0:0:0:0:
264,188,64894,1,0,0:0:0:0:
268,192,65644,1,0,0:0:0:0:
264,188,66019,1,8,0:0:0:0:
260,188,66394,1,4,0:0:0:0:
256,188,67894,1,4,0:0:0:0:
260,188,68456,1,8,0:0:0:0:
260,188,69394,1,0,0:0:0:0:
260,188,69956,1,8,0:0:0:0:
260,188,70894,1,0,0:0:0:0:
260,188,71456,1,8,0:0:0:0:
260,188,72019,1,0,0:0:0:0:
260,188,72394,1,8,0:0:0:0:
260,188,72956,1,8,0:0:0:0:
260,188,73894,1,4,0:0:0:0:
260,188,74456,1,8,0:0:0:0:
260,188,75394,1,8,0:0:0:0:
264,188,75956,1,8,0:0:0:0:
264,188,76894,1,0,0:0:0:0:
260,188,77456,1,8,0:0:0:0:
264,188,78019,1,8,0:0:0:0:
260,188,78394,1,0,0:0:0:0:
264,188,78956,1,8,0:0:0:0:
264,188,79894,1,0,0:0:0:0:
272,188,80644,1,0,0:0:0:0:
280,188,81394,1,0,0:0:0:0:
280,188,81769,1,0,0:0:0:0:
280,188,82144,1,0,0:0:0:0:
280,184,82894,1,8,0:0:0:0:
280,184,83644,1,8,0:0:0:0:
284,184,84394,1,8,0:0:0:0:
280,184,84769,1,8,0:0:0:0:
280,184,85144,1,8,0:0:0:0:
280,184,85894,1,0,0:0:0:0:
268,188,86644,1,0,0:0:0:0:
264,188,87394,1,0,0:0:0:0:
264,188,87769,1,8,0:0:0:0:
264,192,88144,1,0,0:0:0:0:
256,184,88894,1,0,0:0:0:0:
256,184,89644,1,8,0:0:0:0:
256,184,90394,1,8,0:0:0:0:
256,184,90769,1,8,0:0:0:0:
256,184,91144,1,0,0:0:0:0:
260,188,91706,1,8,0:0:0:0:
