osu file format v14

[General]
AudioFilename: audio.mp3
AudioLeadIn: 0
PreviewTime: -1
Countdown: 1
SampleSet: None
StackLeniency: 0.7
Mode: 0
LetterboxInBreaks: 0
WidescreenStoryboard: 0

[Editor]
Bookmarks: 63846,80930
DistanceSpacing: 2.1
BeatDivisor: 6
GridSize: 32
TimelineZoom: 1.8

[Metadata]
Title:To See The Future
TitleUnicode:To See The Future
Artist:Karen Kohiruimaki
ArtistUnicode:Karen Kohiruimaki
Creator:izumilance
Version:Easy
Source:GGO : Alternative
Tags:
BeatmapID:1897710
BeatmapSetID:909426

[Difficulty]
HPDrainRate:10
CircleSize:5
OverallDifficulty:6
ApproachRate:7
SliderMultiplier:1.4
SliderTickRate:1

[Events]
//Background and Video events
0,0,"914114.jpg",0,0
//Break Periods
2,81010,90226
2,216110,222254
//Storyboard Layer 0 (Background)
//Storyboard Layer 1 (Fail)
//Storyboard Layer 2 (Pass)
//Storyboard Layer 3 (Foreground)
//Storyboard Sound Samples

[TimingPoints]
0,499.6,4,1,0,100,1,0

[Colours]
Combo1 : 128,0,255
Combo2 : 0,255,255
Combo3 : 255,0,255
Combo4 : 0,255,0
Combo5 : 255,255,0
Combo6 : 255,128,0

[HitObjects]
256,192,2373,12,0,5623,0:0:0:0:
421,139,5995,6,0,B|431:314|277:73|277:73|372:202|50:180|43:295,1,630
40,36,9492,2,0,B|477:152|461:176|41:279|450:395|526:223,1,665
499,228,12989,1,0,0:0:0:0:
443,302,14301,1,0,0:0:0:0:
424,260,15737,1,0,0:0:0:0:
418,303,16112,1,0,0:0:0:0:
353,337,17735,1,0,0:0:0:0:
328,336,18235,2,0,B|76:328|347:318|262:184|283:194,1,245
279,202,19567,1,0,0:0:0:0:
221,197,19984,5,0,0:0:0:0:
248,226,20483,1,0,0:0:0:0:
248,226,20858,2,0,B|274:252|346:282|333:329|268:333|225:354|77:155,1,385
166,138,22398,1,0,0:0:0:0:
94,160,22565,1,0,0:0:0:0:
156,137,22731,1,0,0:0:0:0:
94,160,22898,1,0,0:0:0:0:
156,137,23064,1,0,0:0:0:0:
94,160,23481,2,0,P|343:289|343:289,2,280
43,193,26645,1,0,0:0:0:0:
43,193,26728,1,0,0:0:0:0:
116,138,27103,1,0,0:0:0:0:
190,175,27727,1,0,0:0:0:0:
274,244,28144,1,0,0:0:0:0:
274,244,28227,1,0,0:0:0:0:
274,244,28310,1,0,0:0:0:0:
333,311,28976,1,0,0:0:0:0:
327,203,29393,1,0,0:0:0:0:
54,176,29642,1,0,0:0:0:0:
54,176,30059,1,0,0:0:0:0:
255,193,30600,1,0,0:0:0:0:
335,153,30975,1,0,0:0:0:0:
335,153,31225,1,0,0:0:0:0:
256,192,33723,1,0,0:0:0:0:
256,192,34097,12,0,36720,0:0:0:0:
256,192,37303,5,0,0:0:0:0:
256,192,37553,1,0,0:0:0:0:
256,192,37719,12,0,40844,0:0:0:0:
72,338,41092,6,0,L|181:239,1,140
175,243,41883,2,0,L|332:192,1,140
308,199,42799,2,0,B|308:83|188:105|103:105,1,245
246,117,44214,6,0,L|215:158,1,46.6666666666667
256,192,44589,12,0,46589,0:0:0:0:
106,141,47045,6,0,L|123:163,7,23.3333333333333
256,192,48086,12,0,51958,0:0:0:0:
67,193,52458,5,0,0:0:0:0:
132,158,52791,1,0,0:0:0:0:
119,68,53332,6,0,B|339:42|346:67|372:91,1,245
357,81,54581,2,0,B|457:159|365:177|315:162|297:114|304:325|63:260|112:279,1,385
107,220,56454,1,0,0:0:0:0:
103,183,56829,2,0,L|437:55,2,350
103,183,59535,1,0,0:0:0:0:
102,182,59827,1,0,0:0:0:0:
159,233,60326,1,0,0:0:0:0:
194,255,61201,1,0,0:0:0:0:
226,282,62075,1,0,0:0:0:0:
252,247,62949,1,0,0:0:0:0:
256,192,63823,12,0,66442,0:0:0:0:
170,149,66946,5,0,0:0:0:0:
256,192,67446,12,0,69940,0:0:0:0:
170,149,70443,5,0,0:0:0:0:
170,149,70610,1,0,0:0:0:0:
205,341,70943,6,0,B|91:311|107:185,3,186.666666666667
170,149,73524,1,0,0:0:0:0:
170,149,73691,1,0,0:0:0:0:
170,149,73857,1,0,0:0:0:0:
256,192,74440,12,0,79054,0:0:0:0:
166,145,79811,6,0,L|225:137,8,35
88,312,91426,5,0,0:0:0:0:
123,62,91551,1,0,0:0:0:0:
210,246,91676,1,0,0:0:0:0:
268,75,91801,1,0,0:0:0:0:
292,182,91926,1,0,0:0:0:0:
290,182,92675,1,0,0:0:0:0:
197,280,93175,2,0,L|236:303,6,35
246,231,95423,6,0,P|248:106|168:142,1,245
179,127,96672,1,0,0:0:0:0:
222,256,96797,1,0,0:0:0:0:
254,126,96922,1,0,0:0:0:0:
288,256,97047,1,0,0:0:0:0:
325,133,97172,1,0,0:0:0:0:
345,242,97297,1,0,0:0:0:0:
368,225,98920,6,0,B|232:161|184:159|104:151,1,245
152,170,100169,1,0,0:0:0:0:
152,170,100294,1,0,0:0:0:0:
152,170,100419,1,0,0:0:0:0:
152,170,100544,1,0,0:0:0:0:
152,170,100669,1,0,0:0:0:0:
152,170,100794,1,0,0:0:0:0:
147,249,101543,1,0,0:0:0:0:
48,218,101918,1,0,0:0:0:0:
45,104,102418,5,0,0:0:0:0:
48,83,103042,2,2,B|481:29|8:369|419:319,1,560
412,319,105415,1,0,0:0:0:0:
462,281,105915,6,0,L|326:342,1,140
332,339,106789,1,0,0:0:0:0:
224,349,107414,2,0,L|186:306,6,35
439,284,109412,1,0,0:0:0:0:
407,246,109537,1,0,0:0:0:0:
366,213,109662,1,0,0:0:0:0:
312,197,109787,1,0,0:0:0:0:
259,191,109912,1,0,0:0:0:0:
214,214,110286,1,0,0:0:0:0:
103,233,110661,2,0,B|363:174|375:165|102:235,1,385
256,192,112909,12,0,119029,0:0:0:0:
202,65,119904,6,0,P|97:129|161:197,1,245
158,206,121652,2,0,P|121:351|195:360,1,245
334,73,123401,6,0,B|494:42|468:198|393:233,1,245
352,284,125149,1,0,0:0:0:0:
380,244,125399,1,0,0:0:0:0:
317,224,126024,1,0,0:0:0:0:
273,266,126273,1,0,0:0:0:0:
256,192,126898,12,0,129521,0:0:0:0:
48,94,130395,5,0,0:0:0:0:
166,104,130520,1,0,0:0:0:0:
113,40,130645,1,0,0:0:0:0:
100,155,130770,1,0,0:0:0:0:
108,98,130895,1,0,0:0:0:0:
108,98,131020,1,0,0:0:0:0:
104,72,131644,2,0,L|288:220,1,210
267,228,132893,5,0,0:0:0:0:
305,189,133018,1,0,0:0:0:0:
317,260,133143,1,0,0:0:0:0:
361,219,133268,1,0,0:0:0:0:
365,282,133393,1,0,0:0:0:0:
403,272,133518,2,0,L|374:249,8,35
359,315,135016,1,0,0:0:0:0:
303,326,135266,1,0,0:0:0:0:
226,321,135891,1,0,0:0:0:0:
126,272,138389,1,0,0:0:0:0:
181,268,138763,1,0,0:0:0:0:
234,246,139138,2,0,L|265:186,1,35
246,193,139638,1,0,0:0:0:0:
186,135,139888,1,0,0:0:0:0:
284,104,140012,1,0,0:0:0:0:
242,105,140512,2,0,P|297:64|379:76,1,140
358,75,141386,2,0,B|336:158|240:143|266:160,1,140
225,188,142262,1,0,0:0:0:0:
191,224,142510,5,0,0:0:0:0:
159,258,142760,1,0,0:0:0:0:
426,124,143385,1,0,0:0:0:0:
81,79,144009,1,0,0:0:0:0:
365,256,144634,1,0,0:0:0:0:
398,257,145383,6,0,P|343:308|286:311,1,105
318,321,146133,2,0,P|241:298|264:254,1,140
238,244,147048,2,0,P|306:249|295:193,1,140
272,197,147881,1,0,0:0:0:0:
221,79,148297,1,0,0:0:0:0:
123,213,148464,1,0,0:0:0:0:
272,195,148631,1,0,0:0:0:0:
92,95,148797,1,0,0:0:0:0:
185,126,149297,1,0,0:0:0:0:
158,105,149713,6,0,L|315:253,1,210
315,253,151045,2,0,L|123:92,1,233.333333333333
116,91,152378,1,0,0:0:0:0:
245,268,152794,1,0,0:0:0:0:
59,275,153210,1,0,0:0:0:0:
105,73,153293,1,0,0:0:0:0:
144,267,153376,1,0,0:0:0:0:
200,78,153459,1,0,0:0:0:0:
238,278,153543,1,0,0:0:0:0:
287,79,153626,1,0,0:0:0:0:
348,242,153793,1,0,0:0:0:0:
348,242,154542,2,0,L|375:258,14,23.3333333333333
395,275,156458,5,0,0:0:0:0:
350,79,156541,1,0,0:0:0:0:
283,267,156624,1,0,0:0:0:0:
225,98,156708,1,0,0:0:0:0:
161,227,156791,1,0,0:0:0:0:
129,128,156874,1,0,0:0:0:0:
66,177,157457,1,0,0:0:0:0:
90,200,158040,1,0,0:0:0:0:
78,251,158623,2,0,B|99:407|437:369|394:190,1,443.333333333333
386,197,160621,5,0,0:0:0:0:
341,121,160871,1,0,0:0:0:0:
341,118,161037,1,0,0:0:0:0:
272,182,161287,1,0,0:0:0:0:
205,238,161537,1,0,0:0:0:0:
128,251,161953,1,0,0:0:0:0:
60,227,162203,1,0,0:0:0:0:
126,178,162370,1,0,0:0:0:0:
126,178,162619,1,0,0:0:0:0:
195,170,162869,1,0,0:0:0:0:
256,192,163702,12,0,165034,0:0:0:0:
116,119,165700,5,0,0:0:0:0:
189,121,165867,1,0,0:0:0:0:
241,124,166033,1,0,0:0:0:0:
300,137,166283,1,0,0:0:0:0:
270,267,166366,1,0,0:0:0:0:
300,137,166450,1,0,0:0:0:0:
270,267,166533,1,0,0:0:0:0:
300,137,166616,1,0,0:0:0:0:
268,261,166699,1,0,0:0:0:0:
254,353,168948,2,0,P|343:335|437:216,1,233.333333333333
424,236,170197,5,0,0:0:0:0:
424,236,170363,1,0,0:0:0:0:
419,229,170530,2,0,B|274:175|255:176|339:136|365:132|153:131,1,303.333333333333
228,157,172445,5,0,0:0:0:0:
163,248,172695,1,0,0:0:0:0:
81,169,172944,1,0,0:0:0:0:
151,113,173361,1,0,0:0:0:0:
100,205,173777,5,0,0:0:0:0:
34,219,174027,1,0,0:0:0:0:
208,189,174277,1,0,0:0:0:0:
175,166,174526,1,0,0:0:0:0:
166,147,175109,1,0,0:0:0:0:
190,215,175193,1,0,0:0:0:0:
166,147,175276,1,0,0:0:0:0:
190,215,175359,1,0,0:0:0:0:
166,147,175442,1,0,0:0:0:0:
190,215,175526,1,0,0:0:0:0:
190,215,175609,1,0,0:0:0:0:
166,149,175692,1,0,0:0:0:0:
166,149,175775,1,0,0:0:0:0:
190,215,175859,1,0,0:0:0:0:
296,89,176109,5,0,0:0:0:0:
318,143,176275,1,0,0:0:0:0:
318,143,176358,1,0,0:0:0:0:
318,143,176442,2,0,L|180:188,1,140
184,186,177274,1,0,0:0:0:0:
181,195,177441,1,0,0:0:0:0:
185,197,177691,1,0,0:0:0:0:
185,197,177774,1,0,0:0:0:0:
68,69,177857,1,0,0:0:0:0:
73,292,177940,1,0,0:0:0:0:
185,184,178024,1,0,0:0:0:0:
72,69,178107,1,0,0:0:0:0:
71,299,178190,1,0,0:0:0:0:
191,182,178273,1,0,0:0:0:0:
71,299,178357,1,0,0:0:0:0:
63,68,178440,1,0,0:0:0:0:
63,68,178523,1,0,0:0:0:0:
112,221,178856,6,0,L|141:194,4,23.3333333333333
68,72,179522,2,0,L|274:210,1,233.333333333333
88,245,180771,2,0,L|159:242,1,70
157,242,181188,2,0,L|159:166,1,70
157,177,181604,2,0,L|237:177,1,70
227,177,182020,2,0,L|225:253,1,70
225,246,182437,2,0,L|138:246,1,70
256,192,183020,12,0,186184,0:0:0:0:
67,290,187350,5,0,0:0:0:0:
66,190,187766,1,0,0:0:0:0:
123,215,188265,1,0,0:0:0:0:
137,204,188682,2,0,L|172:196,6,23.3333333333333
218,207,189598,2,0,L|196:224,6,23.3333333333333
267,208,190347,2,0,L|268:242,5,23.3333333333333
389,293,191097,1,0,0:0:0:0:
107,289,191264,1,0,0:0:0:0:
250,55,191430,1,0,0:0:0:0:
249,246,191763,1,0,0:0:0:0:
249,246,192012,1,0,0:0:0:0:
249,246,192346,2,0,P|336:216|231:237,1,443.333333333333
288,276,194344,1,0,0:0:0:0:
456,61,194594,1,0,0:0:0:0:
121,66,194844,1,0,0:0:0:0:
463,60,195010,1,0,0:0:0:0:
463,60,195260,1,0,0:0:0:0:
463,60,195426,2,0,L|428:75,8,23.3333333333333
312,56,196509,2,0,L|333:81,8,23.3333333333333
302,130,197425,1,0,0:0:0:0:
130,165,197675,1,0,0:0:0:0:
251,267,197924,1,0,0:0:0:0:
251,267,198341,1,0,0:0:0:0:
256,192,198757,12,0,201838,0:0:0:0:
70,62,202338,5,0,0:0:0:0:
94,191,202421,1,0,0:0:0:0:
127,64,202504,1,0,0:0:0:0:
169,180,202587,1,0,0:0:0:0:
206,81,202671,1,0,0:0:0:0:
226,130,202920,1,0,0:0:0:0:
264,178,203587,5,0,0:0:0:0:
225,214,204169,1,0,0:0:0:0:
228,107,204419,1,0,0:0:0:0:
228,107,204502,1,0,0:0:0:0:
228,107,204586,1,0,0:0:0:0:
231,103,204669,2,0,L|257:152,1,46.6666666666667
251,155,205335,1,0,0:0:0:0:
216,191,205835,2,0,L|272:187,1,46.6666666666667
262,187,206334,2,0,L|199:187,1,46.6666666666667
234,77,207000,1,0,0:0:0:0:
222,269,207250,1,0,0:0:0:0:
129,154,207500,1,0,0:0:0:0:
350,151,207750,1,0,0:0:0:0:
230,155,208416,5,0,0:0:0:0:
175,106,208666,1,0,0:0:0:0:
281,218,208749,1,0,0:0:0:0:
298,101,208832,1,0,0:0:0:0:
165,226,208916,1,0,0:0:0:0:
164,102,208999,1,0,0:0:0:0:
290,231,209082,1,0,0:0:0:0:
302,96,209165,1,0,0:0:0:0:
155,220,209249,1,0,0:0:0:0:
74,235,209665,1,0,0:0:0:0:
131,213,209915,1,0,0:0:0:0:
175,165,210165,1,0,0:0:0:0:
254,155,210414,1,0,0:0:0:0:
219,186,210581,2,0,L|199:227,9,23.3333333333333
227,220,211913,5,0,0:0:0:0:
92,323,212330,1,0,0:0:0:0:
325,328,212579,1,0,0:0:0:0:
230,49,212829,1,0,0:0:0:0:
145,233,212996,2,0,P|296:220|390:107,1,303.333333333333
54,234,214744,1,0,0:0:0:0:
321,278,214994,1,0,0:0:0:0:
52,238,215327,1,0,0:0:0:0:
119,202,215410,1,0,0:0:0:0:
183,168,215494,1,0,0:0:0:0:
240,123,215577,1,0,0:0:0:0:
310,114,215660,1,0,0:0:0:0:
363,157,215743,1,0,0:0:0:0:
371,226,215827,1,0,0:0:0:0:
322,277,215910,1,0,0:0:0:0:
56,275,223154,6,0,P|95:131|203:116,1,256.666666666667
202,112,224570,2,0,P|382:55|482:166,1,350
479,157,226318,1,2,0:0:0:0:
479,157,226735,2,0,B|268:72|333:385|267:72|99:218,1,396.666666666667
125,174,228733,1,0,0:0:0:0:
185,147,228983,1,0,0:0:0:0:
221,204,229233,1,0,0:0:0:0:
279,169,229399,1,0,0:0:0:0:
306,231,229566,1,0,0:0:0:0:
368,213,229816,1,0,0:0:0:0:
387,226,230232,5,0,0:0:0:0:
297,313,230648,1,0,0:0:0:0:
158,264,230815,1,0,0:0:0:0:
195,275,230898,1,0,0:0:0:0:
85,223,231148,1,0,0:0:0:0:
285,298,231564,1,0,0:0:0:0:
64,55,232064,1,0,0:0:0:0:
83,323,232563,1,0,0:0:0:0:
159,39,232980,1,0,0:0:0:0:
176,328,233063,1,0,0:0:0:0:
269,42,233313,1,0,0:0:0:0:
176,234,233812,5,0,0:0:0:0:
316,116,234229,1,0,0:0:0:0:
135,120,234395,1,0,0:0:0:0:
305,244,234562,1,0,0:0:0:0:
152,263,234645,1,0,0:0:0:0:
318,90,235145,1,0,0:0:0:0:
131,104,235311,1,0,0:0:0:0:
236,253,235727,1,0,0:0:0:0:
228,251,236310,1,0,0:0:0:0:
228,251,236810,5,0,0:0:0:0:
228,251,236893,1,0,0:0:0:0:
35,35,237310,1,0,0:0:0:0:
42,44,237393,1,0,0:0:0:0:
48,49,237476,1,0,0:0:0:0:
54,59,237559,1,0,0:0:0:0:
59,65,237643,1,0,0:0:0:0:
65,72,237726,1,0,0:0:0:0:
68,77,237809,1,0,0:0:0:0:
73,83,237892,1,0,0:0:0:0:
77,88,237976,1,0,0:0:0:0:
81,95,238059,1,0,0:0:0:0:
86,98,238142,1,0,0:0:0:0:
93,107,238225,1,0,0:0:0:0:
97,111,238309,1,0,0:0:0:0:
101,117,238392,1,0,0:0:0:0:
105,119,238475,1,0,0:0:0:0:
108,124,238559,1,0,0:0:0:0:
112,126,238642,1,0,0:0:0:0:
114,130,238725,1,0,0:0:0:0:
118,135,238808,1,0,0:0:0:0:
121,139,238892,1,0,0:0:0:0:
125,144,238975,1,0,0:0:0:0:
248,38,239058,1,0,0:0:0:0:
52,321,239141,1,0,0:0:0:0:
248,38,239225,1,0,0:0:0:0:
52,321,239308,1,0,0:0:0:0:
248,38,239391,1,0,0:0:0:0:
52,321,239474,1,0,0:0:0:0:
248,38,239558,1,0,0:0:0:0:
52,321,239641,1,0,0:0:0:0:
248,38,239724,1,0,0:0:0:0:
120,335,239808,1,0,0:0:0:0:
248,38,239891,1,0,0:0:0:0:
179,337,239974,1,0,0:0:0:0:
248,38,240057,1,0,0:0:0:0:
245,340,240141,1,0,0:0:0:0:
253,39,240224,1,0,0:0:0:0:
306,341,240307,1,0,0:0:0:0:
253,39,240390,1,0,0:0:0:0:
371,340,240474,1,0,0:0:0:0:
253,39,240557,1,0,0:0:0:0:
432,331,240640,1,0,0:0:0:0:
478,310,240723,1,0,0:0:0:0:
256,192,240890,12,0,243888,0:0:0:0:
442,93,244304,6,0,L|389:48,1,70
388,47,244720,2,0,L|314:49,1,70
318,48,245220,1,0,0:0:0:0:
328,83,246635,1,0,0:0:0:0:
296,110,246718,1,0,0:0:0:0:
259,140,246801,1,0,0:0:0:0:
217,166,246885,1,0,0:0:0:0:
139,216,246968,1,0,0:0:0:0:
74,258,247135,1,0,0:0:0:0:
83,250,247385,1,0,0:0:0:0:
45,280,247718,2,0,L|98:351,1,70
86,336,248134,2,0,L|166:337,1,70
155,336,248551,1,0,0:0:0:0:
96,198,250799,5,0,0:0:0:0:
157,229,251298,2,0,B|160:378|420:347|63:186|737:439|108:107|484:68|-24:69|69:80|373:75,1,723.333333333333
