osu file format v14

[General]
AudioFilename: audio.mp3
AudioLeadIn: 0
PreviewTime: 1971
Countdown: 0
SampleSet: Normal
StackLeniency: 1
Mode: 3
LetterboxInBreaks: 0
SpecialStyle: 0
WidescreenStoryboard: 1
SamplesMatchPlaybackRate: 1

[Editor]
DistanceSpacing: 1.2
BeatDivisor: 4
GridSize: 8
TimelineZoom: 2.1

[Metadata]
Title:Great Days
TitleUnicode:Great Days
Artist:Karen Aoki /Daisuke Hasegawa/ Yugo Kanno
ArtistUnicode:Karen Aoki /Daisuke Hasegawa/ Yugo Kanno
Creator:Acelight
Version:Harvest
Source:ダイヤモンドは砕けない
Tags:Jojo Diamond Is unbreakable DIU The DU
BeatmapID:1538235
BeatmapSetID:707792

[Difficulty]
HPDrainRate:7
CircleSize:7
OverallDifficulty:7
ApproachRate:5
SliderMultiplier:1.4
SliderTickRate:1

[Events]
//Background and Video events
0,0,"Ctuap1_XYAApzY8.jpg",0,0
//Break Periods
//Storyboard Layer 0 (Background)
//Storyboard Layer 1 (Fail)
//Storyboard Layer 2 (Pass)
//Storyboard Layer 3 (Foreground)
//Storyboard Sound Samples

[TimingPoints]
560,352.938151023289,4,1,1,44,1,0
54206,-100,4,1,1,44,0,1
81029,-100,4,1,1,44,0,0

[HitObjects]
182,192,560,5,8,1:0:0:45:normal-hitclap.wav
320,192,560,5,8,1:0:0:45:normal-hitclap.wav
448,192,560,1,8,1:0:0:45:normal-hitclap.wav
256,192,912,5,8,1:0:0:45:normal-hitclap.wav
109,192,912,1,8,1:0:0:45:normal-hitclap.wav
448,192,912,1,8,1:0:0:45:normal-hitclap.wav
402,192,1265,1,8,1:0:0:45:normal-hitclap.wav
192,192,1265,1,8,1:0:0:45:normal-hitclap.wav
256,192,1618,5,8,1:0:0:45:normal-hitclap.wav
320,192,1618,1,8,1:0:0:45:normal-hitclap.wav
448,192,1618,1,8,1:0:0:45:normal-hitclap.wav
329,192,1971,128,8,2324:1:0:0:45:normal-hitclap.wav
64,192,1971,128,8,2324:1:0:0:45:normal-hitclap.wav
448,192,2324,1,8,1:0:0:45:normal-hitclap.wav
402,192,2677,128,8,3030:1:0:0:45:normal-hitclap.wav
109,192,2677,128,8,3030:1:0:0:45:normal-hitclap.wav
36,192,3030,1,8,1:0:0:45:normal-hitclap.wav
192,192,3383,1,8,1:0:0:45:normal-hitclap.wav
320,192,3736,1,8,1:0:0:45:normal-hitclap.wav
109,192,4089,1,8,1:0:0:45:normal-hitclap.wav
402,192,4442,1,8,1:0:0:45:normal-hitclap.wav
192,192,4442,1,8,1:0:0:45:normal-hitclap.wav
109,192,4795,128,8,5148:1:0:0:45:normal-hitclap.wav
320,192,4795,128,8,5148:1:0:0:45:normal-hitclap.wav
448,192,5148,1,8,1:0:0:45:normal-hitclap.wav
402,192,5501,128,8,5854:1:0:0:45:normal-hitclap.wav
192,192,5501,128,8,5854:1:0:0:45:normal-hitclap.wav
36,192,5854,1,8,1:0:0:45:normal-hitclap.wav
402,192,6207,1,8,1:0:0:45:normal-hitclap.wav
109,192,6559,1,8,1:0:0:45:normal-hitclap.wav
402,192,6912,1,8,1:0:0:45:normal-hitclap.wav
256,192,7265,1,8,1:0:0:45:normal-hitclap.wav
64,192,7265,1,8,1:0:0:45:normal-hitclap.wav
448,192,7618,128,8,7971:1:0:0:45:normal-hitclap.wav
36,192,7618,128,8,7971:1:0:0:45:normal-hitclap.wav
256,192,7971,1,8,1:0:0:45:normal-hitclap.wav
256,192,8324,128,8,8677:1:0:0:45:normal-hitclap.wav
64,192,8324,128,8,8677:1:0:0:45:normal-hitclap.wav
402,192,8677,1,8,1:0:0:45:normal-hitclap.wav
402,192,9030,1,8,1:0:0:45:normal-hitclap.wav
320,192,9030,1,8,1:0:0:45:normal-hitclap.wav
64,192,9383,1,8,1:0:0:45:normal-hitclap.wav
182,192,9736,1,8,1:0:0:45:normal-hitclap.wav
320,192,9736,1,8,1:0:0:45:normal-hitclap.wav
402,192,10089,1,8,1:0:0:45:normal-hitclap.wav
329,192,10089,1,8,1:0:0:45:normal-hitclap.wav
109,192,10442,128,8,10795:1:0:0:45:normal-hitclap.wav
64,192,10442,128,8,10795:1:0:0:45:normal-hitclap.wav
402,192,10795,1,8,1:0:0:45:normal-hitclap.wav
329,192,10795,1,8,1:0:0:45:normal-hitclap.wav
402,192,11148,128,8,11501:1:0:0:45:normal-hitclap.wav
256,192,11148,128,8,11501:1:0:0:45:normal-hitclap.wav
182,192,11501,1,8,1:0:0:45:normal-hitclap.wav
64,192,11501,1,8,1:0:0:45:normal-hitclap.wav
256,192,11854,1,8,1:0:0:45:normal-hitclap.wav
64,192,12206,1,8,1:0:0:45:normal-hitclap.wav
256,192,12559,1,8,1:0:0:45:normal-hitclap.wav
402,192,12559,1,8,1:0:0:45:normal-hitclap.wav
192,192,12559,1,8,1:0:0:45:normal-hitclap.wav
448,192,12912,1,8,1:0:0:45:normal-hitclap.wav
320,192,12912,1,8,1:0:0:45:normal-hitclap.wav
109,192,13265,1,8,1:0:0:45:normal-hitclap.wav
320,192,13265,1,8,1:0:0:45:normal-hitclap.wav
182,192,13265,1,8,1:0:0:45:normal-hitclap.wav
402,192,13265,1,8,1:0:0:45:normal-hitclap.wav
329,192,13618,1,8,1:0:0:45:normal-hitclap.wav
402,192,13618,1,8,1:0:0:45:normal-hitclap.wav
182,192,13618,1,8,1:0:0:45:normal-hitclap.wav
192,192,13971,1,8,1:0:0:45:normal-hitclap.wav
320,192,13971,1,8,1:0:0:45:normal-hitclap.wav
256,192,14324,1,8,1:0:0:45:normal-hitclap.wav
192,192,14677,128,8,16089:1:0:0:45:normal-hitclap.wav
448,192,15206,128,8,16089:1:0:0:45:normal-hitclap.wav
256,192,16089,128,8,17501:1:0:0:45:normal-hitclap.wav
109,192,16618,128,8,17501:1:0:0:45:normal-hitclap.wav
448,192,17501,128,8,18559:1:0:0:45:normal-hitclap.wav
109,192,18030,1,8,1:0:0:45:normal-hitclap.wav
320,192,18030,1,8,1:0:0:45:normal-hitclap.wav
109,192,18559,1,8,1:0:0:45:normal-hitclap.wav
192,192,18559,1,8,1:0:0:45:normal-hitclap.wav
402,192,18912,128,8,19971:1:0:0:45:normal-hitclap.wav
256,192,18912,128,8,19971:1:0:0:45:normal-hitclap.wav
182,192,20324,128,8,21383:1:0:0:45:normal-hitclap.wav
329,192,20853,128,8,21383:1:0:0:45:normal-hitclap.wav
402,192,21736,128,8,22795:1:0:0:45:normal-hitclap.wav
109,192,22265,128,8,22795:1:0:0:45:normal-hitclap.wav
64,192,23148,128,8,23677:1:0:0:45:normal-hitclap.wav
256,192,23500,1,8,1:0:0:45:normal-hitclap.wav
448,192,23677,128,8,24030:1:0:0:45:normal-hitclap.wav
192,192,24030,128,8,24559:1:0:0:45:normal-hitclap.wav
320,192,24559,128,8,25089:1:0:0:45:normal-hitclap.wav
109,192,25089,128,8,25618:1:0:0:45:normal-hitclap.wav
109,192,25971,1,8,1:0:0:45:normal-hitclap.wav
402,192,25971,1,8,1:0:0:45:normal-hitclap.wav
256,192,26324,1,8,1:0:0:45:normal-hitclap.wav
109,192,26324,1,8,1:0:0:45:normal-hitclap.wav
402,192,26324,1,8,1:0:0:45:normal-hitclap.wav
109,192,26677,1,8,1:0:0:45:normal-hitclap.wav
402,192,26677,1,8,1:0:0:45:normal-hitclap.wav
329,192,27030,1,8,1:0:0:45:normal-hitclap.wav
182,192,27030,1,8,1:0:0:45:normal-hitclap.wav
64,192,27383,1,8,1:0:0:45:normal-hitclap.wav
320,192,27383,1,8,1:0:0:45:normal-hitclap.wav
256,192,27736,1,8,1:0:0:45:normal-hitclap.wav
64,192,27736,1,8,1:0:0:45:normal-hitclap.wav
320,192,27736,1,8,1:0:0:45:normal-hitclap.wav
320,192,28089,1,8,1:0:0:45:normal-hitclap.wav
64,192,28089,1,8,1:0:0:45:normal-hitclap.wav
402,192,28442,1,8,1:0:0:45:normal-hitclap.wav
448,192,28442,1,8,1:0:0:45:normal-hitclap.wav
402,192,28795,1,8,1:0:0:45:normal-hitclap.wav
109,192,28795,1,8,1:0:0:45:normal-hitclap.wav
109,192,29147,1,8,1:0:0:45:normal-hitclap.wav
256,192,29147,1,8,1:0:0:45:normal-hitclap.wav
402,192,29147,1,8,1:0:0:45:normal-hitclap.wav
402,192,29500,1,8,1:0:0:45:normal-hitclap.wav
109,192,29500,1,8,1:0:0:45:normal-hitclap.wav
475,192,29853,1,8,1:0:0:45:normal-hitclap.wav
36,192,29853,1,8,1:0:0:45:normal-hitclap.wav
109,192,30206,1,8,1:0:0:45:normal-hitclap.wav
64,192,30206,1,8,1:0:0:45:normal-hitclap.wav
182,192,30559,1,8,1:0:0:45:normal-hitclap.wav
256,192,30559,1,8,1:0:0:45:normal-hitclap.wav
329,192,30559,1,8,1:0:0:45:normal-hitclap.wav
329,192,30912,1,8,1:0:0:45:normal-hitclap.wav
192,192,30912,1,8,1:0:0:45:normal-hitclap.wav
402,192,31265,1,8,1:0:0:45:normal-hitclap.wav
109,192,31265,1,8,1:0:0:45:normal-hitclap.wav
64,192,31618,1,8,1:0:0:45:normal-hitclap.wav
448,192,31618,1,8,1:0:0:45:normal-hitclap.wav
256,192,31971,1,8,1:0:0:45:normal-hitclap.wav
64,192,31971,1,8,1:0:0:45:normal-hitclap.wav
448,192,31971,1,8,1:0:0:45:normal-hitclap.wav
64,192,32324,1,8,1:0:0:45:normal-hitclap.wav
448,192,32324,1,8,1:0:0:45:normal-hitclap.wav
182,192,32677,1,8,1:0:0:45:normal-hitclap.wav
329,192,32677,1,8,1:0:0:45:normal-hitclap.wav
109,192,33030,1,8,1:0:0:45:normal-hitclap.wav
329,192,33030,1,8,1:0:0:45:normal-hitclap.wav
64,192,33383,1,8,1:0:0:45:normal-hitclap.wav
256,192,33383,1,8,1:0:0:45:normal-hitclap.wav
402,192,33383,1,8,1:0:0:45:normal-hitclap.wav
256,192,33736,1,8,1:0:0:45:normal-hitclap.wav
402,192,33736,1,8,1:0:0:45:normal-hitclap.wav
320,192,34089,1,8,1:0:0:45:normal-hitclap.wav
448,192,34089,1,8,1:0:0:45:normal-hitclap.wav
192,192,34442,1,8,1:0:0:45:normal-hitclap.wav
256,192,34442,1,8,1:0:0:45:normal-hitclap.wav
448,192,34795,1,8,1:0:0:45:normal-hitclap.wav
109,192,34795,1,8,1:0:0:45:normal-hitclap.wav
320,192,34795,1,8,1:0:0:45:normal-hitclap.wav
192,192,35147,1,8,1:0:0:45:normal-hitclap.wav
448,192,35147,1,8,1:0:0:45:normal-hitclap.wav
192,192,35500,1,8,1:0:0:45:normal-hitclap.wav
256,192,35500,1,8,1:0:0:45:normal-hitclap.wav
64,192,35853,1,8,1:0:0:45:normal-hitclap.wav
320,192,35853,1,8,1:0:0:45:normal-hitclap.wav
402,192,36206,1,8,1:0:0:45:normal-hitclap.wav
182,192,36206,1,8,1:0:0:45:normal-hitclap.wav
256,192,36206,1,8,1:0:0:45:normal-hitclap.wav
192,192,36559,1,8,1:0:0:45:normal-hitclap.wav
402,192,36559,1,8,1:0:0:45:normal-hitclap.wav
320,192,36912,1,8,1:0:0:45:normal-hitclap.wav
64,192,36912,1,8,1:0:0:45:normal-hitclap.wav
64,192,37265,128,8,37794:1:0:0:45:normal-hitclap.wav
448,192,37618,1,8,1:0:0:45:normal-hitclap.wav
256,192,37794,128,8,38324:1:0:0:45:normal-hitclap.wav
109,192,38324,1,8,1:0:0:45:normal-hitclap.wav
448,192,38677,1,8,1:0:0:45:normal-hitclap.wav
192,192,39030,128,8,39736:1:0:0:45:normal-hitclap.wav
448,192,39206,128,8,39736:1:0:0:45:normal-hitclap.wav
256,192,40089,128,8,40618:1:0:0:45:normal-hitclap.wav
182,192,40089,128,8,40618:1:0:0:45:normal-hitclap.wav
448,192,40089,128,8,40618:1:0:0:45:normal-hitclap.wav
402,192,40618,128,8,41500:1:0:0:45:normal-hitclap.wav
64,192,40618,128,8,41500:1:0:0:45:normal-hitclap.wav
109,192,41500,128,8,42030:1:0:0:45:normal-hitclap.wav
320,192,41500,128,8,42030:1:0:0:45:normal-hitclap.wav
448,192,42030,128,8,42559:1:0:0:45:normal-hitclap.wav
402,192,42030,128,8,42559:1:0:0:45:normal-hitclap.wav
182,192,42559,1,8,1:0:0:45:normal-hitclap.wav
109,192,42559,1,8,1:0:0:45:normal-hitclap.wav
64,192,42559,1,8,1:0:0:45:normal-hitclap.wav
192,192,42912,1,8,1:0:0:45:normal-hitclap.wav
448,192,42912,1,8,1:0:0:45:normal-hitclap.wav
64,192,43265,1,8,1:0:0:45:normal-hitclap.wav
192,192,43265,1,0,0:0:0:45:normal-hitclap.wav
448,192,43618,1,8,1:0:0:45:normal-hitclap.wav
192,192,43971,1,8,1:0:0:45:normal-hitclap.wav
320,192,43971,1,0,0:0:0:45:normal-hitclap.wav
64,192,44324,128,8,44853:1:0:0:45:normal-hitclap.wav
448,192,44853,128,8,45383:1:0:0:45:normal-hitclap.wav
256,192,45383,128,8,45736:1:0:0:45:normal-hitclap.wav
320,192,45383,128,8,45736:1:0:0:45:normal-hitclap.wav
109,192,45736,128,8,46265:1:0:0:45:normal-hitclap.wav
64,192,45736,128,8,46265:1:0:0:45:normal-hitclap.wav
320,192,46265,128,8,46618:1:0:0:45:normal-hitclap.wav
64,192,46618,128,8,47147:1:0:0:45:normal-hitclap.wav
402,192,47147,1,8,1:0:0:45:normal-hitclap.wav
448,192,47147,1,8,1:0:0:45:normal-hitclap.wav
109,192,47500,1,8,1:0:0:45:normal-hitclap.wav
320,192,47853,1,8,1:0:0:45:normal-hitclap.wav
192,192,47853,1,8,1:0:0:45:normal-hitclap.wav
402,192,48206,1,8,1:0:0:45:normal-hitclap.wav
109,192,48206,1,8,1:0:0:45:normal-hitclap.wav
448,192,48206,1,8,1:0:0:45:normal-hitclap.wav
475,192,48559,1,8,1:0:0:45:normal-hitclap.wav
192,192,48559,1,8,1:0:0:45:normal-hitclap.wav
402,192,48912,1,8,1:0:0:45:normal-hitclap.wav
109,192,49088,1,8,1:0:0:45:normal-hitclap.wav
320,192,49441,1,8,1:0:0:45:normal-hitclap.wav
64,192,49794,1,8,1:0:0:45:normal-hitclap.wav
256,192,49794,1,8,1:0:0:45:normal-hitclap.wav
320,192,50147,1,8,1:0:0:45:normal-hitclap.wav
448,192,50324,1,8,1:0:0:45:normal-hitclap.wav
329,192,50500,1,8,1:0:0:45:normal-hitclap.wav
182,192,50677,1,8,1:0:0:45:normal-hitclap.wav
109,192,50853,1,8,1:0:0:45:normal-hitclap.wav
402,192,51030,1,8,1:0:0:45:normal-hitclap.wav
36,192,51206,1,8,1:0:0:45:normal-hitclap.wav
109,192,51383,128,8,53853:1:0:0:45:normal-hitclap.wav
320,192,51912,128,8,53853:1:0:0:45:normal-hitclap.wav
320,192,54206,128,8,55971:1:0:0:45:normal-hitclap.wav
64,192,54206,1,8,1:0:0:45:normal-hitclap.wav
109,192,54559,1,8,1:0:0:45:normal-hitclap.wav
402,192,54912,1,8,1:0:0:45:normal-hitclap.wav
256,192,55265,1,8,1:0:0:45:normal-hitclap.wav
182,192,55265,1,8,0:0:0:45:normal-hitclap.wav
402,192,55618,1,8,1:0:0:45:normal-hitclap.wav
475,192,55971,1,8,0:0:0:45:normal-hitclap.wav
402,192,56324,128,8,57030:0:0:0:45:normal-hitclap.wav
36,192,56677,128,8,57030:0:0:0:45:normal-hitclap.wav
109,192,57030,128,8,57559:0:0:0:45:normal-hitclap.wav
329,192,57383,1,8,0:0:0:45:normal-hitclap.wav
256,192,57559,128,8,58794:0:0:0:45:normal-hitclap.wav
64,192,57735,1,8,0:0:0:45:normal-hitclap.wav
448,192,58088,1,8,0:0:0:45:normal-hitclap.wav
109,192,58441,1,8,0:0:0:45:normal-hitclap.wav
475,192,58794,1,8,0:0:0:45:normal-hitclap.wav
192,192,58971,1,8,0:0:0:45:normal-hitclap.wav
402,192,59147,1,8,0:0:0:45:normal-hitclap.wav
256,192,59500,1,8,0:0:0:45:normal-hitclap.wav
192,192,59500,1,8,0:0:0:45:normal-hitclap.wav
329,192,59853,1,8,0:0:0:45:normal-hitclap.wav
109,192,60206,1,8,0:0:0:45:normal-hitclap.wav
329,192,60206,1,8,0:0:0:45:normal-hitclap.wav
36,192,60559,1,8,0:0:0:45:normal-hitclap.wav
256,192,60912,1,8,0:0:0:45:normal-hitclap.wav
402,192,60912,1,8,0:0:0:45:normal-hitclap.wav
448,192,61265,1,8,0:0:0:45:normal-hitclap.wav
256,192,61618,1,8,0:0:0:45:normal-hitclap.wav
64,192,61618,1,8,0:0:0:45:normal-hitclap.wav
320,192,61618,1,8,0:0:0:45:normal-hitclap.wav
109,192,61971,128,8,62324:0:0:0:45:normal-hitclap.wav
192,192,61971,128,8,62324:0:0:0:45:normal-hitclap.wav
320,192,62324,128,8,62677:0:0:0:45:normal-hitclap.wav
402,192,62677,128,8,63206:0:0:0:45:normal-hitclap.wav
64,192,62677,128,8,63206:0:0:0:45:normal-hitclap.wav
329,192,63206,128,8,63559:0:0:0:45:normal-hitclap.wav
192,192,63559,128,8,64088:0:0:0:45:normal-hitclap.wav
256,192,63559,128,8,64088:0:0:0:45:normal-hitclap.wav
448,192,64088,128,8,65147:0:0:0:45:normal-hitclap.wav
320,192,64441,1,8,0:0:0:45:normal-hitclap.wav
64,192,64794,1,8,0:0:0:45:normal-hitclap.wav
256,192,65147,1,8,0:0:0:45:normal-hitclap.wav
109,192,65500,1,8,0:0:0:45:normal-hitclap.wav
448,192,65853,1,8,0:0:0:45:normal-hitclap.wav
402,192,65853,1,8,0:0:0:45:normal-hitclap.wav
109,192,66030,1,0,0:0:0:45:normal-hitclap.wav
329,192,66206,1,8,0:0:0:45:normal-hitclap.wav
109,192,66559,1,8,0:0:0:45:normal-hitclap.wav
402,192,66559,1,8,0:0:0:45:normal-hitclap.wav
36,192,66559,1,8,0:0:0:45:normal-hitclap.wav
256,192,66912,1,8,0:0:0:45:normal-hitclap.wav
448,192,67265,1,8,0:0:0:45:normal-hitclap.wav
182,192,67265,1,8,0:0:0:45:normal-hitclap.wav
36,192,67265,1,8,0:0:0:45:normal-hitclap.wav
402,192,67441,1,0,0:0:0:45:normal-hitclap.wav
109,192,67618,1,8,0:0:0:45:normal-hitclap.wav
256,192,67971,1,8,0:0:0:45:normal-hitclap.wav
192,192,67971,1,8,0:0:0:45:normal-hitclap.wav
320,192,67971,1,8,0:0:0:45:normal-hitclap.wav
402,192,68324,1,8,0:0:0:45:normal-hitclap.wav
448,192,68324,1,8,0:0:0:45:normal-hitclap.wav
402,192,68677,1,8,0:0:0:45:normal-hitclap.wav
256,192,68677,1,8,0:0:0:45:normal-hitclap.wav
64,192,68853,1,0,0:0:0:45:normal-hitclap.wav
182,192,69030,1,8,0:0:0:45:normal-hitclap.wav
109,192,69382,1,8,0:0:0:45:normal-hitclap.wav
192,192,69382,1,8,0:0:0:45:normal-hitclap.wav
320,192,69382,1,8,0:0:0:45:normal-hitclap.wav
402,192,69735,1,8,0:0:0:45:normal-hitclap.wav
329,192,69735,1,8,0:0:0:45:normal-hitclap.wav
192,192,69735,1,8,0:0:0:45:normal-hitclap.wav
402,192,70088,1,8,0:0:0:45:normal-hitclap.wav
182,192,70088,1,8,0:0:0:45:normal-hitclap.wav
329,192,70265,1,0,0:0:0:45:normal-hitclap.wav
182,192,70441,1,8,0:0:0:45:normal-hitclap.wav
36,192,70794,1,8,0:0:0:45:normal-hitclap.wav
109,192,70794,1,8,0:0:0:45:normal-hitclap.wav
182,192,70794,1,8,0:0:0:45:normal-hitclap.wav
402,192,71147,128,8,71500:0:0:0:45:normal-hitclap.wav
448,192,71147,128,8,71500:0:0:0:45:normal-hitclap.wav
256,192,71500,128,8,71853:0:0:0:45:normal-hitclap.wav
320,192,71500,128,8,71853:0:0:0:45:normal-hitclap.wav
109,192,71853,1,8,0:0:0:45:normal-hitclap.wav
402,192,72206,1,8,0:0:0:45:normal-hitclap.wav
64,192,72206,1,8,0:0:0:45:normal-hitclap.wav
402,192,72559,1,8,0:0:0:45:normal-hitclap.wav
448,192,72559,1,8,0:0:0:45:normal-hitclap.wav
182,192,72559,1,8,0:0:0:45:normal-hitclap.wav
320,192,72912,1,8,0:0:0:45:normal-hitclap.wav
448,192,73088,1,8,0:0:0:45:normal-hitclap.wav
402,192,73441,1,8,0:0:0:45:normal-hitclap.wav
64,192,73441,1,8,0:0:0:45:normal-hitclap.wav
320,192,73441,1,8,0:0:0:45:normal-hitclap.wav
256,192,73794,128,8,75382:0:0:0:45:normal-hitclap.wav
192,192,74147,1,8,1:0:0:45:normal-hitclap.wav
320,192,74324,1,8,0:0:0:45:normal-hitclap.wav
109,192,74500,1,8,0:0:0:45:normal-hitclap.wav
402,192,74677,1,8,0:0:0:45:normal-hitclap.wav
64,192,74853,1,8,0:0:0:45:normal-hitclap.wav
320,192,75029,1,8,0:0:0:45:normal-hitclap.wav
475,192,75382,1,8,0:0:0:45:normal-hitclap.wav
64,192,75382,1,8,0:0:0:45:normal-hitclap.wav
402,192,75559,1,8,0:0:0:45:normal-hitclap.wav
109,192,75559,1,8,0:0:0:45:normal-hitclap.wav
329,192,75735,1,8,0:0:0:45:normal-hitclap.wav
182,192,75735,1,8,0:0:0:45:normal-hitclap.wav
256,192,76088,128,8,76441:0:0:0:45:normal-hitclap.wav
448,192,76088,128,8,76441:0:0:0:45:normal-hitclap.wav
192,192,76088,128,8,76441:0:0:0:45:normal-hitclap.wav
109,192,76441,128,8,79618:0:0:0:45:normal-hitclap.wav
320,192,76441,128,8,79618:0:0:0:45:normal-hitclap.wav
64,192,76441,128,8,79618:0:0:0:45:normal-hitclap.wav
