osu file format v14

[General]
AudioFilename: audio.mp3
AudioLeadIn: 0
PreviewTime: 1971
Countdown: 0
SampleSet: Normal
StackLeniency: 1
Mode: 3
LetterboxInBreaks: 0
SpecialStyle: 0
WidescreenStoryboard: 1

[Editor]
DistanceSpacing: 1.2
BeatDivisor: 4
GridSize: 8
TimelineZoom: 2.6

[Metadata]
Title:Great Days
TitleUnicode:Great Days
Artist:Karen Aoki /Daisuke Hasegawa/ Yugo Kanno
ArtistUnicode:Karen Aoki /Daisuke Hasegawa/ Yugo Kanno
Creator:Acelight
Version:Breakdown
Source:ダイヤモンドは砕けない
Tags:Jojo Diamond Is unbreakable DIU The DU
BeatmapID:1502262
BeatmapSetID:707792

[Difficulty]
HPDrainRate:8
CircleSize:4
OverallDifficulty:5
ApproachRate:5
SliderMultiplier:1.4
SliderTickRate:1

[Events]
//Background and Video events
0,0,"maxresdefault (2).jpg",0,0
//Break Periods
//Storyboard Layer 0 (Background)
//Storyboard Layer 1 (Fail)
//Storyboard Layer 2 (Pass)
//Storyboard Layer 3 (Foreground)
//Storyboard Sound Samples

[TimingPoints]
560,352.938151023289,4,1,1,44,1,0
14677,-142.857142857143,4,1,1,44,0,0
20324,-111.111111111111,4,1,1,44,0,0
25971,-100,4,1,1,44,0,0
36912,-142.857142857143,4,1,1,44,0,0
40089,-200,4,1,1,44,0,0
42912,-100,4,1,1,44,0,0
54206,-100,4,1,1,44,0,1
81029,-100,4,1,1,44,0,0

[HitObjects]
448,192,560,5,8,0:0:0:45:normal-hitclap.wav
320,192,560,1,8,0:0:0:45:normal-hitclap.wav
192,192,560,1,8,0:0:0:45:normal-hitclap.wav
320,192,912,1,8,0:0:0:45:normal-hitclap.wav
64,192,912,1,8,0:0:0:45:normal-hitclap.wav
64,192,1265,1,8,0:0:0:45:normal-hitclap.wav
320,192,1265,1,8,0:0:0:45:normal-hitclap.wav
448,192,1265,1,8,0:0:0:45:normal-hitclap.wav
192,192,1442,1,8,0:0:0:45:normal-hitclap.wav
64,192,1618,1,8,0:0:0:45:normal-hitclap.wav
448,192,1618,1,8,0:0:0:45:normal-hitclap.wav
320,192,1618,1,8,0:0:0:45:normal-hitclap.wav
192,192,1707,1,8,0:0:0:45:normal-hitclap.wav
64,192,1795,1,8,0:0:0:45:normal-hitclap.wav
448,192,1795,1,8,0:0:0:45:normal-hitclap.wav
320,192,1883,1,8,0:0:0:45:normal-hitclap.wav
192,192,1971,128,8,2324:0:0:0:45:normal-hitclap.wav
64,192,1971,128,8,2324:0:0:0:45:normal-hitclap.wav
448,192,1971,128,8,2324:0:0:0:45:normal-hitclap.wav
320,192,2324,128,8,2501:0:0:0:45:normal-hitclap.wav
64,192,2677,128,8,2854:0:0:0:45:normal-hitclap.wav
192,192,2677,128,8,2854:0:0:0:45:normal-hitclap.wav
320,192,2854,128,8,3030:0:0:0:45:normal-hitclap.wav
448,192,2854,128,8,3030:0:0:0:45:normal-hitclap.wav
320,192,3207,128,8,3559:0:0:0:45:normal-hitclap.wav
64,192,3207,128,8,3559:0:0:0:45:normal-hitclap.wav
448,192,3559,128,8,3736:0:0:0:45:normal-hitclap.wav
192,192,3736,128,8,3912:0:0:0:45:normal-hitclap.wav
64,192,3736,1,8,0:0:0:45:normal-hitclap.wav
320,192,3912,128,8,4089:0:0:0:45:normal-hitclap.wav
448,192,4089,128,8,4265:0:0:0:45:normal-hitclap.wav
64,192,4089,128,8,4265:0:0:0:45:normal-hitclap.wav
192,192,4265,128,8,4795:0:0:0:45:normal-hitclap.wav
320,192,4442,128,8,4795:0:0:0:45:normal-hitclap.wav
64,192,4795,128,8,5148:0:0:0:45:normal-hitclap.wav
448,192,4795,128,8,5148:0:0:0:45:normal-hitclap.wav
320,192,5148,128,8,5501:0:0:0:45:normal-hitclap.wav
192,192,5148,1,8,0:0:0:45:normal-hitclap.wav
448,192,5501,1,8,0:0:0:45:normal-hitclap.wav
192,192,5501,128,8,5677:0:0:0:45:normal-hitclap.wav
320,192,5677,1,8,0:0:0:45:normal-hitclap.wav
64,192,5677,128,8,5854:0:0:0:45:normal-hitclap.wav
448,192,6030,128,8,6559:0:0:0:45:normal-hitclap.wav
64,192,6030,128,8,6559:0:0:0:45:normal-hitclap.wav
320,192,6383,128,8,6559:0:0:0:45:normal-hitclap.wav
192,192,6559,128,8,6736:0:0:0:45:normal-hitclap.wav
64,192,6736,128,8,6912:0:0:0:45:normal-hitclap.wav
448,192,6736,1,8,0:0:0:45:normal-hitclap.wav
448,192,6912,128,8,7089:0:0:0:45:normal-hitclap.wav
320,192,6912,128,8,7089:0:0:0:45:normal-hitclap.wav
64,192,7089,128,8,7618:0:0:0:45:normal-hitclap.wav
448,192,7265,128,8,7618:0:0:0:45:normal-hitclap.wav
192,192,7618,128,8,8324:0:0:0:45:normal-hitclap.wav
64,192,7971,128,8,8324:0:0:0:45:normal-hitclap.wav
320,192,8324,128,8,8501:0:0:0:45:normal-hitclap.wav
448,192,8501,128,8,8677:0:0:0:45:normal-hitclap.wav
64,192,8854,128,8,9383:0:0:0:45:normal-hitclap.wav
192,192,8854,128,8,9383:0:0:0:45:normal-hitclap.wav
320,192,9206,128,8,9383:0:0:0:45:normal-hitclap.wav
448,192,9383,128,8,9559:0:0:0:45:normal-hitclap.wav
192,192,9559,128,8,9736:0:0:0:45:normal-hitclap.wav
320,192,9559,1,8,0:0:0:45:normal-hitclap.wav
64,192,9736,128,8,9912:0:0:0:45:normal-hitclap.wav
448,192,9736,128,8,9912:0:0:0:45:normal-hitclap.wav
192,192,9912,128,8,10442:0:0:0:45:normal-hitclap.wav
320,192,9912,1,8,0:0:0:45:normal-hitclap.wav
64,192,10442,128,8,11148:0:0:0:45:normal-hitclap.wav
192,192,10795,128,8,11148:0:0:0:45:normal-hitclap.wav
320,192,11148,128,8,11324:0:0:0:45:normal-hitclap.wav
448,192,11148,1,8,0:0:0:45:normal-hitclap.wav
192,192,11324,128,8,11501:0:0:0:45:normal-hitclap.wav
64,192,11324,1,8,0:0:0:45:normal-hitclap.wav
320,192,11677,128,8,12206:0:0:0:45:normal-hitclap.wav
64,192,11677,128,8,12206:0:0:0:45:normal-hitclap.wav
448,192,12030,128,8,12206:0:0:0:45:normal-hitclap.wav
192,192,12206,128,8,12383:0:0:0:45:normal-hitclap.wav
64,192,12383,128,8,12559:0:0:0:45:normal-hitclap.wav
320,192,12559,128,8,12736:0:0:0:45:normal-hitclap.wav
448,192,12559,128,8,12736:0:0:0:45:normal-hitclap.wav
192,192,12736,128,8,13265:0:0:0:45:normal-hitclap.wav
64,192,12736,128,8,13265:0:0:0:45:normal-hitclap.wav
320,192,13265,1,8,0:0:0:45:normal-hitclap.wav
448,192,13265,1,8,0:0:0:45:normal-hitclap.wav
320,192,13618,1,8,0:0:0:45:normal-hitclap.wav
448,192,13618,1,8,0:0:0:45:normal-hitclap.wav
192,192,13618,1,8,0:0:0:45:normal-hitclap.wav
448,192,13971,1,8,0:0:0:45:normal-hitclap.wav
64,192,13971,1,8,0:0:0:45:normal-hitclap.wav
320,192,13971,1,8,0:0:0:45:normal-hitclap.wav
192,192,14148,1,8,0:0:0:45:normal-hitclap.wav
448,192,14324,1,8,0:0:0:45:normal-hitclap.wav
64,192,14324,1,8,0:0:0:45:normal-hitclap.wav
192,192,14324,1,8,0:0:0:45:normal-hitclap.wav
320,192,14412,1,8,0:0:0:45:normal-hitclap.wav
448,192,14501,1,8,0:0:0:45:normal-hitclap.wav
192,192,14501,1,8,0:0:0:45:normal-hitclap.wav
320,192,14589,1,8,0:0:0:45:normal-hitclap.wav
448,192,14677,128,8,15206:0:0:0:45:normal-hitclap.wav
64,192,14677,128,8,15206:0:0:0:45:normal-hitclap.wav
192,192,15206,128,8,16089:0:0:0:45:normal-hitclap.wav
320,192,15206,128,8,16089:0:0:0:45:normal-hitclap.wav
448,192,15736,1,8,0:0:0:45:normal-hitclap.wav
64,192,15736,1,8,0:0:0:45:normal-hitclap.wav
448,192,16089,128,8,17148:0:0:0:45:normal-hitclap.wav
64,192,16089,128,8,17148:0:0:0:45:normal-hitclap.wav
192,192,16618,128,8,17148:0:0:0:45:normal-hitclap.wav
320,192,17148,1,8,0:0:0:45:normal-hitclap.wav
192,192,17501,128,8,18030:0:0:0:45:normal-hitclap.wav
320,192,17501,128,8,18030:0:0:0:45:normal-hitclap.wav
64,192,17853,1,8,0:0:0:45:normal-hitclap.wav
448,192,18030,128,8,18559:0:0:0:45:normal-hitclap.wav
64,192,18559,1,8,0:0:0:45:normal-hitclap.wav
320,192,18559,128,8,18912:0:0:0:45:normal-hitclap.wav
448,192,18912,1,8,0:0:0:45:normal-hitclap.wav
192,192,18912,128,8,19971:0:0:0:45:normal-hitclap.wav
448,192,19265,1,8,0:0:0:45:normal-hitclap.wav
320,192,19265,1,8,0:0:0:45:normal-hitclap.wav
64,192,19618,1,8,0:0:0:45:normal-hitclap.wav
320,192,19618,1,8,0:0:0:45:normal-hitclap.wav
448,192,19618,1,8,0:0:0:45:normal-hitclap.wav
64,192,19971,1,8,0:0:0:45:normal-hitclap.wav
448,192,19971,1,8,0:0:0:45:normal-hitclap.wav
320,192,20324,1,8,0:0:0:45:normal-hitclap.wav
64,192,20324,1,8,0:0:0:45:normal-hitclap.wav
192,192,20501,1,8,0:0:0:45:normal-hitclap.wav
448,192,20677,1,8,0:0:0:45:normal-hitclap.wav
320,192,20677,1,8,0:0:0:45:normal-hitclap.wav
192,192,20677,1,8,0:0:0:45:normal-hitclap.wav
64,192,20853,1,8,0:0:0:45:normal-hitclap.wav
64,192,21030,1,8,0:0:0:45:normal-hitclap.wav
192,192,21030,1,8,0:0:0:45:normal-hitclap.wav
448,192,21206,1,8,0:0:0:45:normal-hitclap.wav
64,192,21383,128,8,21559:0:0:0:45:normal-hitclap.wav
320,192,21383,128,8,21559:0:0:0:45:normal-hitclap.wav
192,192,21383,128,8,21559:0:0:0:45:normal-hitclap.wav
64,192,21736,1,8,0:0:0:45:normal-hitclap.wav
448,192,21736,1,8,0:0:0:45:normal-hitclap.wav
192,192,21912,1,8,0:0:0:45:normal-hitclap.wav
320,192,22089,1,8,0:0:0:45:normal-hitclap.wav
192,192,22089,1,8,0:0:0:45:normal-hitclap.wav
64,192,22089,1,8,0:0:0:45:normal-hitclap.wav
64,192,22265,1,8,0:0:0:45:normal-hitclap.wav
448,192,22442,1,8,0:0:0:45:normal-hitclap.wav
320,192,22442,1,8,0:0:0:45:normal-hitclap.wav
320,192,22618,1,8,0:0:0:45:normal-hitclap.wav
320,192,22795,128,8,22971:0:0:0:45:normal-hitclap.wav
192,192,22795,128,8,22971:0:0:0:45:normal-hitclap.wav
448,192,22795,128,8,22971:0:0:0:45:normal-hitclap.wav
192,192,23148,1,8,0:0:0:45:normal-hitclap.wav
448,192,23148,1,8,0:0:0:45:normal-hitclap.wav
64,192,23324,1,8,0:0:0:45:normal-hitclap.wav
64,192,23500,1,8,0:0:0:45:normal-hitclap.wav
192,192,23500,1,8,0:0:0:45:normal-hitclap.wav
320,192,23500,1,8,0:0:0:45:normal-hitclap.wav
448,192,23677,1,8,0:0:0:45:normal-hitclap.wav
192,192,23853,1,8,0:0:0:45:normal-hitclap.wav
448,192,23853,1,8,0:0:0:45:normal-hitclap.wav
64,192,24030,1,8,0:0:0:45:normal-hitclap.wav
320,192,24206,128,8,24383:0:0:0:45:normal-hitclap.wav
64,192,24206,128,8,24383:0:0:0:45:normal-hitclap.wav
448,192,24206,128,8,24383:0:0:0:45:normal-hitclap.wav
192,192,24559,1,8,0:0:0:45:normal-hitclap.wav
448,192,24559,1,8,0:0:0:45:normal-hitclap.wav
320,192,24736,1,8,0:0:0:45:normal-hitclap.wav
192,192,24912,1,8,0:0:0:45:normal-hitclap.wav
64,192,24912,1,8,0:0:0:45:normal-hitclap.wav
320,192,24912,1,8,0:0:0:45:normal-hitclap.wav
448,192,25089,1,8,0:0:0:45:normal-hitclap.wav
64,192,25089,1,8,0:0:0:45:normal-hitclap.wav
320,192,25265,1,8,0:0:0:45:normal-hitclap.wav
192,192,25442,1,8,0:0:0:45:normal-hitclap.wav
448,192,25442,1,8,0:0:0:45:normal-hitclap.wav
329,192,25442,1,8,1:1:0:45:normal-hitclap.wav
320,192,25618,1,8,0:0:0:45:normal-hitclap.wav
192,192,25618,1,8,0:0:0:45:normal-hitclap.wav
64,192,25618,1,8,0:0:0:45:normal-hitclap.wav
320,192,25706,1,8,0:0:0:45:normal-hitclap.wav
64,192,25795,1,8,0:0:0:45:normal-hitclap.wav
448,192,25795,1,8,0:0:0:45:normal-hitclap.wav
192,192,25883,1,8,0:0:0:45:normal-hitclap.wav
192,192,25971,128,8,26148:0:0:0:45:normal-hitclap.wav
320,192,25971,128,8,26148:0:0:0:45:normal-hitclap.wav
448,192,25971,128,8,26148:0:0:0:45:normal-hitclap.wav
64,192,26324,128,8,26500:0:0:0:45:normal-hitclap.wav
320,192,26324,128,8,26500:0:0:0:45:normal-hitclap.wav
192,192,26324,1,8,0:0:0:45:normal-hitclap.wav
192,192,26677,128,8,26853:0:0:0:45:normal-hitclap.wav
64,192,26677,128,8,26853:0:0:0:45:normal-hitclap.wav
448,192,26677,128,8,26853:0:0:0:45:normal-hitclap.wav
448,192,27030,128,8,27206:0:0:0:45:normal-hitclap.wav
192,192,27030,128,8,27206:0:0:0:45:normal-hitclap.wav
320,192,27030,1,8,0:0:0:45:normal-hitclap.wav
320,192,27206,1,8,0:0:0:45:normal-hitclap.wav
64,192,27206,1,8,0:0:0:45:normal-hitclap.wav
64,192,27383,128,8,27559:0:0:0:45:normal-hitclap.wav
448,192,27383,128,8,27559:0:0:0:45:normal-hitclap.wav
320,192,27383,128,8,27559:0:0:0:45:normal-hitclap.wav
192,192,27736,128,8,27912:0:0:0:45:normal-hitclap.wav
320,192,27736,128,8,27912:0:0:0:45:normal-hitclap.wav
64,192,27736,1,8,0:0:0:45:normal-hitclap.wav
448,192,27912,1,8,0:0:0:45:normal-hitclap.wav
64,192,28089,128,8,28265:0:0:0:45:normal-hitclap.wav
192,192,28089,128,8,28265:0:0:0:45:normal-hitclap.wav
320,192,28089,1,8,0:0:0:45:normal-hitclap.wav
448,192,28265,1,8,0:0:0:45:normal-hitclap.wav
320,192,28442,128,8,28618:0:0:0:45:normal-hitclap.wav
64,192,28442,128,8,28618:0:0:0:45:normal-hitclap.wav
448,192,28442,1,8,0:0:0:45:normal-hitclap.wav
192,192,28618,1,8,0:0:0:45:normal-hitclap.wav
64,192,28795,128,8,28971:0:0:0:45:normal-hitclap.wav
448,192,28795,128,8,28971:0:0:0:45:normal-hitclap.wav
192,192,28795,128,8,28971:0:0:0:45:normal-hitclap.wav
192,192,29147,128,8,29324:0:0:0:45:normal-hitclap.wav
320,192,29147,128,8,29324:0:0:0:45:normal-hitclap.wav
448,192,29147,128,8,29324:0:0:0:45:normal-hitclap.wav
64,192,29500,128,8,29677:0:0:0:45:normal-hitclap.wav
448,192,29500,128,8,29677:0:0:0:45:normal-hitclap.wav
320,192,29500,1,8,0:0:0:45:normal-hitclap.wav
192,192,29500,1,8,0:0:0:45:normal-hitclap.wav
448,192,29853,128,8,30030:0:0:0:45:normal-hitclap.wav
192,192,29853,128,8,30030:0:0:0:45:normal-hitclap.wav
320,192,29853,1,8,0:0:0:45:normal-hitclap.wav
320,192,30030,1,8,0:0:0:45:normal-hitclap.wav
64,192,30030,1,8,0:0:0:45:normal-hitclap.wav
320,192,30206,128,8,30383:0:0:0:45:normal-hitclap.wav
64,192,30206,128,8,30383:0:0:0:45:normal-hitclap.wav
448,192,30206,128,8,30383:0:0:0:45:normal-hitclap.wav
64,192,30559,128,8,30736:0:0:0:45:normal-hitclap.wav
448,192,30559,128,8,30736:0:0:0:45:normal-hitclap.wav
192,192,30559,1,8,0:0:0:45:normal-hitclap.wav
320,192,30736,1,8,0:0:0:45:normal-hitclap.wav
320,192,30912,128,8,31089:0:0:0:45:normal-hitclap.wav
448,192,30912,128,8,31089:0:0:0:45:normal-hitclap.wav
192,192,30912,1,8,0:0:0:45:normal-hitclap.wav
64,192,31089,1,8,0:0:0:45:normal-hitclap.wav
64,192,31265,128,8,31442:0:0:0:45:normal-hitclap.wav
320,192,31265,128,8,31442:0:0:0:45:normal-hitclap.wav
192,192,31265,1,8,0:0:0:45:normal-hitclap.wav
448,192,31442,1,8,0:0:0:45:normal-hitclap.wav
448,192,31618,128,8,31795:0:0:0:45:normal-hitclap.wav
320,192,31618,128,8,31795:0:0:0:45:normal-hitclap.wav
64,192,31618,128,8,31795:0:0:0:45:normal-hitclap.wav
64,192,31971,128,8,32147:0:0:0:45:normal-hitclap.wav
320,192,31971,128,8,32147:0:0:0:45:normal-hitclap.wav
192,192,31971,128,8,32147:0:0:0:45:normal-hitclap.wav
448,192,32324,128,8,32500:0:0:0:45:normal-hitclap.wav
320,192,32324,128,8,32500:0:0:0:45:normal-hitclap.wav
192,192,32324,128,8,32500:0:0:0:45:normal-hitclap.wav
192,192,32677,128,8,32853:0:0:0:45:normal-hitclap.wav
448,192,32677,128,8,32853:0:0:0:45:normal-hitclap.wav
64,192,32853,128,8,33030:0:0:0:45:normal-hitclap.wav
320,192,32853,128,8,33030:0:0:0:45:normal-hitclap.wav
192,192,33030,128,8,33206:0:0:0:45:normal-hitclap.wav
448,192,33030,128,8,33206:0:0:0:45:normal-hitclap.wav
320,192,33206,128,8,33383:0:0:0:45:normal-hitclap.wav
64,192,33206,128,8,33383:0:0:0:45:normal-hitclap.wav
192,192,33383,128,8,33559:0:0:0:45:normal-hitclap.wav
448,192,33383,128,8,33559:0:0:0:45:normal-hitclap.wav
448,192,33736,128,8,33912:0:0:0:45:normal-hitclap.wav
64,192,33736,128,8,33912:0:0:0:45:normal-hitclap.wav
192,192,33736,1,8,0:0:0:45:normal-hitclap.wav
192,192,33912,128,8,34089:0:0:0:45:normal-hitclap.wav
320,192,33912,1,8,0:0:0:45:normal-hitclap.wav
64,192,34089,128,8,34265:0:0:0:45:normal-hitclap.wav
320,192,34089,128,8,34265:0:0:0:45:normal-hitclap.wav
448,192,34089,1,8,0:0:0:45:normal-hitclap.wav
448,192,34265,128,8,34442:0:0:0:45:normal-hitclap.wav
192,192,34265,128,8,34442:0:0:0:45:normal-hitclap.wav
64,192,34442,128,8,36206:0:0:0:45:normal-hitclap.wav
320,192,34442,1,8,0:0:0:45:normal-hitclap.wav
448,192,34795,1,8,0:0:0:45:normal-hitclap.wav
320,192,34795,128,8,34971:0:0:0:45:normal-hitclap.wav
192,192,34971,128,8,35324:0:0:0:45:normal-hitclap.wav
320,192,35324,128,8,35677:0:0:0:45:normal-hitclap.wav
448,192,35324,1,8,0:0:0:45:normal-hitclap.wav
448,192,35677,128,8,36206:0:0:0:45:normal-hitclap.wav
192,192,35677,1,8,0:0:0:45:normal-hitclap.wav
192,192,36030,1,8,0:0:0:45:normal-hitclap.wav
192,192,36206,1,8,0:0:0:45:normal-hitclap.wav
320,192,36206,1,8,0:0:0:45:normal-hitclap.wav
320,192,36383,1,8,0:0:0:45:normal-hitclap.wav
64,192,36559,1,8,0:0:0:45:normal-hitclap.wav
192,192,36559,1,8,0:0:0:45:normal-hitclap.wav
320,192,36559,1,8,0:0:0:45:normal-hitclap.wav
64,192,36736,1,8,0:0:0:45:normal-hitclap.wav
320,192,36912,1,8,0:0:0:45:normal-hitclap.wav
64,192,36912,1,8,0:0:0:45:normal-hitclap.wav
448,192,36912,128,8,37265:0:0:0:45:normal-hitclap.wav
64,192,37265,128,8,37794:0:0:0:45:normal-hitclap.wav
320,192,37265,128,8,37794:0:0:0:45:normal-hitclap.wav
448,192,37618,1,8,0:0:0:45:normal-hitclap.wav
192,192,37794,128,8,39736:0:0:0:45:normal-hitclap.wav
320,192,38324,128,8,38677:0:0:0:45:normal-hitclap.wav
448,192,38677,128,8,39030:0:0:0:45:normal-hitclap.wav
320,192,39030,1,0,0:0:0:45:normal-hitclap.wav
320,192,39206,128,8,39736:0:0:0:45:normal-hitclap.wav
448,192,39206,128,8,39736:0:0:0:45:normal-hitclap.wav
64,192,40089,128,8,40618:0:0:0:45:normal-hitclap.wav
320,192,40089,128,8,40618:0:0:0:45:normal-hitclap.wav
448,192,40089,1,8,0:0:0:45:normal-hitclap.wav
192,192,40618,128,8,41500:0:0:0:45:normal-hitclap.wav
448,192,40618,128,8,41500:0:0:0:45:normal-hitclap.wav
64,192,41500,128,8,42030:0:0:0:45:normal-hitclap.wav
192,192,42030,128,8,42559:0:0:0:45:normal-hitclap.wav
320,192,42030,128,8,42559:0:0:0:45:normal-hitclap.wav
448,192,42559,128,8,42912:0:0:0:45:normal-hitclap.wav
64,192,42559,1,8,0:0:0:45:normal-hitclap.wav
64,192,42912,128,8,43971:0:0:0:45:normal-hitclap.wav
192,192,42912,128,8,43971:0:0:0:45:normal-hitclap.wav
448,192,43265,1,8,0:0:0:70:drum-hitclap.wav
320,192,43265,1,8,0:0:0:70:drum-hitclap.wav
320,192,43441,1,8,0:0:0:45:normal-hitclap.wav
448,192,43618,1,8,0:0:0:45:normal-hitclap.wav
320,192,43618,1,8,0:0:0:45:normal-hitclap.wav
448,192,43794,1,8,0:0:0:45:normal-hitclap.wav
320,192,43971,1,8,0:0:0:70:drum-hitclap.wav
448,192,43971,1,8,0:0:0:70:drum-hitclap.wav
320,192,44147,1,8,0:0:0:45:normal-hitclap.wav
448,192,44324,1,8,0:0:0:45:normal-hitclap.wav
192,192,44324,1,8,0:0:0:45:normal-hitclap.wav
320,192,44500,1,8,0:0:0:45:normal-hitclap.wav
448,192,44677,1,8,0:0:0:70:drum-hitclap.wav
192,192,44677,1,8,0:0:0:70:drum-hitclap.wav
64,192,44677,1,8,0:0:0:45:normal-hitclap.wav
64,192,44853,1,8,0:0:0:45:normal-hitclap.wav
448,192,45030,1,8,0:0:0:45:normal-hitclap.wav
320,192,45030,1,8,0:0:0:45:normal-hitclap.wav
64,192,45206,1,8,0:0:0:45:normal-hitclap.wav
192,192,45206,1,8,0:0:0:45:normal-hitclap.wav
320,192,45383,1,8,0:0:0:45:normal-hitclap.wav
448,192,45383,1,8,0:0:0:70:drum-hitclap.wav
64,192,45383,1,8,0:0:0:70:drum-hitclap.wav
192,192,45559,1,8,0:0:0:45:normal-hitclap.wav
64,192,45736,128,8,46000:0:0:0:45:normal-hitclap.wav
448,192,45736,128,8,46000:0:0:0:45:normal-hitclap.wav
192,192,45736,128,8,46000:0:0:0:45:normal-hitclap.wav
448,192,46089,1,8,0:0:0:70:drum-hitclap.wav
64,192,46089,1,8,0:0:0:45:normal-hitclap.wav
320,192,46089,1,8,0:0:0:70:drum-hitclap.wav
64,192,46265,1,8,0:0:0:45:normal-hitclap.wav
448,192,46441,1,8,0:0:0:45:normal-hitclap.wav
192,192,46441,1,8,0:0:0:45:normal-hitclap.wav
192,192,46618,1,8,0:0:0:45:normal-hitclap.wav
192,192,46794,1,8,0:0:0:70:drum-hitclap.wav
64,192,46794,1,8,0:0:0:70:drum-hitclap.wav
320,192,46794,1,8,0:0:0:45:normal-hitclap.wav
320,192,46971,1,8,0:0:0:45:normal-hitclap.wav
64,192,47147,1,8,0:0:0:45:normal-hitclap.wav
320,192,47147,128,8,47853:0:0:0:45:normal-hitclap.wav
448,192,47147,1,8,0:0:0:45:normal-hitclap.wav
192,192,47500,1,8,0:0:0:45:normal-hitclap.wav
448,192,47500,1,8,0:0:0:45:normal-hitclap.wav
64,192,47500,128,8,47853:0:0:0:45:normal-hitclap.wav
192,192,47853,128,8,48206:0:0:0:45:normal-hitclap.wav
448,192,47853,1,8,0:0:0:45:normal-hitclap.wav
320,192,48206,128,8,48559:0:0:0:45:normal-hitclap.wav
448,192,48206,1,8,0:0:0:45:normal-hitclap.wav
448,192,48559,128,8,48912:0:0:0:45:normal-hitclap.wav
64,192,48559,128,8,48912:0:0:0:45:normal-hitclap.wav
320,192,48912,1,8,0:0:0:45:normal-hitclap.wav
448,192,49088,1,8,0:0:0:45:normal-hitclap.wav
320,192,49088,1,8,0:0:0:45:normal-hitclap.wav
64,192,49088,128,8,49441:0:0:0:45:normal-hitclap.wav
448,192,49441,1,8,0:0:0:45:normal-hitclap.wav
320,192,49441,128,8,49794:0:0:0:45:normal-hitclap.wav
64,192,49794,1,8,0:0:0:45:normal-hitclap.wav
192,192,49794,128,8,50324:0:0:0:45:normal-hitclap.wav
448,192,49794,1,8,0:0:0:45:normal-hitclap.wav
448,192,50147,128,8,50324:0:0:0:45:normal-hitclap.wav
320,192,50147,1,8,0:0:0:45:normal-hitclap.wav
320,192,50324,128,8,50500:0:0:0:45:normal-hitclap.wav
64,192,50500,128,8,50677:0:0:0:45:normal-hitclap.wav
192,192,50500,1,8,0:0:0:45:normal-hitclap.wav
320,192,50677,1,8,0:0:0:45:normal-hitclap.wav
448,192,50677,128,8,50853:0:0:0:45:normal-hitclap.wav
192,192,50853,128,8,51030:0:0:0:45:normal-hitclap.wav
64,192,50853,1,8,0:0:0:45:normal-hitclap.wav
448,192,51030,128,8,51206:0:0:0:45:normal-hitclap.wav
320,192,51030,1,8,0:0:0:45:normal-hitclap.wav
192,192,51206,128,8,51383:0:0:0:45:normal-hitclap.wav
64,192,51383,128,8,51736:0:0:0:45:normal-hitclap.wav
320,192,51383,1,8,0:0:0:45:normal-hitclap.wav
320,192,51736,1,8,0:0:0:45:normal-hitclap.wav
448,192,51736,1,8,0:0:0:45:normal-hitclap.wav
320,192,51912,1,8,0:0:0:45:normal-hitclap.wav
320,192,52088,1,8,0:0:0:45:normal-hitclap.wav
192,192,52088,1,8,0:0:0:45:normal-hitclap.wav
64,192,52265,1,8,0:0:0:45:normal-hitclap.wav
192,192,52441,1,8,0:0:0:45:normal-hitclap.wav
64,192,52441,1,8,0:0:0:45:normal-hitclap.wav
320,192,52618,1,8,0:0:0:45:normal-hitclap.wav
192,192,52794,1,8,0:0:0:45:normal-hitclap.wav
448,192,52794,1,8,0:0:0:45:normal-hitclap.wav
320,192,52794,1,0,0:0:0:45:normal-hitclap.wav
64,192,52971,128,8,53147:0:0:0:45:normal-hitclap.wav
192,192,52971,128,8,53147:0:0:0:45:normal-hitclap.wav
448,192,53147,128,8,53324:0:0:0:45:normal-hitclap.wav
320,192,53147,128,8,53324:0:0:0:45:normal-hitclap.wav
64,192,53324,128,8,53500:0:0:0:45:normal-hitclap.wav
448,192,53500,128,8,53677:0:0:0:45:normal-hitclap.wav
192,192,53500,128,8,53677:0:0:0:45:normal-hitclap.wav
64,192,53677,128,8,53853:0:0:0:45:normal-hitclap.wav
192,192,53853,128,8,54030:0:0:0:45:normal-hitclap.wav
320,192,53853,128,8,54030:0:0:0:45:normal-hitclap.wav
448,192,54030,128,8,54206:0:0:0:45:normal-hitclap.wav
64,192,54030,128,8,54206:0:0:0:45:normal-hitclap.wav
320,192,54206,1,0,0:0:0:45:normal-hitclap.wav
192,192,54206,1,0,0:0:0:45:normal-hitclap.wav
192,192,54383,1,8,0:0:0:45:normal-hitclap.wav
320,192,54383,1,8,0:0:0:45:normal-hitclap.wav
64,192,54559,1,8,0:0:0:45:normal-hitclap.wav
448,192,54559,1,8,0:0:0:70:drum-hitclap.wav
320,192,54559,1,0,0:0:0:70:drum-hitclap.wav
448,192,54736,1,8,0:0:0:45:normal-hitclap.wav
192,192,54736,1,8,0:0:0:45:normal-hitclap.wav
64,192,54912,1,8,0:0:0:45:normal-hitclap.wav
192,192,54912,1,8,0:0:0:45:normal-hitclap.wav
448,192,55088,1,8,0:0:0:45:normal-hitclap.wav
320,192,55088,1,8,0:0:0:45:normal-hitclap.wav
192,192,55265,1,8,0:0:0:70:drum-hitclap.wav
448,192,55265,1,8,0:0:0:70:drum-hitclap.wav
64,192,55265,1,8,0:0:0:45:normal-hitclap.wav
320,192,55441,1,8,0:0:0:45:normal-hitclap.wav
64,192,55441,1,0,0:0:0:45:normal-hitclap.wav
192,192,55618,1,8,0:0:0:45:normal-hitclap.wav
448,192,55618,1,8,0:0:0:45:normal-hitclap.wav
320,192,55794,1,8,0:0:0:45:normal-hitclap.wav
448,192,55794,1,8,0:0:0:45:normal-hitclap.wav
320,192,55971,1,8,0:0:0:70:drum-hitclap.wav
192,192,55971,1,8,0:0:0:70:drum-hitclap.wav
64,192,55971,1,8,0:0:0:45:normal-hitclap.wav
320,192,56147,1,8,0:0:0:45:normal-hitclap.wav
192,192,56147,1,8,0:0:0:45:normal-hitclap.wav
448,192,56324,1,8,0:0:0:45:normal-hitclap.wav
192,192,56324,1,8,0:0:0:45:normal-hitclap.wav
320,192,56500,1,8,0:0:0:45:normal-hitclap.wav
64,192,56500,1,8,0:0:0:45:normal-hitclap.wav
64,192,56677,1,8,0:0:0:45:normal-hitclap.wav
320,192,56677,1,8,0:0:0:70:drum-hitclap.wav
448,192,56677,1,0,0:0:0:70:drum-hitclap.wav
192,192,56853,1,0,0:0:0:45:normal-hitclap.wav
64,192,57030,1,8,0:0:0:45:normal-hitclap.wav
448,192,57030,1,8,0:0:0:45:normal-hitclap.wav
320,192,57206,1,8,0:0:0:45:normal-hitclap.wav
192,192,57206,1,8,0:0:0:45:normal-hitclap.wav
192,192,57383,1,8,0:0:0:45:normal-hitclap.wav
320,192,57383,1,8,0:0:0:45:normal-hitclap.wav
448,192,57383,1,0,0:0:0:70:drum-hitclap.wav
64,192,57383,1,0,0:0:0:70:drum-hitclap.wav
448,192,57559,1,8,0:0:0:45:normal-hitclap.wav
320,192,57735,1,8,0:0:0:45:normal-hitclap.wav
64,192,57735,1,8,0:0:0:45:normal-hitclap.wav
320,192,57912,1,8,0:0:0:45:normal-hitclap.wav
448,192,57912,1,8,0:0:0:45:normal-hitclap.wav
64,192,58088,1,8,0:0:0:70:drum-hitclap.wav
448,192,58088,1,8,0:0:0:45:normal-hitclap.wav
192,192,58088,1,0,0:0:0:70:drum-hitclap.wav
320,192,58265,1,0,0:0:0:45:normal-hitclap.wav
448,192,58441,1,8,0:0:0:45:normal-hitclap.wav
64,192,58441,1,8,0:0:0:45:normal-hitclap.wav
64,192,58618,1,8,0:0:0:45:normal-hitclap.wav
192,192,58618,1,8,0:0:0:45:normal-hitclap.wav
448,192,58794,1,8,0:0:0:45:normal-hitclap.wav
192,192,58794,1,0,0:0:0:70:drum-hitclap.wav
320,192,58794,1,0,0:0:0:70:drum-hitclap.wav
192,192,58971,1,8,0:0:0:45:normal-hitclap.wav
320,192,58971,1,0,0:0:0:45:normal-hitclap.wav
64,192,58971,1,0,0:0:0:45:normal-hitclap.wav
64,192,59147,1,8,0:0:0:45:normal-hitclap.wav
448,192,59147,1,8,0:0:0:45:normal-hitclap.wav
320,192,59147,1,8,0:0:0:45:normal-hitclap.wav
64,192,59324,1,8,0:0:0:45:normal-hitclap.wav
192,192,59324,1,8,0:0:0:45:normal-hitclap.wav
448,192,59324,1,8,0:0:0:45:normal-hitclap.wav
448,192,59500,1,8,0:0:0:70:drum-hitclap.wav
192,192,59500,1,8,0:0:0:70:drum-hitclap.wav
320,192,59500,1,8,0:0:0:45:normal-hitclap.wav
448,192,59677,1,8,0:0:0:45:normal-hitclap.wav
320,192,59853,1,8,0:0:0:45:normal-hitclap.wav
64,192,59853,1,8,0:0:0:45:normal-hitclap.wav
192,192,60030,1,8,0:0:0:45:normal-hitclap.wav
320,192,60030,1,8,0:0:0:45:normal-hitclap.wav
320,192,60206,1,8,0:0:0:70:drum-hitclap.wav
64,192,60206,1,8,0:0:0:70:drum-hitclap.wav
192,192,60206,1,8,0:0:0:70:drum-hitclap.wav
448,192,60206,1,8,0:0:0:45:normal-hitclap.wav
64,192,60383,1,8,0:0:0:45:normal-hitclap.wav
448,192,60383,1,0,0:0:0:45:normal-hitclap.wav
192,192,60383,1,0,0:0:0:45:normal-hitclap.wav
64,192,60559,1,8,0:0:0:45:normal-hitclap.wav
448,192,60559,1,8,0:0:0:45:normal-hitclap.wav
448,192,60735,1,8,0:0:0:45:normal-hitclap.wav
192,192,60735,1,8,0:0:0:45:normal-hitclap.wav
448,192,60912,1,8,0:0:0:70:drum-hitclap.wav
320,192,60912,1,8,0:0:0:70:drum-hitclap.wav
64,192,60912,1,8,0:0:0:45:normal-hitclap.wav
192,192,61088,1,8,0:0:0:45:normal-hitclap.wav
320,192,61265,1,8,0:0:0:45:normal-hitclap.wav
192,192,61265,1,8,0:0:0:45:normal-hitclap.wav
448,192,61265,1,8,0:0:0:45:normal-hitclap.wav
192,192,61441,1,8,0:0:0:45:normal-hitclap.wav
64,192,61441,1,8,0:0:0:45:normal-hitclap.wav
320,192,61441,1,8,0:0:0:45:normal-hitclap.wav
320,192,61618,1,8,0:0:0:70:drum-hitclap.wav
64,192,61618,1,8,0:0:0:45:normal-hitclap.wav
448,192,61618,1,8,0:0:0:70:drum-hitclap.wav
192,192,61794,1,8,0:0:0:45:normal-hitclap.wav
64,192,61971,1,8,0:0:0:45:normal-hitclap.wav
320,192,61971,1,8,0:0:0:45:normal-hitclap.wav
448,192,61971,128,8,62324:0:0:0:45:normal-hitclap.wav
320,192,62324,128,8,63206:0:0:0:45:normal-hitclap.wav
192,192,62324,1,8,0:0:0:45:normal-hitclap.wav
64,192,62324,1,8,0:0:0:45:normal-hitclap.wav
192,192,62677,128,8,63206:0:0:0:45:normal-hitclap.wav
64,192,62677,1,8,0:0:0:45:normal-hitclap.wav
64,192,63030,1,8,0:0:0:45:normal-hitclap.wav
448,192,63030,1,8,0:0:0:45:normal-hitclap.wav
64,192,63206,128,8,63735:0:0:0:45:normal-hitclap.wav
448,192,63206,1,0,0:0:0:45:normal-hitclap.wav
448,192,63382,1,8,0:0:0:45:normal-hitclap.wav
320,192,63382,1,0,0:0:0:45:normal-hitclap.wav
192,192,63559,1,8,0:0:0:45:normal-hitclap.wav
320,192,63559,1,8,0:0:0:45:normal-hitclap.wav
448,192,63559,128,8,64088:0:0:0:45:normal-hitclap.wav
192,192,63735,1,8,0:0:0:45:normal-hitclap.wav
320,192,63912,1,8,0:0:0:45:normal-hitclap.wav
320,192,64088,128,8,64971:0:0:0:45:normal-hitclap.wav
64,192,64088,1,8,0:0:0:45:normal-hitclap.wav
192,192,64088,1,8,0:0:0:45:normal-hitclap.wav
64,192,64265,1,8,0:0:0:45:normal-hitclap.wav
448,192,64441,1,8,0:0:0:45:normal-hitclap.wav
64,192,64441,1,8,0:0:0:45:normal-hitclap.wav
448,192,64618,1,8,0:0:0:45:normal-hitclap.wav
192,192,64618,1,8,0:0:0:45:normal-hitclap.wav
64,192,64794,1,8,0:0:0:45:normal-hitclap.wav
448,192,64794,1,8,0:0:0:45:normal-hitclap.wav
192,192,64971,1,8,0:0:0:45:normal-hitclap.wav
64,192,64971,1,8,0:0:0:45:normal-hitclap.wav
192,192,65147,1,8,0:0:0:45:normal-hitclap.wav
64,192,65147,1,8,0:0:0:45:normal-hitclap.wav
320,192,65235,1,8,0:0:0:45:normal-hitclap.wav
448,192,65324,1,8,0:0:0:45:normal-hitclap.wav
64,192,65324,1,8,0:0:0:45:normal-hitclap.wav
192,192,65412,1,8,0:0:0:45:normal-hitclap.wav
64,192,65500,1,8,0:0:0:45:normal-hitclap.wav
448,192,65500,1,8,0:0:0:45:normal-hitclap.wav
320,192,65500,1,8,0:0:0:45:normal-hitclap.wav
320,192,65677,1,8,0:0:0:45:normal-hitclap.wav
192,192,65677,1,8,0:0:0:45:normal-hitclap.wav
64,192,65853,1,8,0:0:0:70:drum-hitclap.wav
192,192,65853,1,8,0:0:0:70:drum-hitclap.wav
448,192,65853,1,8,0:0:0:45:normal-hitclap.wav
64,192,66030,1,8,0:0:0:45:normal-hitclap.wav
320,192,66030,1,8,0:0:0:45:normal-hitclap.wav
320,192,66206,1,8,0:0:0:45:normal-hitclap.wav
448,192,66206,1,8,0:0:0:45:normal-hitclap.wav
192,192,66382,1,8,0:0:0:45:normal-hitclap.wav
64,192,66382,1,8,0:0:0:45:normal-hitclap.wav
64,192,66559,1,8,0:0:0:45:normal-hitclap.wav
320,192,66559,1,8,0:0:0:70:drum-hitclap.wav
448,192,66559,1,8,0:0:0:70:drum-hitclap.wav
192,192,66735,1,8,0:0:0:45:normal-hitclap.wav
448,192,66735,1,8,0:0:0:45:normal-hitclap.wav
64,192,66912,1,8,0:0:0:45:normal-hitclap.wav
192,192,66912,1,8,0:0:0:45:normal-hitclap.wav
448,192,67088,1,8,0:0:0:45:normal-hitclap.wav
320,192,67088,1,8,0:0:0:45:normal-hitclap.wav
320,192,67265,1,8,0:0:0:45:normal-hitclap.wav
64,192,67265,1,8,0:0:0:70:drum-hitclap.wav
192,192,67265,1,8,0:0:0:70:drum-hitclap.wav
448,192,67441,1,8,0:0:0:45:normal-hitclap.wav
320,192,67618,1,8,0:0:0:45:normal-hitclap.wav
192,192,67618,1,0,0:0:0:45:normal-hitclap.wav
448,192,67618,1,0,0:0:0:45:normal-hitclap.wav
64,192,67794,1,8,0:0:0:45:normal-hitclap.wav
192,192,67794,1,0,0:0:0:45:normal-hitclap.wav
192,192,67971,1,8,0:0:0:70:drum-hitclap.wav
320,192,67971,1,8,0:0:0:70:drum-hitclap.wav
64,192,67971,1,0,0:0:0:45:normal-hitclap.wav
448,192,68147,1,8,0:0:0:45:normal-hitclap.wav
192,192,68147,1,8,0:0:0:45:normal-hitclap.wav
448,192,68324,1,8,0:0:0:45:normal-hitclap.wav
320,192,68324,1,0,0:0:0:45:normal-hitclap.wav
192,192,68324,1,0,0:0:0:45:normal-hitclap.wav
192,192,68500,1,8,0:0:0:45:normal-hitclap.wav
320,192,68500,1,8,0:0:0:45:normal-hitclap.wav
448,192,68677,1,8,0:0:0:70:drum-hitclap.wav
64,192,68677,1,8,0:0:0:45:normal-hitclap.wav
320,192,68677,1,0,0:0:0:70:drum-hitclap.wav
320,192,68853,1,8,0:0:0:45:normal-hitclap.wav
64,192,68853,1,0,0:0:0:45:normal-hitclap.wav
448,192,69030,1,8,0:0:0:45:normal-hitclap.wav
192,192,69030,1,8,0:0:0:45:normal-hitclap.wav
64,192,69030,1,0,0:0:0:45:normal-hitclap.wav
192,192,69206,1,8,0:0:0:45:normal-hitclap.wav
448,192,69206,1,8,0:0:0:45:normal-hitclap.wav
320,192,69382,1,8,0:0:0:70:drum-hitclap.wav
448,192,69382,1,0,0:0:0:45:normal-hitclap.wav
64,192,69382,1,0,0:0:0:70:drum-hitclap.wav
320,192,69559,1,8,0:0:0:45:normal-hitclap.wav
192,192,69559,1,8,0:0:0:45:normal-hitclap.wav
64,192,69735,1,8,0:0:0:45:normal-hitclap.wav
320,192,69735,1,8,0:0:0:45:normal-hitclap.wav
448,192,69735,1,0,0:0:0:45:normal-hitclap.wav
64,192,69912,1,8,0:0:0:45:normal-hitclap.wav
192,192,69912,1,8,0:0:0:45:normal-hitclap.wav
192,192,70088,1,8,0:0:0:70:drum-hitclap.wav
448,192,70088,1,8,0:0:0:45:normal-hitclap.wav
320,192,70088,1,8,0:0:0:70:drum-hitclap.wav
64,192,70088,1,8,0:0:0:70:drum-hitclap.wav
192,192,70265,1,8,0:0:0:45:normal-hitclap.wav
320,192,70265,1,8,0:0:0:45:normal-hitclap.wav
320,192,70441,1,8,0:0:0:45:normal-hitclap.wav
64,192,70441,1,8,0:0:0:45:normal-hitclap.wav
448,192,70441,1,0,0:0:0:45:normal-hitclap.wav
192,192,70618,1,8,0:0:0:45:normal-hitclap.wav
448,192,70618,1,8,0:0:0:45:normal-hitclap.wav
64,192,70618,1,8,0:0:0:45:normal-hitclap.wav
448,192,70794,1,8,0:0:0:70:drum-hitclap.wav
192,192,70794,1,8,0:0:0:70:drum-hitclap.wav
320,192,70794,1,8,0:0:0:45:normal-hitclap.wav
64,192,70794,1,0,0:0:0:70:drum-hitclap.wav
64,192,70971,1,8,0:0:0:45:normal-hitclap.wav
448,192,70971,1,8,0:0:0:45:normal-hitclap.wav
320,192,70971,1,8,0:0:0:45:normal-hitclap.wav
448,192,71147,128,8,72382:0:0:0:45:normal-hitclap.wav
192,192,71324,128,8,71500:0:0:0:45:normal-hitclap.wav
320,192,71500,1,8,0:0:0:45:normal-hitclap.wav
64,192,71677,128,8,72029:0:0:0:45:normal-hitclap.wav
192,192,71677,1,0,0:0:0:45:normal-hitclap.wav
320,192,72029,128,8,72382:0:0:0:45:normal-hitclap.wav
192,192,72559,128,8,72735:0:0:0:45:normal-hitclap.wav
448,192,72559,128,8,72735:0:0:0:45:normal-hitclap.wav
64,192,72559,128,8,72735:0:0:0:45:normal-hitclap.wav
320,192,72912,1,8,0:0:0:45:normal-hitclap.wav
64,192,72912,1,8,0:0:0:45:normal-hitclap.wav
448,192,72912,1,8,0:0:0:45:normal-hitclap.wav
192,192,73088,1,8,0:0:0:45:normal-hitclap.wav
320,192,73088,1,8,0:0:0:45:normal-hitclap.wav
64,192,73088,1,8,0:0:0:45:normal-hitclap.wav
448,192,73088,1,8,0:0:0:45:normal-hitclap.wav
192,192,73441,128,8,73618:0:0:0:45:normal-hitclap.wav
64,192,73441,128,8,73618:0:0:0:45:normal-hitclap.wav
448,192,73441,128,8,73618:0:0:0:45:normal-hitclap.wav
192,192,73794,128,8,75206:0:0:0:45:normal-hitclap.wav
320,192,74147,1,8,0:0:0:45:normal-hitclap.wav
448,192,74147,1,8,0:0:0:45:normal-hitclap.wav
64,192,74324,5,8,0:0:0:45:normal-hitclap.wav
320,192,74324,1,8,0:0:0:45:normal-hitclap.wav
448,192,74500,1,8,0:0:0:45:normal-hitclap.wav
64,192,74677,1,8,0:0:0:45:normal-hitclap.wav
320,192,74677,1,8,0:0:0:45:normal-hitclap.wav
64,192,74853,1,8,0:0:0:45:normal-hitclap.wav
320,192,75029,1,8,0:0:0:45:normal-hitclap.wav
448,192,75029,1,8,0:0:0:45:normal-hitclap.wav
320,192,75206,1,8,0:0:0:45:normal-hitclap.wav
64,192,75206,1,8,0:0:0:45:normal-hitclap.wav
64,192,75382,5,8,0:0:0:45:normal-hitclap.wav
320,192,75382,1,8,0:0:0:45:normal-hitclap.wav
448,192,75382,1,8,0:0:0:45:normal-hitclap.wav
64,192,75559,1,8,0:0:0:45:normal-hitclap.wav
192,192,75559,1,8,0:0:0:45:normal-hitclap.wav
448,192,75559,1,8,0:0:0:45:normal-hitclap.wav
64,192,75735,1,8,0:0:0:45:normal-hitclap.wav
192,192,75735,1,8,0:0:0:45:normal-hitclap.wav
320,192,75735,1,8,0:0:0:45:normal-hitclap.wav
448,192,75735,1,8,0:0:0:45:normal-hitclap.wav
320,192,76088,128,8,79618:0:0:0:45:normal-hitclap.wav
192,192,76088,1,0,0:0:0:45:normal-hitclap.wav
64,192,76088,1,0,0:0:0:45:normal-hitclap.wav
192,192,76265,1,0,0:0:0:45:normal-hitclap.wav
64,192,76441,128,8,79618:0:0:0:45:normal-hitclap.wav
192,192,76441,128,8,79618:0:0:0:45:normal-hitclap.wav
448,192,76441,1,0,0:0:0:45:normal-hitclap.wav
448,192,76618,1,0,0:0:0:45:normal-hitclap.wav
448,192,76794,128,8,79618:0:0:0:45:normal-hitclap.wav
