osu file format v14

[General]
AudioFilename: audio.mp3
AudioLeadIn: 0
PreviewTime: 65423
Countdown: 0
SampleSet: Soft
StackLeniency: 0.7
Mode: 0
LetterboxInBreaks: 0
WidescreenStoryboard: 0

[Editor]
DistanceSpacing: 1.4
BeatDivisor: 4
GridSize: 8
TimelineZoom: 2.4

[Metadata]
Title:Great days
TitleUnicode:Great days
Artist:Karen Aoki & Daisuke Hasegawa
ArtistUnicode:青木カレン・ハセガワダイスケ
Creator:dymm
Version:Bizarre Summer
Source:
Tags:
BeatmapID:2260458
BeatmapSetID:1080460

[Difficulty]
HPDrainRate:5
CircleSize:4
OverallDifficulty:8
ApproachRate:9
SliderMultiplier:1.8
SliderTickRate:2

[Events]
//Background and Video events
0,0,"766963.png",0,0
//Break Periods
//Storyboard Layer 0 (Background)
//Storyboard Layer 1 (Fail)
//Storyboard Layer 2 (Pass)
//Storyboard Layer 3 (Foreground)
//Storyboard Layer 4 (Overlay)
//Storyboard Sound Samples

[TimingPoints]
571,352.941176470588,4,2,0,40,1,0
1982,-90.9090909090909,4,2,0,50,0,0
7629,-76.9230769230769,4,2,0,50,0,0
14688,-142.857142857143,4,2,0,30,0,0
20335,-111.111111111111,4,2,0,40,0,0
25982,-90.9090909090908,4,2,0,50,0,0
37276,-250,4,2,0,25,0,0
40100,-111.111111111111,4,2,0,30,0,0
42923,-90.9090909090909,4,2,0,35,0,0
54218,-76.9230769230769,4,2,0,65,0,1
58100,-83.3333333333333,4,2,0,65,0,1
58453,-90.9090909090909,4,2,0,65,0,1
58806,-100,4,2,0,65,0,1
59512,-76.9230769230769,4,2,0,65,0,1
65512,-71.4285714285714,4,2,0,65,0,1
76806,-76.9230769230769,4,2,0,65,0,0

[Colours]
Combo1 : 255,215,91
Combo2 : 171,171,214
Combo3 : 255,85,170
Combo4 : 244,77,102

[HitObjects]
37,62,571,5,0,0:0:0:0:
38,84,923,1,0,0:0:0:0:
40,106,1276,1,0,0:0:0:0:
175,21,1453,1,0,0:0:0:0:
37,62,1629,1,0,0:0:0:0:
38,84,1717,1,0,0:0:0:0:
40,106,1805,1,0,0:0:0:0:
42,129,1893,1,0,0:0:0:0:
44,151,1982,6,0,P|96:156|149:124,1,99.0000030212403
258,27,2335,2,0,P|240:72|200:101,1,99.0000030212403
175,21,2688,1,0,0:0:0:0:
195,183,2865,2,0,L|298:173,1,99.0000030212403
389,46,3218,6,0,B|351:142|423:134|389:238,1,198.000006042481
314,363,3747,1,0,0:0:0:0:
389,239,3923,1,0,0:0:0:0:
307,274,4100,1,0,0:0:0:0:
402,384,4276,2,0,P|442:352|442:296,1,99.0000030212403
378,200,4629,1,0,0:0:0:0:
313,362,4806,6,0,P|251:344|215:294,1,99.0000030212403
310,178,5159,2,0,P|320:225|307:273,1,99.0000030212403
143,219,5512,2,0,P|190:209|238:222,1,99.0000030212403
129,357,5865,1,0,0:0:0:0:
24,290,6041,6,0,B|47:187|-25:195|12:98,1,198.000006042481
116,31,6570,1,0,0:0:0:0:
119,151,6747,1,0,0:3:0:0:
227,98,6923,1,0,0:0:0:0:
227,98,7100,1,0,0:0:0:0:
322,169,7276,2,0,L|421:158,1,99.0000030212403
291,357,7629,6,0,P|268:304|283:248,1,116.999994644165
472,100,7982,2,0,P|494:152|478:207,1,116.999994644165
245,231,8335,2,0,B|229:175|229:175|250:120,2,116.999994644165
43,293,8865,6,0,B|94:322|94:322|159:306,1,116.999994644165
275,242,9218,1,0,0:0:0:0:
140,148,9394,1,0,0:0:0:0:
224,314,9570,1,0,0:0:0:0:
303,118,9747,1,0,0:0:0:0:
235,341,9923,2,0,B|227:253|227:253|198:199|198:199|189:96,1,233.999989288331
32,8,10453,6,0,P|8:64|24:136,1,116.999994644165
251,59,10806,2,0,P|198:35|141:42,1,116.999994644165
87,253,11159,2,0,B|71:197|71:197|92:142,2,116.999994644165
248,352,11688,6,0,B|191:365|191:365|140:336,1,116.999994644165
202,210,12041,1,0,0:0:0:0:
360,302,12218,1,0,0:0:0:0:
289,155,12393,1,0,0:0:0:0:
352,384,12570,1,0,0:0:0:0:
352,384,12746,2,0,B|359:299|359:299|388:245|388:245|396:157,1,233.999989288331
256,304,13276,5,0,0:0:0:0:
62,248,13629,1,0,0:0:0:0:
260,209,13982,1,0,0:0:0:0:
128,304,14159,1,0,0:0:0:0:
216,128,14335,1,0,0:0:0:0:
176,148,14423,1,0,0:0:0:0:
162,190,14511,1,0,0:0:0:0:
180,232,14599,1,0,0:0:0:0:
204,258,14688,6,0,P|212:330|66:244,1,377.999988464356
40,72,16100,6,0,B|96:80|124:123|139:216|139:216|192:126|216:96|300:79|300:80,1,377.999988464356
442,32,17512,6,0,B|473:188|322:182|322:182|262:254|280:330|365:375,1,440.999986541748
400,288,18923,5,0,0:0:0:0:
416,280,19276,1,0,0:0:0:0:
432,272,19629,1,0,0:0:0:0:
448,264,19982,1,0,0:0:0:0:
512,384,20159,1,0,0:0:0:0:
492,186,20335,6,0,P|402:188|361:250,1,161.999995056153
329,331,20865,1,0,0:0:0:0:
329,331,21041,2,0,P|269:280|278:203,1,161.999995056153
263,111,21570,1,0,0:0:0:0:
186,176,21747,6,0,B|156:249|156:249|185:355,1,161.999995056153
72,384,22276,2,0,B|64:296|64:296|43:241|43:241|34:138,1,242.999992584229
72,50,22982,1,0,0:0:0:0:
160,103,23159,6,0,L|240:95,1,80.9999975280763
384,96,23512,1,0,0:0:0:0:
262,168,23688,1,0,0:0:0:0:
312,39,23865,1,0,0:0:0:0:
360,168,24041,2,0,P|432:196|496:153,1,161.999995056153
416,16,24570,6,0,L|424:96,1,80.9999975280763
440,224,24923,1,0,0:0:0:0:
360,144,25100,1,0,0:0:0:0:
512,200,25277,1,0,0:0:0:0:
424,96,25453,1,0,0:0:0:0:
276,236,25629,1,0,0:0:0:0:
293,263,25717,1,0,0:0:0:0:
317,284,25805,1,0,0:0:0:0:
347,295,25893,1,0,0:0:0:0:
380,294,25982,6,0,P|424:265|440:212,1,99.0000030212403
221,294,26335,2,0,P|246:335|291:353,1,99.0000030212403
289,155,26688,2,0,P|243:173|218:214,1,99.0000030212403
150,353,27041,2,0,P|195:334|220:293,1,99.0000030212403
40,220,27394,5,0,0:0:0:0:
142,156,27570,1,0,0:0:0:0:
147,276,27747,1,0,0:0:0:0:
56,132,27923,1,0,0:0:0:0:
210,202,28100,2,0,P|222:147|190:82,1,99.0000030212403
138,32,28453,1,0,0:0:0:0:
138,32,28629,1,0,0:0:0:0:
233,112,28806,6,0,P|280:124|327:112,1,99.0000030212403
458,69,29159,1,0,0:0:0:0:
327,27,29335,1,0,0:0:0:0:
409,139,29512,1,0,0:0:0:0:
409,1,29688,1,0,0:0:0:0:
327,112,29865,1,0,0:0:0:0:
481,176,30041,6,0,P|485:127|463:83,1,99.0000030212403
259,76,30394,2,0,P|254:124|276:168,1,99.0000030212403
344,265,30747,1,0,0:0:0:0:
459,190,30923,1,0,0:0:0:0:
466,327,31100,1,0,0:0:0:0:
330,238,31276,2,0,P|317:190|334:135,1,99.0000030212403
480,20,31629,6,0,L|470:131,1,99.0000030212403
288,51,31982,2,0,L|387:58,1,99.0000030212403
323,243,32335,2,0,L|329:144,1,99.0000030212403
138,186,32688,2,0,L|236:192,1,99.0000030212403
62,130,33041,6,0,P|48:204|76:256,1,99.0000030212403
152,311,33394,1,0,0:0:0:0:
178,182,33570,1,0,0:0:0:0:
54,224,33747,1,0,0:0:0:0:
216,256,33923,1,0,0:0:0:0:
96,152,34100,1,0,0:0:0:0:
66,308,34276,1,0,0:0:0:0:
267,192,34453,6,0,P|294:235|294:283,1,99.0000030212403
366,357,34806,1,0,0:0:0:0:
411,147,34982,2,0,P|384:190|384:238,1,99.0000030212403
494,354,35335,2,0,L|479:256,1,99.0000030212403
440,136,35688,1,0,0:0:0:0:
368,232,35865,5,0,0:0:0:0:
512,48,36218,1,0,0:0:0:0:
352,248,36570,1,0,0:0:0:0:
454,126,36747,1,0,0:0:0:0:
472,303,36923,1,0,0:0:0:0:
352,145,37100,1,0,0:0:0:0:
416,384,37276,6,0,B|408:304|312:320|312:320|296:368|248:384|192:368|112:304|176:208,1,432
25,384,40100,6,0,P|39:306|18:209,1,161.999995056153
70,207,40629,2,0,P|223:231|175:123,1,323.999990112305
52,112,41512,6,0,B|80:83|80:83|120:75,1,80.9999975280763
76,280,41865,2,0,B|47:251|47:251|39:211,1,80.9999975280763
244,256,42218,2,0,B|215:284|215:284|175:292,1,80.9999975280763
220,88,42570,6,0,B|248:117|249:165,1,80.9999975280763
168,344,42923,6,0,P|214:360|263:358,1,99.0000030212403
351,291,43276,1,0,0:0:0:0:
351,291,43453,1,0,0:0:0:0:
448,350,43629,1,0,0:0:0:0:
448,350,43806,1,0,0:0:0:0:
338,212,43982,2,0,B|323:265|323:265|330:316,1,99.0000030212403
488,250,44335,6,0,B|488:150|488:150|430:70,1,198.000006042481
238,233,44865,2,0,B|338:233|338:233|431:166,1,198.000006042481
286,70,45394,2,0,B|288:121|288:121|328:193,1,99.0000030212403
480,312,45747,6,0,P|420:313|383:252,1,99.0000030212403
374,144,46100,1,0,0:0:0:0:
320,264,46276,1,0,0:0:0:0:
451,250,46453,1,0,0:0:0:0:
279,195,46629,2,0,P|242:288|321:345,1,198.000006042481
432,384,47159,5,0,0:0:0:0:
431,383,47247,1,0,0:0:0:0:
431,383,47335,1,0,0:0:0:0:
488,280,47512,1,0,0:0:0:0:
487,279,47600,1,0,0:0:0:0:
487,279,47688,1,0,0:0:0:0:
312,208,47865,2,0,P|357:190|403:206,1,99.0000030212403
248,328,48218,2,0,P|202:345|157:329,1,99.0000030212403
16,240,48570,5,0,0:0:0:0:
144,224,48747,1,0,0:0:0:0:
48,320,48923,1,0,0:0:0:0:
64,160,49100,1,0,0:0:0:0:
200,272,49276,1,0,0:0:0:0:
200,272,49453,2,0,P|215:225|201:178,1,99.0000030212403
144,48,49806,6,0,P|105:145|153:233,1,198.000006042481
200,136,50335,2,0,L|298:127,1,99.0000030212403,0|0,2:0|2:0,2:0:0:0:
368,40,50688,2,0,P|400:176|272:240,1,297.000009063721
96,240,51394,6,0,P|129:329|219:365,1,198.000006042481
440,152,51923,2,0,P|472:288|256:280,1,396.000012084961
298,226,52806,5,0,0:0:0:0:
184,166,52982,1,0,0:0:0:0:
189,294,53159,1,0,0:0:0:0:
257,135,53335,1,0,0:0:0:0:
121,231,53511,1,0,0:0:0:0:
270,307,53688,1,0,0:0:0:0:
135,112,53865,1,0,0:0:0:0:
175,384,54041,1,0,0:0:0:0:
466,270,54218,6,0,P|494:208|461:142,1,116.999994644165
358,45,54570,1,0,0:0:0:0:
307,315,54747,2,0,P|279:253|312:187,1,116.999994644165
358,45,55100,1,0,0:0:0:0:
413,209,55276,1,0,0:0:0:0:
213,31,55453,6,0,B|124:226|284:191|199:374,1,350.999983932496
301,127,56159,1,0,0:0:0:0:
301,127,56335,2,0,P|352:145|397:197,1,116.999994644165
93,271,56688,2,0,P|42:253|-3:201,1,116.999994644165
120,104,57041,5,0,0:0:0:0:
272,240,57218,1,0,0:0:0:0:
256,48,57394,1,0,0:0:0:0:
128,240,57570,1,0,0:0:0:0:
352,304,57747,6,0,P|384:256|384:184,1,116.999994644165
160,80,58100,2,0,P|128:128|128:200,1,107.999996704102
342,293,58453,2,0,P|371:249|371:184,1,99.0000030212403
169,90,58806,2,0,P|140:134|140:199,1,90
240,296,59159,1,0,0:0:0:0:
314,149,59335,1,0,0:0:0:0:
104,313,59512,2,0,P|48:299|12:254,1,116.999994644165
176,72,59865,6,0,L|165:188,1,116.999994644165
200,320,60218,1,0,0:0:0:0:
376,192,60394,2,0,B|367:247|367:247|320:288,1,116.999994644165
296,16,60747,2,0,B|344:43|344:43|367:101,1,116.999994644165
200,320,61100,6,0,B|206:240|206:240|189:166|189:166|196:86,1,233.999989288331
200,0,61629,1,0,0:0:0:0:
204,4,61806,1,0,0:0:0:0:
33,232,61983,2,0,B|91:246|139:196,1,116.999994644165
9,0,62335,2,0,L|49:109,1,116.999994644165
360,216,62688,6,0,P|248:144|168:184,1,233.999989288331
16,304,63218,2,0,P|128:376|208:336,1,233.999989288331
288,276,63747,5,0,0:0:0:0:
261,167,63923,1,0,0:0:0:0:
180,244,64100,5,0,0:0:0:0:
343,211,64276,1,0,0:0:0:0:
167,155,64453,1,0,0:0:0:0:
207,336,64629,1,0,0:0:0:0:
279,115,64806,1,0,0:0:0:0:
95,275,64982,1,0,0:0:0:0:
319,355,65159,1,0,0:0:0:0:
321,315,65247,1,0,0:0:0:0:
326,272,65335,1,0,0:0:0:0:
331,229,65423,1,0,0:0:0:0:
335,188,65512,5,0,0:0:0:0:
369,47,65689,2,0,B|438:43|438:43|495:70,1,125.999996154785
253,220,66041,2,0,B|249:151|249:151|276:94,1,125.999996154785
423,119,66394,1,0,0:0:0:0:
354,265,66570,1,0,0:0:0:0:
258,5,66747,6,0,B|244:164|244:164|262:230|262:230|249:381,1,377.999988464356
169,254,67453,1,0,0:0:0:0:
355,156,67629,2,0,B|380:98|380:98|363:36,1,125.999996154785
83,188,67982,2,0,B|58:246|58:246|75:308,1,125.999996154785
337,380,68335,6,0,B|378:258|378:258|308:146,1,251.999992309571
109,127,68865,2,0,B|166:242|166:242|294:271,1,251.999992309571
382,231,69394,1,0,0:0:0:0:
382,231,69570,1,0,0:0:0:0:
398,151,69747,5,0,0:0:0:0:
398,151,69923,1,0,0:0:0:0:
406,71,70100,1,0,0:0:0:0:
406,71,70276,2,0,P|344:57|284:74,1,125.999996154785
192,176,70629,1,0,0:0:0:0:
88,0,70806,2,0,P|74:61|91:121,1,125.999996154785
88,296,71159,5,0,0:0:0:0:
209,106,71335,1,0,0:0:0:0:
221,330,71512,1,0,0:0:0:0:
79,156,71688,1,0,0:0:0:0:
296,214,71865,1,0,0:0:0:0:
38,384,72041,2,0,B|47:280|47:280|36:215|36:215|44:127,1,251.999992309571
248,24,72570,6,0,B|184:24|184:24|131:58,1,125.999996154785
216,192,72923,1,0,0:0:0:0:
368,8,73100,2,0,L|383:133,1,125.999996154785
123,42,73453,2,0,B|176:8|176:8|240:8,1,125.999996154785
375,319,73806,6,0,P|262:204|144:336,1,377.999988464356
40,249,74512,1,0,0:0:0:0:
208,91,74688,1,0,0:0:0:0:
264,312,74865,1,0,0:0:0:0:
132,26,75041,2,0,P|111:88|136:159,1,125.999996154785
264,280,75394,5,0,0:0:0:0:
336,96,75570,1,0,0:0:0:0:
416,312,75747,1,0,0:0:0:0:
336,72,75923,1,0,0:0:0:0:
184,344,76100,2,0,P|166:283|188:212,1,125.999996154785
416,16,76453,2,0,P|434:77|412:148,1,125.999996154785
419,136,76718,1,0,0:0:0:0:
422,139,76806,1,0,0:0:0:0:
256,192,76894,12,0,79629,0:0:0:0:
