osu file format v14

[General]
AudioFilename: audio.mp3
AudioLeadIn: 0
PreviewTime: -1
Countdown: 1
SampleSet: None
StackLeniency: 0.7
Mode: 0
LetterboxInBreaks: 0
WidescreenStoryboard: 1

[Editor]
Bookmarks: 19301,29095,80370
DistanceSpacing: 1.4
BeatDivisor: 4
GridSize: 16
TimelineZoom: 1.5

[Metadata]
Title:Great Days -BITES THE DUST ver.- (TV Size)
TitleUnicode:Great Days -BITES THE DUST ver.- (TV Size)
Artist:Karen Aoki & Daisuke Hasegawa
ArtistUnicode:Karen Aoki & Daisuke Hasegawa
Creator:Doomsdaddy
Version:Tertiary Bomb: Bites the Dust AR8
Source:Jojo's Bizarre Adventure Part 4: Diamond is Unbreakable
Tags:opening anime
BeatmapID:1920971
BeatmapSetID:891690

[Difficulty]
HPDrainRate:4
CircleSize:4
OverallDifficulty:8
ApproachRate:8
SliderMultiplier:1.4
SliderTickRate:1

[Events]
//Background and Video events
Video,0,"[Some Stuffs]_Jojo's_Bizarre_Adventure_Diamond_is_Unbreakable_NCOP3b_(1920x1080_Blu Ray_FLAC)_[DB63332E].mp4"
0,0,"thumb-1920-756500.png",0,0
//Break Periods
//Storyboard Layer 0 (Background)
//Storyboard Layer 1 (Fail)
//Storyboard Layer 2 (Pass)
//Storyboard Layer 3 (Foreground)
//Storyboard Sound Samples

[TimingPoints]
1488,352.941176470588,4,3,0,60,1,0
5360,-333.333333333333,4,3,0,60,0,0
5713,-100,4,3,0,60,0,0
8007,-500,4,3,0,60,0,0
10301,-166.666666666667,4,3,0,60,0,0
19223,352.941176470588,4,3,0,60,1,0
30330,-200,4,3,0,60,0,0
31213,-100,4,3,0,60,0,0
32458,-200,4,3,0,60,0,0
34046,-100,4,3,0,60,0,0
35987,-200,4,3,0,60,0,0
36870,-100,4,3,0,60,0,0
41811,-71.4285714285714,4,3,0,60,0,0
43046,-142.857142857143,4,3,0,60,0,0
43928,-71.4285714285714,4,3,0,60,0,0
48693,-142.857142857143,4,3,0,60,0,0
49575,-71.4285714285714,4,3,0,60,0,0
59634,-142.857142857143,4,3,0,60,0,0
60164,-71.4285714285714,4,3,0,60,0,0
61399,-285.714285714286,4,3,0,60,0,0
62634,-71.4285714285714,4,3,0,60,0,0
78517,-142.857142857143,4,3,0,60,0,0

[HitObjects]
113,85,1488,6,0,P|136:117|139:193,1,105
208,253,1840,2,0,P|204:280|173:318,1,70
31,248,2193,2,0,P|52:236|86:239,1,35
135,253,2370,1,0,0:0:0:0:
365,130,2546,5,0,0:0:0:0:
330,127,2634,1,0,0:0:0:0:
298,140,2722,1,0,0:0:0:0:
276,167,2810,1,0,0:0:0:0:
269,201,2899,6,0,P|286:235|358:255,1,105
470,208,3252,2,0,P|414:196|378:208,1,70
269,201,3605,6,0,P|286:235|358:255,1,105
470,208,3958,2,0,P|414:196|378:208,1,70
256,311,4311,5,0,0:0:0:0:
85,256,4488,1,0,0:0:0:0:
155,317,4664,1,0,0:0:0:0:
113,166,4840,1,0,0:0:0:0:
85,256,5017,2,0,L|196:222,1,105
224,138,5370,2,0,L|201:145,1,20.9999993591309
227,301,5723,6,0,P|263:263|261:187,1,105
245,78,6076,2,0,P|220:126|234:154,1,70
227,301,6429,6,0,P|263:263|261:187,1,105
245,78,6782,2,0,P|220:126|234:154,1,70
429,168,7135,1,0,0:0:0:0:
336,89,7311,1,0,0:0:0:0:
313,327,7488,1,0,0:0:0:0:
347,215,7664,1,0,0:0:0:0:
100,238,7840,1,0,0:0:0:0:
199,284,8017,6,0,B|187:276|189:252|189:252|190:256|190:256|190:252|190:252|190:256|190:256|190:252|190:252|190:256|190:256|190:252|190:252|190:256|190:256|190:252,1,63
270,242,8899,6,0,L|275:241,1,3.5
270,237,8988,2,0,L|275:236,1,3.5
270,232,9076,2,0,L|275:231,1,3.5
270,227,9165,2,0,L|275:226,1,3.5
284,226,9252,2,0,L|279:227,1,3.5
284,231,9341,2,0,L|279:232,1,3.5
284,236,9429,2,0,L|279:237,1,3.5
284,241,9518,2,0,L|279:242,1,3.5
298,242,9605,6,0,L|303:241,1,3.5
298,237,9694,2,0,L|303:236,1,3.5
298,232,9782,2,0,L|303:231,1,3.5
298,227,9871,2,0,L|303:226,1,3.5
309,226,9958,2,0,L|304:227,1,3.5
309,231,10047,2,0,L|304:232,1,3.5
309,236,10135,2,0,L|304:237,1,3.5
309,241,10224,2,0,L|304:242,1,3.5
334,260,10311,6,0,B|358:271|358:271|344:292|344:292|297:256|242:259|242:259|251:258|251:258|242:259|242:259|251:258|251:258|242:259|242:259|251:258|251:258|242:259|242:259|251:258|251:258|242:259|242:259|251:258|251:258|242:259,1,251.999992309571
256,192,11458,12,0,13488,0:0:0:0:
256,192,13664,12,0,15694,0:0:0:0:
85,242,16046,6,0,P|117:245|176:282,3,83.9999974365235
291,165,17458,6,0,P|259:168|200:205,3,83.9999974365235
362,208,18870,2,0,P|376:180|370:144,1,62.9999980773926
339,53,19223,6,0,P|301:80|218:81,1,105
96,130,19575,2,0,P|153:140|177:161,1,70
339,53,19928,6,0,P|301:80|218:81,1,105
96,130,20280,2,0,P|153:140|177:161,1,70
227,285,20634,5,0,0:0:0:0:
227,285,20987,1,0,0:0:0:0:
227,285,21340,1,0,0:0:0:0:
109,219,21517,1,0,0:0:0:0:
296,198,21693,1,0,0:0:0:0:
136,308,21870,1,0,0:0:0:0:
249,108,22046,6,0,L|360:122,1,105
469,42,22399,2,0,L|392:53,1,70
249,108,22752,6,0,L|360:122,1,105
469,42,23105,2,0,L|392:53,1,70
310,209,23458,1,0,0:0:0:0:
310,209,23811,5,0,0:0:0:0:
310,209,24164,1,0,0:0:0:0:
246,341,24340,1,0,0:0:0:0:
386,185,24517,1,0,0:0:0:0:
367,155,24605,1,0,0:0:0:0:
339,135,24693,1,0,0:0:0:0:
305,129,24781,1,0,0:0:0:0:
271,136,24869,1,0,0:0:0:0:
427,279,26281,6,0,B|426:161|318:165|318:165|251:273|75:329|85:62|223:121|223:121|152:94|77:105|45:258|164:323|226:278|332:196|332:196|374:194|380:244,1,1085
342,316,29105,6,0,P|301:286|289:211,1,105
301,156,29458,1,0,0:0:0:0:
301,156,29634,2,0,P|266:140|216:145,1,70
83,70,29987,2,0,P|86:108|115:149,1,70
104,288,30340,2,0,P|135:265|156:219,1,70
253,96,31222,6,0,P|304:104|335:119,1,70
451,200,31575,2,0,P|400:208|369:223,1,70
279,330,31928,2,0,B|286:295|286:295|241:181,1,140
220,218,32458,6,0,B|213:183|213:183|251:85,1,140
173,25,33340,2,0,L|130:136,1,105
162,271,34046,5,0,0:0:0:0:
83,205,34222,1,0,0:0:0:0:
185,185,34399,2,0,P|237:178|301:202,1,105
338,272,34752,6,0,L|471:221,1,140
427,101,35281,2,0,P|410:147|414:185,1,70
315,90,35634,2,0,P|291:60|263:50,1,70
169,140,35987,2,0,L|26:194,1,140
33,303,36870,6,0,L|121:271,1,70
259,237,37222,2,0,P|260:276|240:326,1,70
177,173,37575,2,0,P|235:139|329:162,1,140
397,245,38105,2,0,P|423:213|375:216,1,105
355,239,38458,1,0,0:0:0:0:
486,183,38634,2,0,P|460:149|409:126,1,70
364,54,38987,6,0,P|322:78|236:83,1,105
258,111,39340,2,0,P|224:95|131:85,1,105
130,100,39693,2,0,P|160:136|161:221,1,105
159,232,40046,1,0,0:0:0:0:
330,330,40399,5,0,0:0:0:0:
339,299,40752,1,0,0:0:0:0:
346,267,41105,2,0,P|348:241|333:217,1,35
260,181,41281,1,0,0:0:0:0:
76,324,41458,1,0,0:0:0:0:
118,315,41546,1,0,0:0:0:0:
161,306,41634,1,0,0:0:0:0:
204,297,41722,1,0,0:0:0:0:
247,288,41811,6,0,B|240:254|240:254|180:235|173:170|201:140,1,146.999995513916
137,103,42164,2,0,P|156:90|206:87,1,48.9999985046387
254,134,42340,2,0,P|300:139|380:113,1,97.9999970092774
463,47,42693,2,0,P|444:101|440:168,1,97.9999970092774
405,311,43046,2,0,P|398:262|381:216,1,97.9999970092774
254,293,43575,1,0,0:0:0:0:
254,293,43752,1,0,0:0:0:0:
92,212,43928,6,0,P|158:201|226:227,1,97.9999970092774
346,148,44281,1,0,0:0:0:0:
212,73,44458,1,0,0:0:0:0:
211,97,44546,1,0,0:0:0:0:
215,121,44634,6,0,P|246:150|275:209,1,97.9999970092774
160,341,44987,1,0,0:0:0:0:
177,235,45164,1,0,0:0:0:0:
339,350,45340,2,0,B|341:325|341:325|353:292,1,48.9999985046387
433,264,45517,2,0,B|431:239|431:239|419:206,1,48.9999985046387
353,153,45693,1,0,0:0:0:0:
353,153,45870,1,0,0:0:0:0:
275,268,46046,6,0,B|252:284|251:304|251:304|163:222,1,146.999995513916
120,176,46399,1,0,0:0:0:0:
131,305,46575,1,0,0:0:0:0:
162,110,46752,2,0,P|126:98|105:104,1,48.9999985046387
214,173,46928,2,0,P|239:173|261:163,1,48.9999985046387
316,92,47105,2,0,P|280:80|259:86,1,48.9999985046387
368,155,47281,2,0,P|392:155|414:144,1,48.9999985046387
467,210,47458,6,0,P|407:233|314:226,1,146.999995513916
242,272,47811,1,0,0:0:0:0:
123,208,47987,2,0,P|145:240|137:306,1,97.9999970092774
49,187,48340,2,0,P|84:142|159:139,1,97.9999970092774
251,194,48693,2,0,B|263:172|263:172|248:79,1,97.9999970092774
193,245,49222,5,0,0:0:0:0:
193,245,49399,1,0,0:0:0:0:
338,233,49575,2,0,P|289:201|206:200,1,97.9999970092774
107,337,49928,1,0,0:0:0:0:
245,312,50105,1,0,0:0:0:0:
82,222,50281,6,0,P|63:171|191:113,1,195.999994018555
275,177,50811,2,0,P|375:189|466:124,1,195.999994018555
359,33,51340,2,0,P|330:74|370:125,1,97.9999970092774
462,257,51693,5,0,0:0:0:0:
351,345,51870,1,0,0:0:0:0:
203,214,52046,2,0,L|330:232,1,97.9999970092774
127,306,52399,6,0,P|100:273|80:231,1,48.9999985046387
123,182,52575,2,0,P|125:158|157:122,1,48.9999985046387
224,89,52752,1,0,0:0:0:0:
272,96,52840,1,0,0:0:0:0:
320,103,52928,1,0,0:0:0:0:
369,110,53016,1,0,0:0:0:0:
417,118,53104,5,0,0:0:0:0:
289,204,53281,1,0,0:0:0:0:
468,348,53458,1,0,0:0:0:0:
407,236,53634,1,0,0:0:0:0:
247,346,53811,6,0,P|188:344|122:310,1,97.9999970092774
111,299,54075,1,0,0:0:0:0:
104,248,54164,1,0,0:0:0:0:
222,160,54340,2,0,P|246:97|148:96,1,195.999994018555
187,251,54870,1,0,0:0:0:0:
187,251,55046,1,0,0:0:0:0:
388,204,55222,2,0,L|269:193,1,97.9999970092774
138,335,55575,2,0,L|235:325,1,97.9999970092774
405,289,55928,6,0,P|471:209|425:133,1,195.999994018555
318,73,56458,1,0,0:0:0:0:
156,220,56634,1,0,0:0:0:0:
201,323,56811,1,0,0:0:0:0:
207,104,56987,2,0,P|162:81|109:98,1,97.9999970092774
256,192,57340,5,0,0:0:0:0:
256,192,57693,5,0,0:0:0:0:
256,192,58046,6,0,P|292:183|324:202,1,48.9999985046387
349,252,58222,2,0,P|385:261|417:242,1,48.9999985046387
451,197,58399,1,0,0:0:0:0:
319,110,58575,1,0,0:0:0:0:
270,108,58663,1,0,0:0:0:0:
223,123,58752,6,0,P|129:137|21:100,1,195.999994018555
89,55,59193,1,0,0:0:0:0:
120,124,59281,2,0,L|102:263,1,97.9999970092774
225,344,59634,2,0,L|207:205,1,97.9999970092774
42,289,60164,6,0,P|114:307|153:302,1,97.9999970092774
268,153,60517,1,0,0:0:0:0:
211,246,60693,2,0,P|262:256|341:243,1,97.9999970092774
456,169,61046,2,0,P|405:159|326:172,1,97.9999970092774
209,76,61399,6,0,P|257:73|305:82,1,97.9999970092774
259,248,62281,1,0,0:0:0:0:
251,160,62458,1,0,0:0:0:0:
297,326,62634,2,0,P|256:335|211:322,1,48.9999985046387
173,263,62811,6,0,B|99:231|42:268|42:268|83:312|114:290,1,195.999994018555
172,185,63340,2,0,P|115:174|42:188,1,97.9999970092774
35,68,63693,2,0,P|92:79|165:65,1,97.9999970092774
327,140,64046,1,0,0:0:0:0:
220,140,64222,2,0,P|257:57|386:48,1,195.999994018555
456,147,64752,1,0,0:0:0:0:
456,147,65105,6,0,P|355:167|343:240,1,146.999995513916
285,257,65458,2,0,P|265:224|257:191,1,48.9999985046387
366,274,65634,2,0,P|323:327|224:313,1,146.999995513916
184,276,65987,1,0,0:0:0:0:
251,111,66164,1,0,0:0:0:0:
251,111,66517,6,0,P|307:137|381:129,1,97.9999970092774
480,70,66870,1,0,0:0:0:0:
319,60,67046,1,0,0:0:0:0:
405,210,67222,6,0,P|410:254|381:309,1,97.9999970092774
221,245,67575,2,0,P|293:224|329:245,1,97.9999970092774
405,210,67928,6,0,P|410:254|379:311,1,97.9999970092774
221,245,68281,2,0,P|293:224|329:245,1,97.9999970092774
230,339,68634,5,0,0:0:0:0:
230,339,68811,1,0,0:0:0:0:
75,232,68987,1,0,0:0:0:0:
108,330,69164,1,0,0:0:0:0:
212,163,69340,1,0,0:0:0:0:
143,84,69517,2,0,P|216:58|316:152,1,195.999994018555
415,262,70046,6,0,L|443:150,1,97.9999970092774
307,252,70399,2,0,L|330:347,1,97.9999970092774
415,262,70752,6,0,L|443:150,1,97.9999970092774
307,252,71105,2,0,L|330:347,1,97.9999970092774
353,178,71458,6,0,P|285:167|231:196,1,97.9999970092774
83,276,71811,1,0,0:0:0:0:
236,321,71987,1,0,0:0:0:0:
138,153,72164,2,0,P|131:180|141:228,1,48.9999985046387
145,201,72340,2,0,P|153:151|294:91,1,195.999994018555
405,212,72870,6,0,P|347:228|294:172,1,97.9999970092774
161,213,73222,2,0,P|208:172|285:163,1,97.9999970092774
405,212,73575,6,0,P|347:228|294:172,1,97.9999970092774
161,213,73927,2,0,P|208:172|285:163,1,97.9999970092774
144,341,74281,2,0,L|122:288,1,48.9999985046387
69,225,74458,1,0,0:0:0:0:
329,313,74634,5,0,0:0:0:0:
213,299,74811,1,0,0:0:0:0:
426,180,74987,1,0,0:0:0:0:
310,194,75164,1,0,0:0:0:0:
455,312,75340,2,0,P|468:280|465:251,1,48.9999985046387
426,180,75517,2,0,P|418:152|398:127,1,48.9999985046387
300,73,75693,6,0,L|164:113,1,97.9999970092774
97,189,76046,2,0,L|233:229,1,97.9999970092774
300,73,76399,6,0,L|164:113,1,97.9999970092774
97,189,76752,2,0,L|233:229,1,97.9999970092774
348,336,77105,5,0,0:0:0:0:
202,318,77281,1,0,0:0:0:0:
378,149,77458,5,0,0:0:0:0:
287,263,77634,1,0,0:0:0:0:
200,56,77811,5,0,0:0:0:0:
289,171,77987,1,0,0:0:0:0:
458,74,78164,1,0,0:0:0:0:
423,60,78252,1,0,0:0:0:0:
387,53,78340,1,0,0:0:0:0:
351,54,78428,1,0,0:0:0:0:
315,61,78517,6,0,B|261:55|236:106|236:106|323:76|398:115|398:220|337:267|271:275|226:218|220:192|220:192|246:181,1,489.999985046387
289,171,80370,5,0,0:0:0:0:
256,192,80458,12,0,81340,0:0:0:0:
