osu file format v14

[General]
AudioFilename: audio.mp3
AudioLeadIn: 0
PreviewTime: -1
Countdown: 1
SampleSet: Normal
StackLeniency: 0.7
Mode: 0
LetterboxInBreaks: 0
WidescreenStoryboard: 0

[Editor]
DistanceSpacing: 1
BeatDivisor: 4
GridSize: 8
TimelineZoom: 1

[Metadata]
Title:Great Days
TitleUnicode:Great Days
Artist:Karen Aoki & Daisuke Hasegawa
ArtistUnicode:Karen Aoki & Daisuke Hasegawa
Creator:js090213
Version:Dora
Source:
Tags:
BeatmapID:1170357
BeatmapSetID:552642

[Difficulty]
HPDrainRate:5.5
CircleSize:4
OverallDifficulty:8.6
ApproachRate:9
SliderMultiplier:2.1
SliderTickRate:1

[Events]
//Background and Video events
0,0,"26cae1c09897d2a8bb0c3ceaffed9223bb80a64d40c5cc905767a10988f8dc2c.jpg",0,0
//Break Periods
//Storyboard Layer 0 (Background)
//Storyboard Layer 1 (Fail)
//Storyboard Layer 2 (Pass)
//Storyboard Layer 3 (Foreground)
//Storyboard Sound Samples

[TimingPoints]
447,352.941176470588,4,1,0,100,1,0

[HitObjects]
160,128,447,5,0,0:0:0:0:
352,128,799,1,0,0:0:0:0:
256,248,1152,6,0,P|208:200|176:160,1,105
173,158,1505,1,0,0:0:0:0:
167,150,1594,1,0,0:0:0:0:
163,138,1682,1,0,0:0:0:0:
204,66,1858,6,0,P|256:48|304:72,1,105
256,184,2211,1,0,0:0:0:0:
256,48,2388,1,0,0:0:0:0:
200,272,2564,6,0,P|256:296|304:248,1,105
240,136,2917,1,0,0:0:0:0:
240,272,3094,1,0,0:0:0:0:
320,128,3270,5,0,0:0:0:0:
224,296,3446,1,0,0:0:0:0:
136,128,3623,1,0,0:0:0:0:
248,200,3799,6,0,L|360:256,1,105
240,312,4152,1,0,0:0:0:0:
304,120,4329,6,0,L|192:176,1,105
176,64,4682,6,0,B|232:32|256:40|312:32|312:32,1,105
232,232,5035,2,0,B|200:272|128:288|112:304|104:304,1,105
48,112,5388,2,0,B|112:80|184:112|184:112,1,105
344,160,5741,2,0,B|288:216|224:224|216:224,1,105
304,64,6094,6,0,L|176:64,1,105
256,192,6446,5,0,0:0:0:0:
248,120,6623,6,0,P|312:160|320:184,1,105
248,280,6976,1,0,0:0:0:0:
128,120,7152,6,0,P|168:64|224:48,1,105
304,40,7505,1,0,0:0:0:0:
320,40,7594,1,0,0:0:0:0:
336,40,7682,1,0,0:0:0:0:
240,120,7858,6,0,P|312:120|376:120,1,105
336,272,8211,5,0,0:0:0:0:
320,272,8299,1,0,0:0:0:0:
304,272,8388,1,0,0:0:0:0:
320,152,8564,6,0,L|232:232,1,105
240,104,8917,5,0,0:0:0:0:
352,200,9094,1,0,0:0:0:0:
192,248,9270,1,0,0:0:0:0:
324,129,9446,1,0,0:0:0:0:
272,272,9623,1,0,0:0:0:0:
170,165,9799,1,0,0:0:0:0:
312,200,9976,6,0,L|400:256,1,105
184,240,10329,6,0,L|144:288,2,52.5
304,104,10682,2,0,P|376:136|392:168,1,105
408,304,11035,2,0,L|360:272,2,52.5
256,192,11388,2,0,P|184:136|144:104,1,105
160,32,11741,5,0,0:0:0:0:
312,64,11917,1,0,0:0:0:0:
160,152,12094,1,0,0:0:0:0:
312,192,12270,1,0,0:0:0:0:
136,64,12446,1,0,0:0:0:0:
336,152,12623,1,0,0:0:0:0:
256,192,12799,12,0,14211,0:0:0:0:
192,120,14564,5,0,0:0:0:0:
280,248,14741,1,0,0:0:0:0:
336,120,14917,2,0,P|384:136|400:184,1,105
216,240,15270,2,0,P|168:208|184:160,1,105
320,192,15623,5,0,0:0:0:0:
152,280,15799,1,0,0:0:0:0:
192,104,15976,6,0,L|296:56,1,105
384,160,16329,2,0,L|272:144,1,105
312,264,16682,2,0,L|200:304,1,105
240,168,17034,5,0,0:0:0:0:
368,336,17211,1,0,0:0:0:0:
184,296,17388,6,0,L|288:240,1,105
208,184,17741,1,0,0:0:0:0:
136,224,17917,1,0,0:0:0:0:
256,296,18094,6,0,L|352:224,1,105
352,336,18446,1,0,0:0:0:0:
304,184,18623,1,0,0:0:0:0:
120,192,18799,6,0,L|216:280,1,105
176,144,19152,1,0,0:0:0:0:
136,264,19329,1,0,0:0:0:0:
232,192,19505,1,0,0:0:0:0:
120,192,19682,1,0,0:0:0:0:
208,264,19858,1,0,0:0:0:0:
136,80,20211,5,0,0:0:0:0:
288,240,20388,1,0,0:0:0:0:
296,80,20564,6,0,P|272:136|232:152,1,105
104,184,20917,2,0,P|136:240|192:256,1,105
296,280,21270,2,0,P|256:328|200:344,1,105
224,192,21623,5,0,0:0:0:0:
376,80,21799,1,0,0:0:0:0:
360,288,21976,2,0,L|232:320,1,105
80,232,22329,2,0,L|200:200,1,105
336,72,22682,2,0,L|224:96,1,105
256,256,23035,5,0,0:0:0:0:
112,112,23211,1,0,0:0:0:0:
312,128,23388,2,0,L|384:136,2,52.5
200,280,23741,5,0,0:0:0:0:
408,312,23917,1,0,0:0:0:0:
288,176,24094,2,0,L|248:136,2,52.5
120,208,24446,5,0,0:0:0:0:
240,88,24623,1,0,0:0:0:0:
280,240,24799,1,0,0:0:0:0:
128,112,24976,1,0,0:0:0:0:
336,152,25152,1,0,0:0:0:0:
176,280,25329,1,0,0:0:0:0:
256,80,25505,1,0,0:0:0:0:
320,288,25682,1,0,0:0:0:0:
168,176,25858,5,0,0:0:0:0:
320,128,26035,1,0,0:0:0:0:
248,264,26211,2,0,L|152:312,1,105
176,160,26564,2,0,L|296:96,1,105
416,288,26917,2,0,L|298:350,1,105
184,240,27270,5,0,0:0:0:0:
320,328,27446,1,0,0:0:0:0:
296,168,27623,2,0,L|208:88,1,105
160,256,27976,2,0,L|237:326,1,105
400,344,28329,2,0,L|314:265,1,105
424,200,28682,5,0,0:0:0:0:
240,296,28858,1,0,0:0:0:0:
280,128,29035,6,0,L|160:128,1,105
224,296,29388,2,0,L|224:184,1,105
128,296,29741,2,0,P|181:318|229:270,1,105
376,144,30094,6,0,P|320:248|416:304,1,210
376,144,30799,6,0,P|432:248|336:304,1,210
224,216,31505,5,0,0:0:0:0:
336,336,31682,1,0,0:0:0:0:
168,296,31858,2,0,P|112:272|112:216,1,105
136,104,32211,2,0,P|160:56|208:40,1,105
384,80,32564,2,0,P|352:144|312:160,1,105
136,224,32917,6,0,L|208:192,2,52.5
256,88,33270,2,0,L|200:120,2,52.5
248,288,33623,2,0,L|304:248,2,52.5
384,120,33976,2,0,L|312:168,2,52.5
192,224,34329,5,0,0:0:0:0:
368,272,34505,1,0,0:0:0:0:
296,144,34682,1,0,0:0:0:0:
248,336,34858,1,0,0:0:0:0:
432,176,35035,1,0,0:0:0:0:
160,176,35211,1,0,0:0:0:0:
368,320,35388,1,0,0:0:0:0:
248,80,35564,1,0,0:0:0:0:
184,288,35741,6,0,P|200:224|224:192,1,105
376,288,36094,1,0,0:0:0:0:
200,96,36446,2,0,L|264:200,1,105
288,176,36799,1,0,0:0:0:0:
272,184,36888,1,0,0:0:0:0:
256,192,36976,1,0,0:0:0:0:
128,256,37152,5,0,0:0:0:0:
192,144,37329,1,0,0:0:0:0:
224,312,37505,1,0,0:0:0:0:
184,216,37682,1,0,0:0:0:0:
352,104,38211,5,0,0:0:0:0:
360,248,38564,1,0,0:0:0:0:
224,160,38741,1,0,0:0:0:0:
208,272,38917,1,0,0:0:0:0:
288,208,39094,1,0,0:0:0:0:
96,136,39446,5,0,0:0:0:0:
176,248,39623,2,0,L|48:264,1,105
248,168,39976,1,0,0:0:0:0:
152,320,40152,1,0,0:0:0:0:
96,184,40329,1,0,0:0:0:0:
312,328,40505,1,0,0:0:0:0:
176,112,40682,6,0,L|280:72,1,105
400,192,41035,2,0,L|270:238,1,105
104,272,41388,5,0,0:0:0:0:
216,152,41564,1,0,0:0:0:0:
192,328,41741,1,0,0:0:0:0:
136,104,41917,1,0,0:0:0:0:
256,248,42270,5,0,0:0:0:0:
280,80,42446,2,0,L|184:152,1,105
112,192,42799,5,0,0:0:0:0:
216,296,42976,2,0,L|136:216,1,105
288,144,43329,2,0,L|372:65,1,105
160,72,43682,2,0,L|64:161,1,105
152,128,44035,1,0,0:0:0:0:
312,216,44211,6,0,P|256:264|184:280,1,105
224,176,44564,1,0,0:0:0:0:
336,304,44741,1,0,0:0:0:0:
288,120,44917,6,0,P|240:72|176:64,1,105
208,192,45270,1,0,0:0:0:0:
368,48,45446,1,0,0:0:0:0:
360,200,45623,6,0,P|288:272|136:280,1,210
240,208,46152,6,0,P|168:136|16:128,1,210
272,96,46682,2,0,P|328:88|376:48,1,105
312,176,47035,5,0,0:0:0:0:
160,232,47211,1,0,0:0:0:0:
256,104,47388,1,0,0:0:0:0:
224,304,47564,1,0,0:0:0:0:
176,120,47741,6,0,P|216:40|336:48,1,210
320,216,48446,1,0,0:0:0:0:
144,168,48799,2,0,L|256:88,1,105
432,192,49329,2,0,L|320:272,1,105
144,192,49858,5,0,0:0:0:0:
360,136,50035,1,0,0:0:0:0:
160,120,50211,1,0,0:0:0:0:
352,200,50388,1,0,0:0:0:0:
168,200,50564,1,0,0:0:0:0:
336,120,50741,1,0,0:0:0:0:
176,128,50917,1,0,0:0:0:0:
328,224,51094,1,0,0:0:0:0:
168,152,51270,6,0,L|288:80,1,105
400,168,51623,2,0,L|296:248,1,105
144,280,51976,2,0,L|256:200,1,105
304,48,52329,2,0,L|208:120,1,105
368,256,52682,5,0,0:0:0:0:
248,104,52858,1,0,0:0:0:0:
136,264,53035,1,0,0:0:0:0:
352,160,53211,1,0,0:0:0:0:
136,144,53388,1,0,0:0:0:0:
256,312,53564,1,0,0:0:0:0:
248,104,53741,1,0,0:0:0:0:
144,272,53917,1,0,0:0:0:0:
336,168,54094,6,0,L|440:120,1,105
456,224,54446,1,0,0:0:0:0:
272,80,54623,1,0,0:0:0:0:
304,216,54799,2,0,L|264:256,2,52.5
424,96,55152,1,0,0:0:0:0:
184,192,55329,1,0,0:0:0:0:
248,40,55505,6,0,L|328:136,1,105
336,312,55858,2,0,L|245:208,1,105
88,152,56211,2,0,L|184:264,1,105
264,144,56564,1,0,0:0:0:0:
112,288,56741,1,0,0:0:0:0:
264,280,56917,6,0,L|344:312,2,52.5
352,176,57270,1,0,0:0:0:0:
368,160,57358,1,0,0:0:0:0:
392,160,57446,1,0,0:0:0:0:
248,64,57623,6,0,L|192:112,2,52.5
224,224,57976,1,0,0:0:0:0:
208,232,58064,1,0,0:0:0:0:
192,224,58152,1,0,0:0:0:0:
264,88,58329,6,0,L|336:40,2,52.5
440,152,58682,2,0,L|368:208,2,52.5
232,280,59035,1,0,0:0:0:0:
320,112,59211,1,0,0:0:0:0:
328,304,59388,1,0,0:0:0:0:
232,80,59564,1,0,0:0:0:0:
352,208,59741,6,0,L|208:168,1,105
72,232,60094,2,0,L|214:269,1,105
160,152,60446,1,0,0:0:0:0:
96,328,60623,1,0,0:0:0:0:
288,232,60799,2,0,L|184:176,1,105
232,328,61152,1,0,0:0:0:0:
240,96,61329,1,0,0:0:0:0:
112,208,61505,6,0,L|224:176,1,105
392,240,61858,2,0,L|260:277,1,105
312,64,62211,2,0,L|456:24,1,105
304,240,62564,5,0,0:0:0:0:
160,102,62741,1,0,0:0:0:0:
192,232,62917,2,0,L|232:368,1,105
408,224,63270,2,0,L|371:108,1,105
232,48,63623,2,0,L|272:173,1,105
128,144,63976,5,0,0:0:0:0:
352,192,64152,1,0,0:0:0:0:
128,192,64329,1,0,0:0:0:0:
352,144,64505,1,0,0:0:0:0:
128,96,64682,1,0,0:0:0:0:
352,240,64858,1,0,0:0:0:0:
128,240,65035,1,0,0:0:0:0:
352,96,65211,1,0,0:0:0:0:
128,152,65388,6,0,L|248:184,1,105
360,312,65741,2,0,L|242:276,1,105
328,200,66094,1,0,0:0:0:0:
264,352,66270,1,0,0:0:0:0:
208,152,66446,6,0,L|326:54,1,105
408,208,66799,2,0,L|303:291,1,105
288,176,67152,1,0,0:0:0:0:
424,328,67329,1,0,0:0:0:0:
256,304,67505,6,0,L|376:232,1,105
424,72,67858,2,0,L|312:136,1,105
408,184,68211,5,0,0:0:0:0:
192,120,68388,1,0,0:0:0:0:
280,232,68564,2,0,L|360:320,1,105
152,256,68917,5,0,0:0:0:0:
368,136,69094,1,0,0:0:0:0:
280,232,69270,6,0,L|184:336,1,105
192,136,69623,5,0,0:0:0:0:
368,240,69799,1,0,0:0:0:0:
192,264,69976,1,0,0:0:0:0:
296,112,70152,1,0,0:0:0:0:
272,288,70329,1,0,0:0:0:0:
176,128,70505,1,0,0:0:0:0:
376,232,70682,1,0,0:0:0:0:
160,192,70858,1,0,0:0:0:0:
408,96,71035,6,0,L|338:128,2,52.5
216,280,71388,2,0,L|264:256,2,52.5
272,96,71741,2,0,L|192:144,2,52.5
368,288,72094,2,0,L|424:264,2,52.5
320,176,72446,5,0,0:0:0:0:
144,272,72623,1,0,0:0:0:0:
312,328,72799,1,0,0:0:0:0:
208,192,72976,6,0,P|192:144|136:112,1,105
328,48,73329,2,0,P|372:86|388:150,1,105
336,248,73682,1,0,0:0:0:0:
224,160,73858,6,0,L|96:96,1,105
176,280,74211,2,0,L|312:352,1,105
392,288,74564,2,0,L|260:215,1,105
192,96,74917,2,0,L|288:152,1,105
112,200,75270,5,0,0:0:0:0:
376,200,75446,1,0,0:0:0:0:
176,96,75623,1,0,0:0:0:0:
304,304,75799,1,0,0:0:0:0:
320,104,75976,5,0,0:0:0:0:
112,208,76152,1,0,0:0:0:0:
304,344,76329,1,0,0:0:0:0:
256,192,76505,12,0,79505,0:0:0:0:
