osu file format v14

[General]
AudioFilename: audio.mp3
AudioLeadIn: 0
PreviewTime: 54041
Countdown: 0
SampleSet: Soft
StackLeniency: 0.4
Mode: 0
LetterboxInBreaks: 0
WidescreenStoryboard: 0

[Editor]
Bookmarks: 13629,18041,18659,24041,28100,31012,37012,50688,52982,54747,65247
DistanceSpacing: 0.8
BeatDivisor: 4
GridSize: 8
TimelineZoom: 1

[Metadata]
Title:Great Days
TitleUnicode:Great Days
Artist:Karen Aoki & Daisuke Hasegawa
ArtistUnicode:青木カレン・ハセガワダイスケ
Creator:Testo
Version:Hard
Source:ジョジョの奇妙な冒険 ダイヤモンドは砕けない
Tags:JoJo's Bizarre Adventure Diamond Is Unbreakable no kimyou na bouken op opening
BeatmapID:1415531
BeatmapSetID:570494

[Difficulty]
HPDrainRate:4
CircleSize:3.3
OverallDifficulty:6
ApproachRate:7
SliderMultiplier:1.3
SliderTickRate:1

[Events]
//Background and Video events
0,0,"jojo_s_bizarre_adventure_diamond_is_unbreakable_by_franky4fingersx2-d9nw5lg.jpg",0,0
Video,0,"JOJOOPGREATDAYSFIXED.avi"
//Break Periods
//Storyboard Layer 0 (Background)
//Storyboard Layer 1 (Fail)
//Storyboard Layer 2 (Pass)
//Storyboard Layer 3 (Foreground)
//Storyboard Sound Samples

[TimingPoints]
571,352.941176470588,4,2,1,60,1,0
14688,-111.111111111111,4,2,1,50,0,0
18923,-100,4,2,1,55,0,0
20335,-100,4,2,1,60,0,0
25982,-100,4,2,1,65,0,0
35688,-100,4,2,1,55,0,0
36218,-100,4,2,1,50,0,0
37276,-125,4,2,1,50,0,0
41512,-100,4,2,1,55,0,0
42923,-100,4,2,1,60,0,0
48570,-100,4,2,1,65,0,0
52806,-100,4,2,1,70,0,0
54218,-90.9090909090909,4,2,1,70,0,1
76806,-125,4,2,1,50,0,0

[Colours]
Combo1 : 255,0,128
Combo2 : 0,255,168
Combo3 : 244,250,37
Combo4 : 0,191,255

[HitObjects]
290,129,571,5,8,3:0:0:0:
290,129,923,1,8,3:0:0:0:
290,129,1276,2,0,L|281:204,1,65,8|0,3:0|3:0,0:0:0:0:
270,284,1629,2,0,P|296:278|324:276,3,32.5,8|8|8|8,3:0|3:0|3:0|3:0,0:0:0:0:
345,262,1982,6,0,P|381:265|419:259,1,65,6|0,0:0|0:0,0:0:0:0:
439,174,2335,2,0,P|442:138|436:100,1,65,10|0,0:0|0:0,0:0:0:0:
364,57,2688,2,0,P|328:54|290:60,1,65,2|2,0:0|0:0,0:0:0:0:
230,117,3041,2,0,P|227:153|233:191,1,65,8|2,0:0|0:0,0:0:0:0:
292,248,3394,6,0,L|277:317,1,65,0|2,3:0|0:0,0:0:0:0:
188,330,3747,2,0,L|201:266,1,65,10|2,0:0|0:0,0:0:0:0:
127,213,4100,1,2,3:0:0:0:
127,213,4276,2,0,L|86:399,1,130,2|2,0:0|0:0,0:0:0:0:
11,212,4806,6,0,P|8:169|14:143,1,65,6|0,0:0|0:0,0:0:0:0:
61,70,5159,2,0,P|104:67|130:73,1,65,10|0,0:0|0:0,0:0:0:0:
222,118,5512,2,0,P|253:123|286:119,1,65,2|2,0:0|0:0,0:0:0:0:
355,59,5865,2,0,P|398:56|424:62,1,65,8|2,0:0|0:0,0:0:0:0:
446,147,6218,6,0,L|437:222,1,65,0|2,3:0|0:0,0:0:0:0:
359,256,6570,2,0,L|351:191,1,65,10|2,0:0|0:0,0:0:0:0:
269,151,6923,1,2,3:0:0:0:
269,151,7100,2,0,L|251:293,1,130,2|2,0:0|0:0,0:0:0:0:
125,327,7629,6,0,L|60:319,1,65,14|0,0:0|0:0,0:0:0:0:
41,229,7982,2,0,L|105:236,1,65,10|0,0:0|0:0,0:0:0:0:
183,145,8335,2,0,L|118:137,1,65,10|2,0:0|0:0,0:0:0:0:
99,47,8688,2,0,L|163:54,1,65,8|2,0:0|0:0,0:0:0:0:
254,63,9041,6,0,P|298:57|324:49,1,65,8|2,0:0|0:0,0:0:0:0:
271,147,9394,2,0,P|315:141|341:133,1,65,10|2,0:0|0:0,0:0:0:0:
288,231,9747,1,10,0:0:0:0:
288,231,9923,2,0,P|332:225|426:186,1,130,2|0,3:0|3:0,0:0:0:0:
457,313,10453,6,0,L|449:383,1,65,10|0,0:0|0:0,0:0:0:0:
351,305,10806,2,0,L|359:375,1,65,10|0,0:0|0:0,0:0:0:0:
241,312,11159,2,0,L|233:382,1,65,10|2,0:0|0:0,0:0:0:0:
135,304,11512,2,0,L|143:374,1,65,8|2,0:0|0:0,0:0:0:0:
48,246,11865,6,0,P|63:212|86:190,1,65,8|2,0:0|0:0,0:0:0:0:
162,149,12218,2,0,P|147:115|124:93,1,65,10|2,0:0|0:0,0:0:0:0:
55,40,12570,1,10,0:0:0:0:
55,40,12747,2,0,P|110:53|188:20,1,130,2|0,3:0|3:0,0:0:0:0:
268,39,13276,5,8,3:0:0:0:
268,39,13629,1,8,3:0:0:0:
268,39,13982,2,0,L|260:106,1,65,8|0,3:0|3:0,0:0:0:0:
260,194,14335,2,0,L|264:232,3,32.5,8|8|8|8,3:0|3:0|3:0|3:0,0:0:0:0:
270,271,14688,6,0,B|279:317|328:363|328:363|360:303|360:303|402:353|402:353|445:296|438:235,1,350.99998928833,4|2,0:0|0:0,0:0:0:0:
354,213,16100,6,0,B|326:127|374:56|374:56|296:112|180:81,1,350.99998928833,4|2,0:0|0:0,0:0:0:0:
166,174,17512,6,0,P|96:154|-8:186,2,175.499994644165,6|0|2,0:0|0:0|0:0,0:0:0:0:
255,227,18923,6,0,L|262:364,1,130,0|2,3:0|0:0,0:0:0:0:
405,244,19629,2,0,L|398:114,1,130,2|10,0:0|0:0,0:0:0:0:
231,42,20335,6,0,P|182:29|110:61,1,130,4|10,0:0|0:0,0:0:0:0:
81,145,20865,2,0,L|75:278,1,130,0|2,0:0|0:0,0:0:0:0:
162,301,21394,2,0,L|166:210,1,65,8|0,0:0|0:0,0:0:0:0:
209,156,21747,6,0,P|241:147|352:162,1,130,0|10,0:0|0:0,0:0:0:0:
403,216,22276,2,0,P|412:248|397:359,1,130,0|2,0:0|0:0,0:0:0:0:
311,342,22806,2,0,P|302:296|308:266,1,65,8|0,0:0|0:0,0:0:0:0:
336,155,23159,6,0,B|280:160|280:160|202:140,1,130,0|10,0:0|0:0,0:0:0:0:
120,115,23688,2,0,L|44:134,1,65,0|0,0:0|3:0,0:0:0:0:
10,209,24041,2,0,B|66:214|66:214|144:194,1,130,2|0,0:0|0:0,0:0:0:0:
256,212,24570,6,0,P|273:275|261:341,1,130,0|10,0:0|0:0,0:0:0:0:
174,364,25100,2,0,P|111:381|45:369,1,130,0|2,0:0|0:0,0:0:0:0:
15,256,25629,2,0,L|10:210,3,32.5,8|8|8|8,3:0|3:0|3:0|3:0,0:0:0:0:
31,182,25982,6,0,L|104:171,1,65,8|0,0:0|0:0,0:0:0:0:
186,169,26335,2,0,L|250:178,1,65,8|0,0:0|0:0,0:0:0:0:
277,265,26688,2,0,L|129:242,1,130,8|8,0:0|0:0,0:0:0:0:
87,314,27218,1,0,0:0:0:0:
87,314,27394,6,0,L|151:323,1,65,8|0,0:0|0:0,0:0:0:0:
240,341,27747,2,0,L|304:350,1,65,8|2,0:0|0:0,0:0:0:0:
391,324,28100,2,0,P|398:283|393:250,1,65,10|2,0:0|0:0,0:0:0:0:
347,182,28453,1,10,0:0:0:0:
347,182,28629,1,6,0:0:0:0:
262,147,28806,6,0,P|210:141|193:141,1,65,8|0,0:0|0:0,0:0:0:0:
116,183,29159,2,0,P|83:181|51:176,1,65,8|0,0:0|0:0,0:0:0:0:
20,90,29512,2,0,P|27:50|111:19,1,130,8|8,0:0|0:0,0:0:0:0:
184,55,30041,1,0,0:0:0:0:
184,55,30218,6,0,P|237:48|256:43,1,65,8|0,0:0|0:0,0:0:0:0:
338,43,30570,2,0,P|369:49|402:52,1,65,8|2,0:0|0:0,0:0:0:0:
487,84,30923,2,0,L|479:168,1,65,10|2,0:0|0:0,0:0:0:0:
447,233,31276,1,10,0:0:0:0:
447,233,31453,1,6,0:0:0:0:
377,290,31629,6,0,P|339:299|303:295,1,65,8|0,0:0|0:0,0:0:0:0:
252,229,31982,2,0,P|219:227|188:236,1,65,8|0,0:0|0:0,0:0:0:0:
110,284,32335,2,0,P|53:284|6:218,1,130,8|8,0:0|0:0,0:0:0:0:
44,147,32865,1,0,0:0:0:0:
44,147,33041,6,0,L|52:82,1,65,8|0,0:0|0:0,0:0:0:0:
139,58,33394,2,0,L|131:123,1,65,8|0,0:0|0:0,0:0:0:0:
212,164,33747,2,0,L|220:99,1,65,8|0,0:0|0:0,0:0:0:0:
309,80,34100,2,0,L|301:145,1,65,8|0,0:0|0:0,0:0:0:0:
284,234,34453,5,6,0:0:0:0:
124,322,34806,1,10,0:0:0:0:
124,322,34982,2,0,L|39:312,1,65,2|0,0:0|3:0,0:0:0:0:
93,214,35335,2,0,L|157:221,1,65,2|8,0:0|0:0,0:0:0:0:
284,234,35688,6,0,B|298:300|298:300|264:353,1,130,2|2,0:0|0:0,0:0:0:0:
185,379,36218,1,8,3:0:0:0:
93,214,36570,1,0,3:0:0:0:
93,214,36747,1,2,3:0:0:0:
182,153,36923,1,2,3:0:0:0:
182,153,37100,1,2,3:0:0:0:
239,246,37276,6,0,B|208:138|269:56|269:56|312:100|328:158|328:158|340:99|380:57|380:57|448:136|418:251,1,624,4|0,0:0|0:0,0:0:0:0:
387,333,39747,1,2,0:0:0:0:
387,333,40100,2,0,P|338:345|279:330,1,104,8|0,0:0|0:0,0:0:0:0:
126,339,40629,2,0,P|193:364|225:253,1,208,8|0,0:0|0:0,0:0:0:0:
156,201,41512,6,0,L|14:193,1,130,10|8,0:0|0:0,0:0:0:0:
4,103,42041,2,0,L|81:107,1,65,2|0,0:0|0:0,0:0:0:0:
161,137,42394,1,2,0:0:0:0:
161,137,42570,2,0,L|156:214,1,65,8|0,0:0|3:0,0:0:0:0:
95,292,42923,6,0,P|151:311|220:284,1,130,4|8,0:0|0:0,0:0:0:0:
260,210,43453,1,0,3:0:0:0:
260,210,43629,2,0,P|303:211|331:216,1,65,0|0,0:0|0:0,0:0:0:0:
406,282,43982,2,0,P|438:286|470:286,1,65,8|0,0:0|0:0,0:0:0:0:
499,196,44335,6,0,L|480:62,1,130,2|8,0:0|0:0,0:0:0:0:
390,48,44865,2,0,L|408:176,1,130,0|0,0:0|0:0,0:0:0:0:
325,215,45394,2,0,L|312:124,1,65,8|0,0:0|0:0,0:0:0:0:
244,93,45747,6,0,P|212:73|130:103,1,130,6|8,0:0|0:0,0:0:0:0:
83,179,46276,2,0,P|77:221|73:253,1,65,0|0,0:0|0:0,0:0:0:0:
134,312,46629,2,0,P|176:318|208:322,1,65,0|8,0:0|0:0,0:0:0:0:
285,292,46982,1,0,0:0:0:0:
285,292,47159,6,0,L|355:284,1,65,0|8,3:0|3:0,0:0:0:0:
355,193,47512,2,0,L|285:185,1,65,0|0,0:0|0:0,0:0:0:0:
192,88,47865,2,0,L|184:158,1,65,0|0,3:0|0:0,0:0:0:0:
93,158,48218,2,0,L|85:88,1,65,0|0,3:0|0:0,0:0:0:0:
14,237,48570,6,0,L|-2:93,1,130,6|8,0:0|0:0,0:0:0:0:
26,20,49100,2,0,L|96:12,1,65,2|0,0:0|0:0,0:0:0:0:
170,57,49453,2,0,L|234:64,1,65,0|8,0:0|0:0,0:0:0:0:
311,113,49806,6,0,P|349:147|318:229,1,130,0|0,0:0|0:0,0:0:0:0:
252,259,50335,2,0,L|187:266,1,65,8|0,0:0|0:0,0:0:0:0:
96,273,50688,2,0,B|62:235|62:235|81:150,1,130,0|8,0:0|0:0,0:0:0:0:
128,80,51218,1,0,0:0:0:0:
128,80,51394,6,0,P|176:71|211:69,1,65,6|0,0:0|0:0,0:0:0:0:
273,122,51747,2,0,P|305:118|337:111,1,65,8|0,0:0|0:0,0:0:0:0:
388,32,52100,2,0,P|414:57|417:162,2,130,2|10|0,0:0|0:0|3:0,0:0:0:0:
284,17,52982,5,10,0:0:0:0:
188,62,53159,2,0,P|159:83|135:107,1,65,10|2,0:0|0:0,0:0:0:0:
119,192,53512,1,2,3:0:0:0:
166,269,53688,1,2,0:0:0:0:
250,302,53865,1,10,0:0:0:0:
339,289,54041,1,2,3:0:0:0:
373,175,54218,6,0,L|366:88,1,71.5000021820069,4|0,0:0|0:0,0:0:0:0:
273,68,54570,1,8,0:0:0:0:
273,68,54747,2,0,L|278:139,1,71.5000021820069,0|0,0:0|3:0,0:0:0:0:
189,184,55100,2,0,L|183:112,1,71.5000021820069,0|8,0:0|0:0,0:0:0:0:
104,50,55453,6,0,B|92:91|92:91|101:208,1,143.000004364014,0|0,0:0|0:0,0:0:0:0:
137,284,55982,2,0,P|185:293|216:292,1,71.5000021820069,8|0,0:0|0:0,0:0:0:0:
306,275,56335,2,0,P|342:269|387:276,1,71.5000021820069,0|0,3:0|0:0,0:0:0:0:
446,187,56688,2,0,P|410:181|365:188,1,71.5000021820069,8|0,0:0|0:0,0:0:0:0:
233,198,57041,6,0,P|269:192|287:292,1,143.000004364014,2|8,0:0|0:0,0:0:0:0:
214,317,57570,2,0,L|68:305,1,143.000004364014,0|2,0:0|0:0,0:0:0:0:
43,208,58100,2,0,L|114:213,1,71.5000021820069,10|2,0:0|0:0,0:0:0:0:
164,127,58453,6,0,B|105:122|105:122|177:54,1,143.000004364014,2|10,3:0|0:0,0:0:0:0:
289,46,58982,1,2,0:0:0:0:
289,46,59159,2,0,P|341:37|368:43,1,71.5000021820069,0|0,0:0|0:0,0:0:0:0:
371,139,59512,2,0,P|319:148|292:142,1,71.5000021820069,8|0,0:0|0:0,0:0:0:0:
192,109,59865,6,0,L|180:187,1,71.5000021820069,4|0,0:0|0:0,0:0:0:0:
195,282,60218,1,8,0:0:0:0:
195,282,60394,2,0,P|234:293|274:294,1,71.5000021820069,0|0,0:0|3:0,0:0:0:0:
251,193,60747,2,0,P|212:182|172:181,1,71.5000021820069,0|8,0:0|0:0,0:0:0:0:
89,139,61100,6,0,P|47:120|95:56,1,143.000004364014,0|0,0:0|0:0,0:0:0:0:
184,78,61629,2,0,L|262:68,1,71.5000021820069,8|0,0:0|0:0,0:0:0:0:
354,57,61982,2,0,P|362:82|363:132,1,71.5000021820069,2|0,3:0|0:0,0:0:0:0:
280,182,62335,2,0,P|272:207|271:257,1,71.5000021820069,8|0,0:0|0:0,0:0:0:0:
343,313,62688,6,0,P|298:343|199:314,1,143.000004364014,2|8,0:0|0:0,0:0:0:0:
140,259,63218,2,0,P|72:240|11:274,1,143.000004364014,0|0,0:0|0:0,0:0:0:0:
83,336,63747,2,0,P|117:351|151:386,2,71.5000021820069,8|0|0,0:0|0:0|3:0,0:0:0:0:
11,274,64276,5,2,0:0:0:0:
46,180,64453,2,0,P|56:126|62:104,1,71.5000021820069,10|2,0:0|0:0,0:0:0:0:
142,52,64806,1,2,0:0:0:0:
240,32,64982,1,2,0:0:0:0:
213,128,65159,2,0,L|181:156,3,35.7500010910034,10|8|10|8,3:0|3:0|3:0|3:0,0:0:0:0:
168,198,65512,6,0,P|165:269|186:356,1,143.000004364014,6|8,0:0|0:0,0:0:0:0:
279,352,66041,2,0,L|355:346,1,71.5000021820069,0|0,0:0|3:0,0:0:0:0:
387,253,66394,2,0,L|315:258,1,71.5000021820069,0|8,0:0|0:0,0:0:0:0:
265,171,66747,6,0,L|414:159,1,143.000004364014,0|0,0:0|0:0,0:0:0:0:
435,63,67276,2,0,L|363:68,1,71.5000021820069,8|0,0:0|0:0,0:0:0:0:
264,55,67629,2,0,P|229:50|193:41,1,71.5000021820069,0|0,3:0|0:0,0:0:0:0:
99,76,67982,2,0,P|64:84|28:89,1,71.5000021820069,8|0,0:0|0:0,0:0:0:0:
28,207,68335,6,0,B|21:251|21:251|52:349,1,143.000004364014,2|8,0:0|0:0,0:0:0:0:
150,331,68865,2,0,B|157:287|157:287|126:189,1,143.000004364014,0|2,0:0|0:0,0:0:0:0:
214,142,69394,2,0,L|238:217,1,71.5000021820069,10|2,0:0|0:0,0:0:0:0:
297,289,69747,6,0,P|361:297|442:284,1,143.000004364014,2|10,3:0|0:0,0:0:0:0:
477,192,70276,1,2,0:0:0:0:
477,192,70453,2,0,L|483:116,1,71.5000021820069,0|0,3:0|0:0,0:0:0:0:
396,69,70806,2,0,L|390:140,1,71.5000021820069,8|0,0:0|0:0,0:0:0:0:
264,200,71159,6,0,P|232:206|121:172,1,143.000004364014,2|8,0:0|0:0,0:0:0:0:
90,83,71688,2,0,P|128:81|172:97,1,71.5000021820069,0|0,0:0|3:0,0:0:0:0:
259,91,72041,2,0,P|291:97|402:63,1,143.000004364014,2|0,0:0|0:0,0:0:0:0:
494,55,72570,6,0,P|494:102|491:127,1,71.5000021820069,2|0,0:0|0:0,0:0:0:0:
445,215,72923,1,8,0:0:0:0:
445,215,73100,2,0,L|439:303,1,71.5000021820069,0|0,0:0|3:0,0:0:0:0:
350,332,73453,2,0,L|278:327,1,71.5000021820069,0|8,0:0|0:0,0:0:0:0:
132,281,73806,6,0,P|103:246|142:153,1,143.000004364014,6|2,0:0|0:0,0:0:0:0:
222,123,74335,1,10,0:0:0:0:
322,126,74512,2,0,L|400:142,1,71.5000021820069,2|2,0:0|3:0,0:0:0:0:
425,234,74865,2,0,L|354:219,1,71.5000021820069,2|8,0:0|0:0,0:0:0:0:
267,269,75218,1,2,0:0:0:0:
267,269,75394,6,0,P|233:279|196:283,1,71.5000021820069,6|8,0:0|0:0,0:0:0:0:
100,256,75747,1,8,0:0:0:0:
69,160,75923,1,8,3:0:0:0:
139,88,76100,2,0,P|176:80|212:82,1,71.5000021820069,0|8,3:0|0:0,0:0:0:0:
307,102,76453,1,0,3:0:0:0:
355,189,76629,1,8,3:0:0:0:
355,189,76718,1,8,3:0:0:0:
355,189,76806,6,0,B|294:221|256:323|256:323|350:263|424:288|424:288|346:90|346:90|217:171|173:299,1,832,12|6,0:0|0:0,0:0:0:0:
