osu file format v14

[General]
AudioFilename: audio.mp3
AudioLeadIn: 0
PreviewTime: 54041
Countdown: 0
SampleSet: Soft
StackLeniency: 0.4
Mode: 0
LetterboxInBreaks: 0
WidescreenStoryboard: 0

[Editor]
Bookmarks: 13629,28100,31012,37012,39394,50688,52982,65247
DistanceSpacing: 1
BeatDivisor: 2
GridSize: 32
TimelineZoom: 1

[Metadata]
Title:Great Days
TitleUnicode:Great Days
Artist:Karen Aoki & Daisuke Hasegawa
ArtistUnicode:青木カレン・ハセガワダイスケ
Creator:Testo
Version:Normal
Source:ジョジョの奇妙な冒険 ダイヤモンドは砕けない
Tags:JoJo's Bizarre Adventure Diamond Is Unbreakable no kimyou na bouken op opening
BeatmapID:1247743
BeatmapSetID:570494

[Difficulty]
HPDrainRate:3
CircleSize:3
OverallDifficulty:5
ApproachRate:6
SliderMultiplier:1.2
SliderTickRate:1

[Events]
//Background and Video events
0,0,"jojo_s_bizarre_adventure_diamond_is_unbreakable_by_franky4fingersx2-d9nw5lg.jpg",0,0
Video,0,"JOJOOPGREATDAYSFIXED.avi"
//Break Periods
//Storyboard Layer 0 (Background)
//Storyboard Layer 1 (Fail)
//Storyboard Layer 2 (Pass)
//Storyboard Layer 3 (Foreground)
//Storyboard Sound Samples

[TimingPoints]
571,352.941176470588,4,2,1,60,1,0
14688,-100,4,2,1,50,0,0
18923,-100,4,2,1,55,0,0
20335,-100,4,2,1,60,0,0
25982,-100,4,2,1,65,0,0
35688,-100,4,2,1,55,0,0
36218,-100,4,2,1,50,0,0
37276,-100,4,2,1,50,0,0
41512,-100,4,2,1,55,0,0
42923,-100,4,2,1,60,0,0
48570,-100,4,2,1,65,0,0
52806,-100,4,2,1,70,0,0
54218,-100,4,2,1,70,0,1
76806,-100,4,2,1,50,0,0

[Colours]
Combo1 : 255,0,128
Combo2 : 0,255,168
Combo3 : 244,250,37
Combo4 : 0,191,255

[HitObjects]
138,97,571,6,0,L|258:83,1,120,8|8,3:0|3:0,0:0:0:0:
326,180,1276,2,0,L|254:189,1,60,8|0,3:0|3:0,0:0:0:0:
206,192,1629,2,0,L|134:201,1,60,8|8,3:0|3:0,0:0:0:0:
88,216,1982,6,0,P|83:249|83:339,1,120,6|10,0:0|0:0,0:0:0:0:
199,363,2688,2,0,P|232:368|322:368,1,120,2|8,0:0|0:0,0:0:0:0:
370,337,3218,6,0,P|388:288|374:212,1,120,2|2,0:0|0:0,0:0:0:0:
345,171,3747,1,10,0:0:0:0:
234,114,4100,1,2,3:0:0:0:
79,78,4453,2,0,P|79:118|72:163,1,60,8|2,0:0|0:0,0:0:0:0:
50,192,4806,6,0,L|56:334,1,120,6|10,0:0|0:0,0:0:0:0:
158,373,5512,2,0,L|300:367,1,120,2|8,0:0|0:0,0:0:0:0:
327,333,6041,6,0,P|376:321|464:339,1,120,2|2,0:0|0:0,0:0:0:0:
501,347,6570,1,10,0:0:0:0:
465,232,6923,1,2,3:0:0:0:
437,115,7276,2,0,L|424:44,1,60,8|2,0:0|0:0,0:0:0:0:
375,24,7629,6,0,P|317:8|237:33,1,120,14|10,0:0|0:0,0:0:0:0:
164,93,8335,2,0,P|105:104|48:88,1,120,10|8,0:0|0:0,0:0:0:0:
11,136,8865,6,0,P|2:194|12:274,1,120,2|2,0:0|0:0,0:0:0:0:
31,310,9394,1,10,0:0:0:0:
133,247,9747,1,10,0:0:0:0:
233,312,10100,2,0,P|278:307|302:302,1,60,8|0,0:0|3:0,0:0:0:0:
351,293,10453,6,0,L|360:173,1,120,10|10,0:0|0:0,0:0:0:0:
278,85,11159,2,0,L|268:204,1,120,10|8,0:0|0:0,0:0:0:0:
264,264,11688,6,0,P|210:278|132:227,1,120,2|2,0:0|0:0,0:0:0:0:
129,198,12218,2,0,P|119:160|100:119,1,60,10|2,0:0|0:0,0:0:0:0:
83,87,12570,1,10,0:0:0:0:
83,87,12747,6,0,P|30:135|46:277,1,180,2|8,3:0|3:0,0:0:0:0:
123,302,13629,1,8,3:0:0:0:
197,207,13982,1,8,3:0:0:0:
260,308,14335,2,0,P|306:313|323:311,1,60,8|8,3:0|3:0,0:0:0:0:
371,280,14688,6,0,P|458:142|301:54,1,360,4|2,0:0|0:0,0:0:0:0:
342,165,16100,6,0,B|232:197|232:197|170:275|170:275|4:323,1,360,4|2,0:0|0:0,0:0:0:0:
11,197,17512,6,0,P|79:47|228:121,1,360,6|2,0:0|0:0,0:0:0:0:
164,215,18923,6,0,P|150:283|149:335,2,120,0|2|2,3:0|0:0|0:0,0:0:0:0:
273,165,19982,1,10,0:0:0:0:
288,284,20335,6,0,L|415:276,1,120,4|10,0:0|0:0,0:0:0:0:
441,226,20865,2,0,L|433:99,1,120,0|2,0:0|0:0,0:0:0:0:
427,46,21394,1,8,0:0:0:0:
309,22,21747,6,0,L|182:30,1,120,0|10,0:0|0:0,0:0:0:0:
156,80,22277,2,0,L|164:207,1,120,0|2,0:0|0:0,0:0:0:0:
170,260,22806,1,8,0:0:0:0:
215,371,23159,5,0,0:0:0:0:
311,299,23512,1,10,0:0:0:0:
311,299,23688,2,0,P|369:310|446:290,1,120,0|2,0:0|0:0,0:0:0:0:
485,281,24218,1,8,0:0:0:0:
442,169,24570,6,0,P|383:157|306:177,1,120,0|10,0:0|0:0,0:0:0:0:
265,159,25100,2,0,P|206:170|147:158,1,120,0|2,0:0|0:0,0:0:0:0:
92,182,25629,2,0,L|81:241,1,60,8|8,3:0|3:0,0:0:0:0:
93,300,25982,6,0,L|217:277,1,120,8|8,0:0|0:0,0:0:0:0:
325,315,26688,2,0,L|302:190,1,120,8|8,0:0|0:0,0:0:0:0:
190,160,27394,2,0,L|212:284,1,120,8|8,0:0|0:0,0:0:0:0:
120,357,28100,2,0,L|106:282,1,60,10|2,0:0|0:0,0:0:0:0:
95,239,28453,2,0,L|81:164,1,60,10|6,0:0|0:0,0:0:0:0:
102,122,28806,6,0,P|103:55|119:0,1,120,8|8,0:0|0:0,0:0:0:0:
236,18,29512,2,0,P|235:85|219:140,1,120,8|8,0:0|0:0,0:0:0:0:
250,252,30218,2,0,P|307:267|367:267,1,120,8|8,0:0|0:0,0:0:0:0:
367,147,30923,2,0,P|332:139|283:140,1,60,10|2,0:0|0:0,0:0:0:0:
249,151,31276,2,0,P|219:148|190:141,1,60,10|6,0:0|0:0,0:0:0:0:
130,149,31629,6,0,P|138:211|123:283,1,120,8|8,0:0|0:0,0:0:0:0:
206,358,32335,2,0,P|268:350|340:365,1,120,8|8,0:0|0:0,0:0:0:0:
415,282,33041,2,0,P|407:220|422:148,1,120,8|8,0:0|0:0,0:0:0:0:
339,73,33747,2,0,P|277:81|205:66,1,120,8|8,0:0|0:0,0:0:0:0:
183,185,34453,6,0,L|312:170,1,120,6|10,0:0|0:0,0:0:0:0:
361,163,34982,1,2,0:0:0:0:
434,257,35335,1,2,0:0:0:0:
319,293,35688,1,2,0:0:0:0:
54,72,37276,6,0,B|134:77|233:52|233:52|119:104|80:202|80:202|195:126|390:175,1,720,4|0,0:0|0:0,0:0:0:0:
393,295,39747,1,2,0:0:0:0:
297,367,40100,6,0,P|238:355|179:363,1,120,8|0,0:0|0:0,0:0:0:0:
119,361,40629,2,0,L|126:167,1,180,8|0,0:0|0:0,0:0:0:0:
241,150,41512,2,0,L|236:275,1,120,10|8,0:0|0:0,0:0:0:0:
237,330,42041,2,0,P|314:336|410:272,1,180,2|8,0:0|0:0,0:0:0:0:
466,185,42923,6,0,L|453:47,1,120,4|8,0:0|0:0,0:0:0:0:
365,146,43629,1,0,0:0:0:0:
309,252,43982,1,8,0:0:0:0:
365,358,44335,6,0,P|325:371|214:321,1,120,2|8,0:0|0:0,0:0:0:0:
209,311,44865,2,0,P|151:294|94:308,1,120,0|0,0:0|0:0,0:0:0:0:
55,353,45394,1,8,0:0:0:0:
16,240,45747,6,0,L|25:100,1,120,6|8,0:0|0:0,0:0:0:0:
31,60,46276,1,0,0:0:0:0:
142,14,46629,2,0,P|209:17|261:6,1,120,0|0,0:0|0:0,0:0:0:0:
309,41,47159,6,0,L|316:160,2,120,0|0|0,3:0|0:0|3:0,0:0:0:0:
429,35,48218,1,0,3:0:0:0:
439,154,48570,2,0,L|446:273,1,120,6|8,0:0|0:0,0:0:0:0:
453,333,49100,1,2,0:0:0:0:
351,269,49453,1,0,0:0:0:0:
265,353,49806,6,0,P|208:350|122:319,1,120,0|0,0:0|0:0,0:0:0:0:
111,284,50335,1,8,0:0:0:0:
44,184,50688,2,0,L|163:170,1,120,0|8,0:0|0:0,0:0:0:0:
256,245,51394,6,0,L|384:230,1,120,6|8,0:0|0:0,0:0:0:0:
411,184,51923,2,0,P|402:95|218:132,1,300,0|0,0:0|3:0,0:0:0:0:
231,159,52982,5,10,0:0:0:0:
231,159,53159,2,0,L|241:219,2,60,10|2|2,0:0|0:0|3:0,0:0:0:0:
111,142,53865,2,0,L|121:82,1,60,10|2,0:0|3:0,0:0:0:0:
132,23,54218,6,0,P|196:16|267:36,1,120,4|8,0:0|0:0,0:0:0:0:
301,58,54747,2,0,P|359:70|418:63,1,120,0|0,0:0|0:0,0:0:0:0:
465,174,55453,2,0,P|476:220|456:339,1,120,0|0,0:0|0:0,0:0:0:0:
451,348,55982,1,8,0:0:0:0:
343,296,56335,5,0,3:0:0:0:
247,224,56688,1,8,0:0:0:0:
142,282,57041,2,0,P|126:237|149:155,1,120,2|8,0:0|0:0,0:0:0:0:
182,126,57570,1,0,0:0:0:0:
182,126,57747,2,0,P|215:117|259:122,1,60,2|2,3:0|0:0,0:0:0:0:
299,130,58100,2,0,P|328:130|357:121,1,60,10|2,0:0|0:0,0:0:0:0:
392,169,58453,6,0,P|407:225|382:278,1,120,2|10,3:0|0:0,0:0:0:0:
274,334,59159,1,0,0:0:0:0:
168,277,59512,1,8,0:0:0:0:
64,339,59865,6,0,L|45:191,1,120,4|8,0:0|0:0,0:0:0:0:
73,165,60394,2,0,L|91:17,1,120,0|0,0:0|0:0,0:0:0:0:
195,100,61100,2,0,P|261:121|322:87,1,120,0|0,0:0|0:0,0:0:0:0:
351,64,61629,1,8,0:0:0:0:
466,96,61982,5,2,3:0:0:0:
383,182,62335,1,8,0:0:0:0:
420,296,62688,2,0,L|272:307,1,120,2|8,0:0|0:0,0:0:0:0:
240,315,63218,2,0,P|181:325|121:320,1,120,0|0,0:0|0:0,0:0:0:0:
65,297,63747,2,0,L|76:149,1,120,8|0,0:0|3:0,0:0:0:0:
80,117,64276,5,2,0:0:0:0:
80,117,64453,2,0,P|46:112|16:117,2,60,10|2|2,0:0|0:0|0:0,0:0:0:0:
195,83,65159,2,0,P|229:78|259:83,1,60,10|10,3:0|3:0,0:0:0:0:
314,76,65512,6,0,P|378:84|451:73,1,120,6|8,0:0|0:0,0:0:0:0:
485,107,66041,2,0,P|477:171|488:244,1,120,0|0,0:0|0:0,0:0:0:0:
414,324,66747,2,0,P|354:330|295:322,1,120,0|0,0:0|0:0,0:0:0:0:
241,294,67276,1,8,0:0:0:0:
121,300,67629,1,0,3:0:0:0:
70,191,67982,1,8,0:0:0:0:
173,130,68335,6,0,P|232:122|291:131,1,120,2|8,0:0|0:0,0:0:0:0:
347,154,68865,1,0,0:0:0:0:
347,154,69041,2,0,P|348:191|356:217,1,60,2|2,3:0|0:0,0:0:0:0:
354,273,69394,2,0,P|353:310|345:336,1,60,10|2,0:0|0:0,0:0:0:0:
290,352,69747,2,0,P|230:359|171:350,1,120,2|10,3:0|0:0,0:0:0:0:
58,308,70453,2,0,P|59:271|67:245,1,60,0|0,3:0|0:0,0:0:0:0:
80,190,70806,2,0,P|79:153|71:127,1,60,8|0,0:0|0:0,0:0:0:0:
89,73,71159,6,0,P|146:58|205:69,1,120,2|8,0:0|0:0,0:0:0:0:
250,108,71688,1,0,0:0:0:0:
358,55,72041,2,0,P|369:122|348:183,1,120,2|0,0:0|0:0,0:0:0:0:
338,229,72570,2,0,L|333:301,1,60,2|0,0:0|0:0,0:0:0:0:
327,348,72923,1,8,0:0:0:0:
327,348,73100,1,0,0:0:0:0:
211,315,73453,1,0,0:0:0:0:
112,383,73806,6,0,P|89:326|113:254,1,120,6|2,0:0|0:0,0:0:0:0:
136,221,74335,1,10,0:0:0:0:
136,221,74512,2,0,L|267:237,1,120,2|2,0:0|0:0,0:0:0:0:
314,243,75041,1,8,0:0:0:0:
294,361,75394,6,0,L|221:352,1,60,6|8,0:0|0:0,0:0:0:0:
174,346,75747,2,0,L|114:338,1,60,8|8,0:0|3:0,0:0:0:0:
55,328,76100,1,0,3:0:0:0:
30,212,76453,2,0,P|64:208|97:199,1,60,0|8,3:0|3:0,0:0:0:0:
256,192,76806,12,6,79629,0:0:0:0:
