osu file format v14

[General]
AudioFilename: audio.mp3
AudioLeadIn: 0
PreviewTime: 54041
Countdown: 0
SampleSet: Soft
StackLeniency: 0.4
Mode: 0
LetterboxInBreaks: 0
WidescreenStoryboard: 0

[Editor]
Bookmarks: 13629,28100,31012,37012,50688,65247
DistanceSpacing: 1
BeatDivisor: 2
GridSize: 8
TimelineZoom: 1

[Metadata]
Title:Great Days
TitleUnicode:Great Days
Artist:Karen Aoki & Daisuke Hasegawa
ArtistUnicode:青木カレン・ハセガワダイスケ
Creator:Testo
Version:Easy
Source:ジョジョの奇妙な冒険 ダイヤモンドは砕けない
Tags:JoJo's Bizarre Adventure Diamond Is Unbreakable no kimyou na bouken op opening
BeatmapID:1219982
BeatmapSetID:570494

[Difficulty]
HPDrainRate:2
CircleSize:2.5
OverallDifficulty:4
ApproachRate:4
SliderMultiplier:0.999999999999999
SliderTickRate:1

[Events]
//Background and Video events
0,0,"jojo_s_bizarre_adventure_diamond_is_unbreakable_by_franky4fingersx2-d9nw5lg.jpg",0,0
Video,0,"JOJOOPGREATDAYSFIXED.avi"
//Break Periods
//Storyboard Layer 0 (Background)
//Storyboard Layer 1 (Fail)
//Storyboard Layer 2 (Pass)
//Storyboard Layer 3 (Foreground)
//Storyboard Sound Samples

[TimingPoints]
571,352.941176470588,4,2,1,60,1,0
14688,-100,4,2,1,50,0,0
18923,-100,4,2,1,55,0,0
20335,-100,4,2,1,60,0,0
25982,-100,4,2,1,65,0,0
35688,-100,4,2,1,55,0,0
36218,-100,4,2,1,50,0,0
37276,-100,4,2,1,50,0,0
41512,-100,4,2,1,55,0,0
42923,-100,4,2,1,60,0,0
48570,-100,4,2,1,65,0,0
52806,-100,4,2,1,70,0,0
54218,-100,4,2,1,70,0,1
76806,-100,4,2,1,50,0,0

[Colours]
Combo1 : 255,0,128
Combo2 : 0,255,168
Combo3 : 244,250,37
Combo4 : 0,191,255

[HitObjects]
180,113,571,6,0,L|292:106,1,99.9999999999999,8|8,3:0|3:0,0:0:0:0:
379,101,1276,1,8,3:0:0:0:
431,186,1629,1,8,3:0:0:0:
394,279,1982,6,0,L|290:287,1,99.9999999999999,6|10,0:0|0:0,0:0:0:0:
194,282,2688,2,0,L|94:274,2,99.9999999999999,2|8|0,0:0|0:0|3:0,0:0:0:0:
231,188,3747,2,0,L|131:180,1,99.9999999999999,10|2,0:0|3:0,0:0:0:0:
44,129,4453,1,8,0:0:0:0:
110,54,4806,6,0,P|159:46|220:62,1,99.9999999999999,6|10,0:0|0:0,0:0:0:0:
302,87,5512,2,0,P|350:97|399:89,2,99.9999999999999,2|8|0,0:0|0:0|3:0,0:0:0:0:
239,164,6570,2,0,P|243:221|249:278,1,99.9999999999999,10|2,0:0|3:0,0:0:0:0:
317,334,7276,1,8,0:0:0:0:
393,269,7629,6,0,L|402:145,1,99.9999999999999,14|10,0:0|0:0,0:0:0:0:
313,119,8335,2,0,L|305:218,2,99.9999999999999,10|8|8,0:0|0:0|0:0,0:0:0:0:
225,68,9394,2,0,L|217:167,1,99.9999999999999,10|10,0:0|0:0,0:0:0:0:
208,267,10100,1,8,0:0:0:0:
122,319,10453,6,0,P|84:326|16:311,1,99.9999999999999,10|10,0:0|0:0,0:0:0:0:
5,216,11159,2,0,P|-2:178|13:110,2,99.9999999999999,10|8|8,0:0|0:0|0:0,0:0:0:0:
102,239,12218,1,10,0:0:0:0:
199,220,12570,1,10,0:0:0:0:
296,198,12923,1,8,0:0:0:0:
394,180,13276,6,0,L|413:307,2,99.9999999999999,8|8|8,3:0|3:0|3:0,0:0:0:0:
371,82,14335,1,8,3:0:0:0:
279,41,14688,1,4,0:0:0:0:
256,192,15041,12,6,17512,0:0:0:0:
161,122,18923,6,0,L|172:250,2,99.9999999999999,0|2|2,3:0|0:0|0:0,0:0:0:0:
198,28,19982,1,10,0:0:0:0:
270,96,20335,6,0,B|350:79|350:79|458:109,2,150,4|0|8,0:0|0:0|0:0,0:0:0:0:
173,123,21747,2,0,B|92:106|92:106|-15:136,2,150,0|0|8,0:0|0:0|0:0,0:0:0:0:
244,193,23159,6,0,P|313:229|428:190,1,200,0|0,0:0|3:0,0:0:0:0:
494,264,24218,1,8,0:0:0:0:
407,313,24570,2,0,P|292:321|175:268,1,200,0|0,0:0|3:0,0:0:0:0:
127,242,25629,1,8,3:0:0:0:
82,153,25982,6,0,L|93:49,1,99.9999999999999,8|8,0:0|0:0,0:0:0:0:
190,31,26688,2,0,L|179:130,1,99.9999999999999,8|8,0:0|0:0,0:0:0:0:
272,166,27394,2,0,L|282:66,1,99.9999999999999,8|8,0:0|0:0,0:0:0:0:
382,57,28100,1,10,0:0:0:0:
371,156,28452,1,10,0:0:0:0:
360,256,28806,6,0,L|349:360,1,99.9999999999999,8|8,0:0|0:0,0:0:0:0:
251,373,29512,2,0,L|261:273,1,99.9999999999999,8|8,0:0|0:0,0:0:0:0:
169,238,30218,2,0,L|158:337,1,99.9999999999999,8|8,0:0|0:0,0:0:0:0:
59,347,30924,1,10,0:0:0:0:
70,248,31276,1,10,0:0:0:0:
81,148,31629,6,0,P|135:135|180:139,1,99.9999999999999,8|8,0:0|0:0,0:0:0:0:
268,184,32335,2,0,P|317:187|365:174,1,99.9999999999999,8|8,0:0|0:0,0:0:0:0:
448,231,33041,2,0,L|437:330,1,99.9999999999999,8|8,0:0|0:0,0:0:0:0:
346,373,33747,2,0,L|356:273,1,99.9999999999999,8|8,0:0|0:0,0:0:0:0:
365,174,34453,6,0,P|348:122|176:152,1,250,6|2,0:0|0:0,0:0:0:0:
104,192,35688,2,0,L|104:343,1,150,2|8,0:0|3:0,0:0:0:0:
364,192,37276,6,0,B|419:323|419:323|505:110|505:110|259:108,1,599.999999999999,4|0,0:0|0:0,0:0:0:0:
151,264,40100,6,0,L|166:75,2,150,8|8|0,0:0|0:0|0:0,0:0:0:0:
61,218,41512,2,0,L|72:367,2,150,10|2|8,0:0|0:0|0:0,0:0:0:0:
65,118,42923,6,0,P|117:109|172:121,1,99.9999999999999,4|8,0:0|0:0,0:0:0:0:
262,132,43629,2,0,P|311:140|359:131,1,99.9999999999999,0|8,0:0|0:0,0:0:0:0:
459,118,44335,2,0,L|470:240,2,99.9999999999999,2|8|0,0:0|0:0|0:0,0:0:0:0:
399,38,45394,1,8,0:0:0:0:
375,135,45747,6,0,L|390:323,2,150,6|0|8,0:0|0:0|0:0,0:0:0:0:
275,143,47159,2,0,L|165:163,1,99.9999999999999,0|0,3:0|0:0,0:0:0:0:
158,259,47865,1,0,3:0:0:0:
257,244,48218,1,0,3:0:0:0:
313,326,48570,6,0,B|410:346|410:346|498:314,2,150,6|2|8,0:0|0:0|0:0,0:0:0:0:
218,293,49982,1,0,0:0:0:0:
205,193,50335,1,8,0:0:0:0:
303,210,50688,2,0,L|405:231,1,99.9999999999999,0|8,0:0|0:0,0:0:0:0:
256,192,51394,12,0,52806,3:0:0:0:
365,158,54218,5,4,0:0:0:0:
454,115,54570,2,0,L|462:214,2,99.9999999999999,8|0|8,0:0|3:0|0:0,0:0:0:0:
372,56,55629,2,0,P|330:47|275:57,1,99.9999999999999,0|8,0:0|0:0,0:0:0:0:
182,97,56335,1,0,3:0:0:0:
89,133,56688,1,8,0:0:0:0:
105,231,57041,6,0,P|186:249|275:212,2,150,2|0|10,0:0|0:0|0:0,0:0:0:0:
26,168,58453,2,0,L|37:68,1,99.9999999999999,2|10,3:0|0:0,0:0:0:0:
135,52,59159,1,0,0:0:0:0:
216,110,59512,1,8,0:0:0:0:
301,57,59865,5,4,0:0:0:0:
384,111,60218,2,0,L|390:12,2,99.9999999999999,8|0|8,0:0|3:0|0:0,0:0:0:0:
289,143,61276,2,0,L|282:242,1,99.9999999999999,0|8,0:0|0:0,0:0:0:0:
362,303,61982,1,2,3:0:0:0:
372,203,62334,1,8,0:0:0:0:
470,186,62688,6,0,L|458:344,2,150,2|0|8,0:0|0:0|0:0,0:0:0:0:
440,90,64100,2,0,P|389:74|323:88,1,99.9999999999999,0|10,3:0|0:0,0:0:0:0:
244,94,64806,1,2,0:0:0:0:
143,94,65159,1,10,3:0:0:0:
95,182,65512,5,6,0:0:0:0:
144,270,65865,2,0,L|262:267,2,99.9999999999999,8|0|8,0:0|3:0|0:0,0:0:0:0:
95,182,66923,2,0,L|213:179,1,99.9999999999999,0|8,0:0|0:0,0:0:0:0:
295,185,67629,1,0,3:0:0:0:
309,283,67982,1,8,0:0:0:0:
408,278,68335,6,0,L|388:112,2,150,2|0|10,0:0|0:0|0:0,0:0:0:0:
376,373,69747,2,0,L|266:360,1,99.9999999999999,2|10,3:0|0:0,0:0:0:0:
189,311,70453,1,0,3:0:0:0:
174,213,70806,1,8,0:0:0:0:
74,223,71159,6,0,P|79:273|93:334,2,99.9999999999999,2|8|0,0:0|0:0|3:0,0:0:0:0:
116,132,72218,1,8,0:0:0:0:
174,213,72570,2,0,P|179:263|193:324,2,99.9999999999999,2|8|0,0:0|0:0|3:0,0:0:0:0:
232,131,73629,1,8,0:0:0:0:
323,172,73982,6,0,P|409:189|486:161,2,150,0|2|8,0:0|0:0|0:0,0:0:0:0:
242,231,75394,2,0,L|253:339,2,99.9999999999999,6|8|0,0:0|0:0|3:0,0:0:0:0:
232,131,76453,1,0,3:0:0:0:
256,192,76806,12,6,79629,0:0:0:0:
