osu file format v14

[General]
AudioFilename: audio.mp3
AudioLeadIn: 0
PreviewTime: 54041
Countdown: 0
SampleSet: Soft
StackLeniency: 0.4
Mode: 0
LetterboxInBreaks: 0
WidescreenStoryboard: 0

[Editor]
Bookmarks: 3041,19982,28100,31012,37012,47070,50688,57747,65247
DistanceSpacing: 1.7
BeatDivisor: 4
GridSize: 16
TimelineZoom: 1

[Metadata]
Title:Great Days
TitleUnicode:Great Days
Artist:Karen Aoki & Daisuke Hasegawa
ArtistUnicode:青木カレン・ハセガワダイスケ
Creator:Testo
Version:Crazy Diamond
Source:ジョジョの奇妙な冒険 ダイヤモンドは砕けない
Tags:JoJo's Bizarre Adventure Diamond Is Unbreakable no kimyou na bouken op opening
BeatmapID:1209277
BeatmapSetID:570494

[Difficulty]
HPDrainRate:6
CircleSize:4
OverallDifficulty:8
ApproachRate:9
SliderMultiplier:1.7
SliderTickRate:1

[Events]
//Background and Video events
0,0,"jojo_s_bizarre_adventure_diamond_is_unbreakable_by_franky4fingersx2-d9nw5lg.jpg",0,0
Video,0,"JOJOOPGREATDAYSFIXED.avi"
//Break Periods
//Storyboard Layer 0 (Background)
//Storyboard Layer 1 (Fail)
//Storyboard Layer 2 (Pass)
//Storyboard Layer 3 (Foreground)
//Storyboard Sound Samples

[TimingPoints]
571,352.941176470588,4,2,1,60,1,0
571,-125,4,2,1,60,0,0
1982,-100,4,2,1,70,0,0
13276,-125,4,2,1,60,0,0
14688,-125,4,2,1,50,0,0
18923,-111.111111111111,4,2,1,55,0,0
20335,-111.111111111111,4,2,1,60,0,0
25982,-100,4,2,1,65,0,0
35688,-142.857142857143,4,2,1,55,0,0
36218,-125,4,2,1,50,0,0
37276,-142.857142857143,4,2,1,50,0,0
41512,-125,4,2,1,55,0,0
42923,-111.111111111111,4,2,1,60,0,0
48570,-111.111111111111,4,2,1,65,0,0
52806,-111.111111111111,4,2,1,70,0,0
54218,-90.9090909090909,4,2,1,70,0,1
76806,-200,4,2,1,50,0,0

[Colours]
Combo1 : 255,0,128
Combo2 : 0,255,168
Combo3 : 244,250,37
Combo4 : 0,191,255

[HitObjects]
190,118,571,6,0,L|181:217,1,68,8|0,3:0|0:0,0:0:0:0:
309,240,923,2,0,L|301:161,1,68,8|0,3:0|0:0,0:0:0:0:
220,289,1276,1,8,3:0:0:0:
326,336,1453,1,0,3:0:0:0:
392,240,1629,1,8,3:0:0:0:
388,206,1717,1,8,3:0:0:0:
385,172,1805,1,8,3:0:0:0:
382,138,1893,1,8,3:0:0:0:
379,104,1982,6,0,P|416:91|479:108,1,85,6|0,0:0|0:0,0:0:0:0:
309,240,2335,2,0,P|272:253|209:236,1,85,10|0,0:0|0:0,0:0:0:0:
87,149,2688,2,0,L|96:46,1,85,2|2,0:0|0:0,0:0:0:0:
273,39,3041,2,0,L|265:123,1,85,8|2,0:0|0:0,0:0:0:0:
227,246,3394,5,0,3:0:0:0:
72,291,3570,1,2,0:0:0:0:
103,132,3747,1,10,0:0:0:0:
103,132,3923,1,2,0:0:0:0:
156,285,4100,1,2,3:0:0:0:
156,285,4276,1,2,0:0:0:0:
289,193,4453,1,8,0:0:0:0:
404,348,4629,5,2,0:0:0:0:
404,348,4718,1,2,0:0:0:0:
404,348,4806,2,0,B|361:353|361:353|313:341,1,85,6|0,0:0|0:0,0:0:0:0:
197,180,5159,2,0,B|240:175|240:175|288:187,1,85,10|0,0:0|0:0,0:0:0:0:
222,379,5512,2,0,L|210:289,1,85,2|2,0:0|0:0,0:0:0:0:
379,153,5865,2,0,L|390:237,1,85,8|2,0:0|0:0,0:0:0:0:
288,192,6218,5,0,3:0:0:0:
113,139,6394,1,2,0:0:0:0:
127,308,6570,1,10,0:0:0:0:
127,308,6747,1,2,0:0:0:0:
221,129,6923,1,2,3:0:0:0:
35,230,7100,1,2,0:0:0:0:
220,336,7276,1,8,0:0:0:0:
184,208,7453,5,2,0:0:0:0:
184,208,7541,1,2,0:0:0:0:
184,208,7629,2,0,P|231:218|281:193,1,85,14|0,0:0|0:0,0:0:0:0:
408,68,7982,2,0,P|361:58|311:83,1,85,10|0,0:0|0:0,0:0:0:0:
376,293,8335,2,0,L|381:199,1,85,10|2,0:0|0:0,0:0:0:0:
184,208,8688,2,0,L|188:292,1,85,8|2,0:0|0:0,0:0:0:0:
231,118,9041,5,8,0:0:0:0:
116,60,9218,1,2,0:0:0:0:
46,166,9394,1,10,0:0:0:0:
46,166,9570,1,2,0:0:0:0:
213,30,9747,1,10,0:0:0:0:
213,30,9923,1,2,3:0:0:0:
259,233,10100,1,8,0:0:0:0:
166,140,10276,1,0,3:0:0:0:
31,237,10453,6,0,L|45:329,1,85,10|0,0:0|0:0,0:0:0:0:
246,317,10806,2,0,L|258:232,1,85,10|0,0:0|0:0,0:0:0:0:
396,89,11159,2,0,P|360:95|299:82,1,85,10|2,0:0|0:0,0:0:0:0:
131,35,11512,2,0,P|167:29|228:42,1,85,8|2,0:0|0:0,0:0:0:0:
38,164,11865,5,8,0:0:0:0:
52,48,12041,1,2,0:0:0:0:
231,162,12218,1,10,0:0:0:0:
214,36,12394,1,2,0:0:0:0:
112,210,12570,1,10,0:0:0:0:
131,35,12747,1,2,3:0:0:0:
316,112,12923,2,0,P|338:111|407:86,1,85,8|0,0:0|3:0,0:0:0:0:
231,162,13276,6,0,L|237:252,1,68,8|0,3:0|0:0,0:0:0:0:
429,283,13629,2,0,L|423:193,1,68,8|0,3:0|0:0,0:0:0:0:
270,339,13982,1,8,3:0:0:0:
429,283,14159,1,0,3:0:0:0:
270,154,14335,1,8,3:0:0:0:
225,152,14423,1,8,3:0:0:0:
188,178,14511,1,8,3:0:0:0:
172,217,14599,1,8,3:0:0:0:
171,263,14688,6,0,P|138:283|192:189,1,408,4|2,0:0|0:0,0:0:0:0:
188,178,16100,6,0,B|218:236|261:246|307:246|343:238|379:207|459:70|265:51|223:80|239:162|281:157,1,408,4|2,0:0|0:0,0:0:0:0:
273,156,17512,6,0,L|408:138,1,136,6|2,0:0|0:0,0:0:0:0:
501,243,18041,2,0,P|439:228|364:251,1,136
271,311,18570,2,0,P|224:315|186:307,1,68,2|0,0:0|0:0,0:0:0:0:
272,158,18923,6,0,P|311:166|355:157,1,76.4999976654053,0|0,3:0|0:0,0:0:0:0:
480,64,19276,2,0,P|441:56|397:65,1,76.4999976654053,2|0,0:0|0:0,0:0:0:0:
272,158,19629,1,2,0:0:0:0:
257,162,19717,1,2,0:0:0:0:
242,165,19805,1,2,0:0:0:0:
226,165,19893,1,2,0:0:0:0:
210,163,19982,2,0,P|202:122|211:82,1,76.4999976654053,10|0,0:0|0:0,0:0:0:0:
151,333,20335,6,0,L|238:329,1,76.4999976654053,4|0,0:0|0:0,0:0:0:0:
377,207,20688,2,0,L|290:211,1,76.4999976654053,10|0,0:0|0:0,0:0:0:0:
228,330,21041,1,0,3:0:0:0:
355,292,21218,1,2,0:0:0:0:
231,167,21394,2,0,P|219:214|239:265,1,76.4999976654053,8|0,0:0|0:0,0:0:0:0:
73,69,21747,6,0,L|167:65,1,76.4999976654053
12,233,22100,2,0,L|8:143,1,76.4999976654053,10|0,0:0|0:0,0:0:0:0:
126,220,22453,1,0,3:0:0:0:
86,343,22629,1,2,0:0:0:0:
266,279,22806,2,0,P|225:272|176:281,1,76.4999976654053,8|0,0:0|0:0,0:0:0:0:
273,104,23159,6,0,L|351:95,1,76.4999976654053
491,216,23512,2,0,L|413:207,1,76.4999976654053,10|0,0:0|0:0,0:0:0:0:
348,95,23865,1,0,3:0:0:0:
258,188,24041,1,2,0:0:0:0:
150,82,24218,2,0,L|74:90,1,76.4999976654053,8|0,0:0|0:0,0:0:0:0:
22,287,24570,6,0,P|65:286|107:273,1,76.4999976654053
258,188,24923,2,0,P|215:189|173:202,1,76.4999976654053,10|0,0:0|0:0,0:0:0:0:
378,281,25276,1,0,3:0:0:0:
468,153,25453,1,2,0:0:0:0:
294,69,25629,1,8,3:0:0:0:
283,105,25717,1,8,3:0:0:0:
284,143,25805,1,8,3:0:0:0:
297,179,25893,1,8,3:0:0:0:
321,209,25982,6,0,L|416:202,1,85,8|0,0:0|0:0,0:0:0:0:
176,295,26335,2,0,L|81:288,1,85,8|0,0:0|0:0,0:0:0:0:
201,121,26688,2,0,L|208:216,1,85,8|0,0:0|0:0,0:0:0:0:
365,361,27041,2,0,L|371:276,1,85,8|0,0:0|0:0,0:0:0:0:
277,86,27394,6,0,L|284:181,1,85,8|0,0:0|0:0,0:0:0:0:
43,173,27747,2,0,L|49:88,1,85,8|2,0:0|0:0,0:0:0:0:
193,156,28100,1,10,0:0:0:0:
106,219,28276,1,2,0:0:0:0:
193,63,28453,1,10,0:0:0:0:
282,217,28629,1,6,0:0:0:0:
103,304,28806,6,0,P|102:252|114:194,1,85,8|0,0:0|0:0,0:0:0:0:
285,132,29159,2,0,P|286:184|274:242,1,85,8|0,0:0|0:0,0:0:0:0:
193,63,29512,2,0,L|282:53,1,85,8|0,0:0|0:0,0:0:0:0:
106,219,29865,2,0,L|96:130,1,85,8|0,0:0|0:0,0:0:0:0:
240,300,30218,6,0,L|151:310,1,85,8|0,0:0|0:0,0:0:0:0:
275,212,30570,1,8,0:0:0:0:
330,322,30747,1,2,0:0:0:0:
187,207,30923,1,10,0:0:0:0:
377,180,31100,1,2,0:0:0:0:
240,300,31276,1,10,0:0:0:0:
286,96,31453,1,6,0:0:0:0:
456,272,31629,6,0,L|448:368,1,85,8|0,0:0|0:0,0:0:0:0:
292,172,31982,2,0,L|388:180,1,85,8|0,0:0|0:0,0:0:0:0:
130,170,32335,2,0,L|138:74,1,85,8|0,0:0|0:0,0:0:0:0:
240,300,32688,2,0,L|233:384,1,85,8|0,0:0|0:0,0:0:0:0:
46,166,33041,6,0,P|86:174|148:163,1,85,8|0,0:0|0:0,0:0:0:0:
323,303,33394,2,0,P|283:295|221:306,1,85,8|0,0:0|0:0,0:0:0:0:
480,240,33747,2,0,P|488:200|477:138,1,85,8|0,0:0|0:0,0:0:0:0:
295,88,34100,2,0,P|287:128|298:190,1,85,8|0,0:0|0:0,0:0:0:0:
160,303,34453,6,0,P|168:229|154:157,1,127.5,6|0,0:0|0:0,0:0:0:0:
147,145,34806,1,10,0:0:0:0:
4,120,34982,2,0,L|0:221,1,85,2|0,0:0|3:0,0:0:0:0:
160,303,35335,1,2,0:0:0:0:
264,195,35512,1,8,0:0:0:0:
392,330,35688,6,2,B|378:307|376:273|376:273|367:305|341:338,1,118.999996368408
260,127,36218,2,0,L|264:216,1,68,8|0,3:0|0:0,0:0:0:0:
262,350,36570,1,0,3:0:0:0:
162,209,36747,1,2,3:0:0:0:
342,281,36923,1,2,3:0:0:0:
151,303,37100,1,2,3:0:0:0:
342,281,37276,6,0,B|403:160|278:32|278:32|233:126|233:126|183:37|183:37|63:189|158:312,1,773.499976394654,4|2,0:0|0:0,0:0:0:0:
216,210,39747,2,0,P|244:205|294:204,1,59.4999981842042,2|0,0:0|0:0,0:0:0:0:
395,343,40100,6,0,P|357:361|275:327,1,118.999996368408,8|0,0:0|0:0,0:0:0:0:
106,247,40629,2,0,P|144:265|164:137,1,237.999992736817,8|0,0:0|0:0,0:0:0:0:
40,64,41512,6,0,P|81:70|124:59,1,68,10|0,0:0|0:0,0:0:0:0:
250,27,41865,1,8,0:0:0:0:
250,27,42041,2,0,P|287:20|391:35,1,136,2|2,0:0|0:0,0:0:0:0:
408,44,42482,1,0,0:0:0:0:
432,56,42570,1,8,0:0:0:0:
445,202,42747,1,0,3:0:0:0:
321,301,42923,6,0,P|291:309|164:281,1,152.999995330811,4|8,0:0|0:0,0:0:0:0:
159,146,43453,1,0,3:0:0:0:
159,146,43629,2,0,L|271:134,1,76.4999976654053
76,260,43982,2,0,L|-36:248,1,76.4999976654053,8|0,0:0|0:0,0:0:0:0:
177,377,44335,6,0,L|8:360,1,152.999995330811,2|8,0:0|0:0,0:0:0:0:
195,223,44865,2,0,L|363:206,1,152.999995330811
447,337,45394,2,0,L|370:344,1,76.4999976654053,8|0,0:0|0:0,0:0:0:0:
177,377,45747,6,0,P|171:340|176:293,1,76.4999976654053,6|0,0:0|0:0,0:0:0:0:
305,174,46100,1,8,0:0:0:0:
305,174,46276,2,0,P|248:180|145:156,1,152.999995330811
32,43,46806,1,8,0:0:0:0:
0,190,46982,1,0,0:0:0:0:
184,41,47159,5,0,3:0:0:0:
214,212,47335,1,8,3:0:0:0:
76,125,47512,1,0,0:0:0:0:
76,125,47600,1,8,3:0:0:0:
76,125,47688,1,0,0:0:0:0:
47,292,47865,2,0,L|134:295,1,76.4999976654053,0|0,3:0|0:0,0:0:0:0:
153,294,48129,1,0,3:0:0:0:
153,294,48218,1,0,3:0:0:0:
308,270,48394,1,0,0:0:0:0:
403,100,48570,6,0,B|361:84|361:84|276:98,1,114.749996498108,6|0,0:0|0:0,0:0:0:0:
262,102,48923,1,8,0:0:0:0:
120,175,49100,2,0,L|29:161,1,76.4999976654053,2|0,0:0|0:0,0:0:0:0:
126,37,49453,1,0,0:0:0:0:
126,37,49629,2,0,P|160:30|216:45,1,76.4999976654053,8|0,0:0|0:0,0:0:0:0:
299,192,49982,6,0,P|265:199|209:184,1,76.4999976654053
352,39,50335,2,0,P|386:32|442:47,1,76.4999976654053,8|0,0:0|0:0,0:0:0:0:
492,172,50688,2,0,L|482:268,1,76.4999976654053
324,321,51041,2,0,L|247:312,1,76.4999976654053,8|0,0:0|0:0,0:0:0:0:
38,169,51394,6,0,L|159:155,1,114.749996498108,6|0,0:0|0:0,0:0:0:0:
182,154,51747,1,8,0:0:0:0:
375,223,51923,1,0,0:0:0:0:
375,223,52100,2,0,B|385:182|385:182|378:137,1,76.4999976654053,2|0,0:0|0:0,0:0:0:0:
186,79,52453,2,0,B|176:120|176:120|183:165,1,76.4999976654053,10|0,0:0|0:0,0:0:0:0:
278,181,52806,1,0,3:0:0:0:
431,50,52982,5,10,0:0:0:0:
258,178,53159,1,10,0:0:0:0:
446,268,53335,1,2,0:0:0:0:
212,306,53512,5,2,3:0:0:0:
56,142,53688,1,2,0:0:0:0:
56,142,53776,1,0,3:0:0:0:
56,142,53865,1,10,0:0:0:0:
296,81,54041,1,2,3:0:0:0:
446,268,54218,6,0,P|401:274|331:252,1,93.5000028533936,4|0,0:0|0:0,0:0:0:0:
296,81,54570,1,8,0:0:0:0:
146,210,54747,2,0,L|135:109,1,93.5000028533936,0|0,0:0|3:0,0:0:0:0:
301,215,55100,1,0,0:0:0:0:
113,286,55276,1,8,0:0:0:0:
206,72,55453,6,0,L|230:293,1,187.000005706787
5,147,55982,2,0,L|97:136,1,93.5000028533936,8|0,0:0|0:0,0:0:0:0:
40,351,56335,2,0,P|19:309|21:263,1,93.5000028533936,0|0,3:0|0:0,0:0:0:0:
261,122,56688,2,0,P|262:172|241:212,1,93.5000028533936,8|0,0:0|0:0,0:0:0:0:
5,147,57041,6,0,P|25:128|178:163,1,187.000005706787,2|8,0:0|0:0,0:0:0:0:
273,291,57570,1,0,0:0:0:0:
443,253,57747,2,2,P|448:199|434:141,1,93.5000028533936,2|2,3:0|0:0,0:0:0:0:
261,122,58100,2,2,P|207:117|149:131,1,93.5000028533936,10|2,0:0|0:0,0:0:0:0:
136,152,58365,1,0,0:0:0:0:
136,152,58453,6,2,B|110:217|110:217|141:340,1,187.000005706787,2|10,3:0|0:0,0:0:0:0:
264,350,58982,1,2,0:0:0:0:
351,194,59159,1,0,0:0:0:0:
182,246,59335,1,0,0:0:0:0:
372,327,59512,2,0,P|417:331|471:317,1,93.5000028533936,8|0,0:0|0:0,0:0:0:0:
483,278,59776,1,0,3:0:0:0:
483,278,59865,6,0,L|491:164,1,93.5000028533936,4|0,0:0|0:0,0:0:0:0:
339,70,60218,1,8,0:0:0:0:
196,224,60394,2,0,L|310:232,1,93.5000028533936,0|0,0:0|3:0,0:0:0:0:
152,118,60747,1,0,0:0:0:0:
113,273,60923,1,8,0:0:0:0:
239,79,61100,6,0,P|209:39|78:62,1,187.000005706787
24,261,61629,2,0,P|82:280|125:266,1,93.5000028533936,8|0,0:0|0:0,0:0:0:0:
293,175,61982,2,0,L|308:278,1,93.5000028533936,2|0,3:0|0:0,0:0:0:0:
72,144,62335,2,0,L|85:51,1,93.5000028533936,8|0,0:0|0:0,0:0:0:0:
372,123,62688,6,0,P|319:84|202:148,1,187.000005706787,2|8,0:0|0:0,0:0:0:0:
179,274,63218,1,0,0:0:0:0:
370,209,63394,1,0,3:0:0:0:
213,122,63570,1,0,0:0:0:0:
315,321,63747,2,0,L|416:315,1,93.5000028533936,8|0,0:0|0:0,0:0:0:0:
429,129,64100,5,0,3:0:0:0:
281,202,64276,1,2,0:0:0:0:
252,35,64453,5,10,0:0:0:0:
370,209,64629,1,2,0:0:0:0:
401,22,64806,5,2,0:0:0:0:
266,216,64982,1,2,0:0:0:0:
484,58,65159,5,10,3:0:0:0:
446,31,65247,1,8,3:0:0:0:
401,22,65335,1,10,3:0:0:0:
355,32,65423,1,8,3:0:0:0:
318,59,65512,6,0,B|268:65|268:65|215:42,1,93.5000028533936,6|0,0:0|0:0,0:0:0:0:
71,90,65865,1,8,0:0:0:0:
25,247,66041,2,0,B|75:253|75:253|128:230,1,93.5000028533936,0|0,0:0|3:0,0:0:0:0:
248,185,66394,1,0,0:0:0:0:
331,341,66570,1,8,0:0:0:0:
423,156,66747,6,0,B|451:230|451:230|443:344,1,187.000005706787
241,278,67276,2,0,L|248:170,1,93.5000028533936,8|0,0:0|0:0,0:0:0:0:
91,118,67629,2,0,P|57:116|-12:135,1,93.5000028533936,0|0,3:0|0:0,0:0:0:0:
55,294,67982,2,0,P|89:296|158:277,1,93.5000028533936,8|0,0:0|0:0,0:0:0:0:
320,181,68335,6,0,P|344:174|350:285,1,187.000005706787,2|8,0:0|0:0,0:0:0:0:
252,364,68865,1,0,0:0:0:0:
227,182,69041,2,2,L|214:77,1,93.5000028533936,2|2,3:0|0:0,0:0:0:0:
37,276,69394,2,2,P|92:270|140:255,1,93.5000028533936,10|2,0:0|0:0,0:0:0:0:
173,243,69659,1,0,3:0:0:0:
173,243,69747,6,2,P|266:241|327:337,1,187.000005706787,2|10,3:0|0:0,0:0:0:0:
379,186,70276,1,2,0:0:0:0:
209,117,70453,1,0,3:0:0:0:
223,337,70629,1,0,0:0:0:0:
411,256,70806,2,0,P|360:239|301:239,1,93.5000028533936,8|0,0:0|0:0,0:0:0:0:
276,245,71070,1,0,3:0:0:0:
276,245,71159,6,0,P|229:241|185:225,1,93.5000028533936,2|0,0:0|0:0,0:0:0:0:
117,42,71512,1,8,0:0:0:0:
295,44,71688,2,0,L|309:146,1,93.5000028533936,0|0,0:0|3:0,0:0:0:0:
276,245,72041,1,2,0:0:0:0:
104,134,72218,2,0,L|116:41,1,93.5000028533936,8|0,0:0|0:0,0:0:0:0:
372,31,72570,6,0,L|391:173,1,140.25000428009,2|0,0:0|0:0,0:0:0:0:
396,212,72923,1,8,0:0:0:0:
304,322,73100,2,0,P|250:331|198:315,1,93.5000028533936,0|0,0:0|3:0,0:0:0:0:
121,186,73453,1,0,0:0:0:0:
276,99,73629,1,8,0:0:0:0:
64,263,73806,6,2,P|27:191|74:103,1,187.000005706787,6|2,0:0|0:0,0:0:0:0:
276,99,74335,1,10,0:0:0:0:
395,313,74512,2,2,P|332:325|288:318,1,93.5000028533936,2|2,0:0|3:0,0:0:0:0:
173,246,74865,1,2,0:0:0:0:
276,99,75041,1,8,0:0:0:0:
401,238,75218,1,2,0:0:0:0:
401,238,75306,1,2,0:0:0:0:
401,238,75394,5,6,0:0:0:0:
172,107,75570,1,8,0:0:0:0:
276,327,75747,1,8,0:0:0:0:
392,138,75923,1,8,3:0:0:0:
171,240,76100,6,0,P|161:191|169:138,1,93.5000028533936,0|8,3:0|0:0,0:0:0:0:
342,224,76453,1,0,3:0:0:0:
276,327,76629,1,8,3:0:0:0:
276,327,76718,1,8,3:0:0:0:
276,327,76806,6,0,B|320:270|174:248|225:140|243:101|289:102|338:100|360:151|360:151|432:110|496:163|496:264|442:311|333:275|345:354,1,680,12|6,0:0|0:0,0:0:0:0:
